#TITLE:Våld;
#SUBTITLE:;
#ARTIST:Kurt-Ingvarz;
#TITLETRANSLIT:;
#SUBTITLETRANSLIT:;
#ARTISTTRANSLIT:;
#CREDIT:;
#BANNER:Vld Banner.jpg;
#BACKGROUND:Vld BG.jpg;
#LYRICSPATH:;
#CDTITLE:!IzzyTitle.png;
#MUSIC:Vld.mp3;
#OFFSET:-0.040;
#SAMPLESTART:33.333;
#SAMPLELENGTH:12.000;
#SELECTABLE:YES;
#BPMS:0.000=180.000,80.000=90.000,96.000=180.000,128.000=90.000,152.000=180.000,232.000=90.000,248.000=180.000,280.000=90.000,304.000=180.000,352.000=90.000,400.000=180.000;
#STOPS:;
#BGCHANGES:;
// cache tags:
#FIRSTBEAT:12.000;
#LASTBEAT:452.000;
#SONGFILENAME:Songs/Bemani.se Megapack/(Izzy) Vld/Vld.sm;
#HASMUSIC:1;
#HASBANNER:1;
#MUSICLENGTH:196.239;
// end cache tags

//---------------dance-single - ----------------
#NOTES:
     dance-single:
     :
     Hard:
     10:
     0.815,1.000,1.000,0.336,0.079,716.000,337.000,66.000,0.000,0.000:
0000
0000
0000
0000
,
0000
0000
0000
0000
,
0000
0000
0000
0000
,
2002
0000
0000
0000
0000
0000
0000
3003
2002
0000
0000
0000
0000
0000
0000
3003
,
1000
0000
0100
0000
1000
0000
0010
0000
1000
0000
0100
0000
0001
0000
1000
0100
,
1000
0000
0100
0000
0001
0000
0010
0000
0100
0000
0001
0000
0010
0000
1000
0001
,
1000
0000
0010
0000
0001
0000
0100
0000
0001
0000
0010
0000
1000
0000
0001
0010
,
0001
0000
0010
0000
1000
0000
0100
0000
0010
0000
1000
0000
0100
0000
0001
1000
,
0001
0000
0100
0000
1010
0000
0010
0000
1100
0000
0100
0000
1001
0000
1000
0100
,
1000
0000
0100
0000
1001
0000
0010
0000
0110
0000
0001
0000
0110
0000
1000
0001
,
1001
0000
0010
0000
0101
0000
0100
0000
0011
0000
0010
0000
1100
0000
0001
0010
,
0011
0000
0010
0000
1100
0000
0100
0000
0011
0000
1000
0000
0220
0000
0000
0330
,
0012
0000
0010
0000
0010
0000
0010
0000
0010
0000
1000
0003
0010
0000
0010
0000
,
0021
0001
0001
0001
0031
0001
0101
0101
,
1200
1000
1000
1000
1300
1000
0101
0011
,
0102
0000
0100
0000
0100
0000
0100
0000
0103
0000
0100
0000
0120
0000
0100
0030
,
0012
0000
0010
0000
0010
0000
0010
0000
0010
0000
0010
0003
0010
0000
0010
0000
,
1020
1000
1000
1000
1030
1000
0001
0001
,
0201
0001
0001
0001
0301
0001
1001
1001
,
2001
0001
0001
0001
3001
1001
1001
1001
,
1001
0000
1001
0000
0000
0000
1001
0000
0000
0000
1001
0000
0000
0000
1001
1001
,
0000
0000
0011
0000
0000
0000
0011
0000
0000
0000
0011
0000
0000
0000
0011
0011
,
0000
0000
1100
0000
0000
0000
1100
0000
0000
0000
1100
0000
0000
0000
1100
1100
,
0000
0000
0110
0000
0000
0000
0110
0000
0000
0000
0110
0000
0000
0000
0110
0110
,
0012
0000
0010
0000
0010
0000
0010
0000
0010
0000
0010
0003
0010
0000
0010
0000
,
0120
0100
0100
0100
0130
0110
0110
0110
,
0201
0001
0001
0001
0301
0001
1001
1001
,
0102
0100
0100
0100
0103
0100
0100
0100
,
0102
0000
0100
0000
0100
0000
0100
0000
0100
0000
0100
0003
0110
0000
0110
0000
,
0120
0100
0100
0100
0130
0100
0100
0100
,
0201
0001
0001
0001
0301
0001
1001
1001
,
2001
0001
0001
0001
3001
0110
1100
0011
,
1001
0000
1001
0000
0000
0000
1001
0000
1001
0000
1001
0000
0000
0000
1001
1001
,
1100
0000
1100
0000
0000
0000
1100
0000
1100
0000
1100
0000
0000
0000
1100
1100
,
0011
0000
0011
0000
0011
0000
0011
0000
0011
0000
0011
0011
0000
0000
0011
0011
,
0110
0000
0110
0000
0000
0110
0110
0000
0110
0000
0110
0000
0000
0000
0110
0110
,
1001
0000
1001
0000
1001
0000
1001
0011
1001
0000
0000
0000
0000
0000
0000
0000
,
1001
0000
0000
1001
1001
0000
0000
0000
,
0101
0001
0010
0100
1010
0100
1000
0100
,
1001
0010
0100
0010
0100
1001
1100
0011
,
1001
0001
0001
0001
1001
0000
1010
0000
,
0101
0000
1100
1010
0000
0000
0000
0000
,
1010
1000
0100
0010
0101
0010
0001
0010
,
0110
0100
0010
0100
0010
0110
0011
1100
,
0110
1000
1000
1000
0110
0000
0101
0000
,
1010
0000
0011
0101
0000
0000
0000
0000
,
0000
0000
1001
0000
1100
0000
0011
1001
,
1001
1001
1001
1001
,
1001
1001
1001
1001
,
1001
1001
1001
1001
,
0012
0000
0010
0000
0010
0000
0010
0000
0010
0000
1000
0003
0010
0000
0010
0000
,
0021
0001
0001
0001
0031
0001
0101
0101
,
1200
1000
1000
1000
1300
1000
0101
0011
,
0102
0000
0100
0000
0100
0000
0100
0000
0103
0000
0100
0000
0120
0000
0100
0030
,
0012
0000
0010
0000
0010
0000
0010
0000
0010
0000
0010
0003
0010
0000
0010
0000
,
1020
1000
1000
1000
1030
1000
0001
0001
,
0201
0001
0001
0001
0301
0001
1001
1001
,
2001
0001
0001
0001
3001
1001
1001
1001
,
1001
1001
1001
1001
1001
0000
1001
0000
1001
1001
1001
1001
0000
0000
1001
1001
,
0000
0000
0011
0000
0000
0000
0011
0000
0000
0000
0011
0000
0000
0000
0011
0011
,
1001
0000
1100
0000
0000
0000
1100
0000
0000
0000
1100
0000
0000
0000
1100
1100
,
0000
0000
0110
0000
0000
0000
0110
0000
0000
0000
0110
0000
0000
0000
0110
0110
,
0012
0000
0010
0000
0010
0000
0010
0000
0010
0000
0010
0003
0010
0000
0010
0000
,
0120
0100
0100
0100
0130
0110
0110
0110
,
0201
0001
0001
0001
0301
0001
1001
1001
,
0102
0100
0100
0100
0103
0100
0100
0100
,
0102
0000
0100
0000
0100
0000
0100
0000
0100
0000
0100
0003
0110
0000
0110
0000
,
0120
0100
0100
0100
0130
0100
0100
0100
,
0201
0001
0001
0001
0301
0001
1001
1001
,
2001
0001
0001
0001
3001
0110
1100
0011
,
1001
0000
0110
0000
0000
0000
1001
0000
0000
0000
0110
0000
0000
0000
1001
0110
,
0000
0000
0011
0000
0000
0000
1100
0000
0000
0000
0011
0000
0000
0000
1100
0011
,
0000
0000
1010
0000
0000
0000
0101
0000
0000
0000
1010
0000
0000
0000
0101
1010
,
0000
0000
1100
0000
0000
0000
0011
0000
0000
0000
1010
0000
0000
0000
0101
1001
,
1001
0000
1001
0000
1001
0000
1001
0011
1001
0000
0000
0000
0000
0000
0000
0000
,
1001
0000
0000
1001
1001
0000
0000
0000
,
0101
0001
0010
0100
1010
0100
1000
0100
,
1001
0010
0100
0010
0100
1001
1100
0011
,
1001
0001
0001
0001
1001
0000
1010
0000
,
0101
0000
1100
1010
0000
0000
0000
0000
,
1010
1000
0100
0010
0101
0010
0001
0010
,
0110
0100
0010
0100
0010
0110
0011
1100
,
0110
1000
1000
1000
0110
0000
0101
0000
,
1010
0000
0011
0101
0000
0000
0000
0000
,
0000
0000
1001
0000
1100
0000
0011
1001
,
1001
1001
1001
1001
,
1001
1001
1001
1001
,
1001
1001
1001
1001
,
0002
0100
0100
0003
0020
0000
0100
0030
,
0200
0000
0010
0300
0002
0000
0100
0003
,
2000
0001
0001
3000
0200
0000
1000
0300
,
2000
0000
0001
3000
0020
0000
0001
0030
,
0012
0000
0000
0003
0200
0000
0000
0300
,
0020
0000
0000
0030
0002
0000
0000
0003
,
0110
0100
1000
0000
0110
0010
0001
0000
,
1001
0100
0010
1001
0110
1000
1000
0000
,
0110
0001
0001
0000
0110
1000
1000
0000
,
1001
0100
1001
0100
0010
0100
1001
0000
,
0011
0011
0011
0011
1100
1100
1100
1100
,
0101
0011
1100
1010
0101
0000
0000
0100
,
0012
0000
0010
0000
0010
0000
0010
0000
0010
0000
0010
0003
0010
0000
0010
0000
,
0120
0100
0100
0100
0130
0110
0110
0110
,
0201
0001
0001
0001
0301
0001
1001
1001
,
0102
0100
0100
0100
0103
0100
0100
0100
,
0102
0000
0100
0000
0100
0000
0100
0000
0100
0000
0100
0003
0110
0000
0110
0000
,
0120
0100
0100
0100
0130
0100
0100
0100
,
0201
0001
0001
0001
0301
0001
1001
1001
,
2001
0001
0001
0001
3001
0110
1100
0011
,
0002
0000
0000
0000
0000
0000
0000
0000
0000
0000
0000
0003
0001
0000
0001
0000
,
0020
0000
0000
0000
0030
0000
0100
0100
,
0201
0000
0000
0000
0300
0000
0010
0010
,
0002
0000
0003
0000
,
0000
2002
0000
0000
,
3003
0000
0000
0000
;

//---------------dance-single - Standard----------------
#NOTES:
     dance-single:
     Standard:
     Medium:
     6:
     0.387,0.518,0.117,0.347,0.054,440.000,23.000,68.000,0.000,0.000:
0000
0000
0000
0000
,
0000
0000
0000
0000
,
0000
0000
0000
0000
,
2002
0000
0000
0000
0000
0000
0000
3003
2002
0000
0000
0000
0000
0000
0000
3003
,
1000
0100
1000
0010
1000
0100
0010
0000
,
0000
0100
0001
0010
0100
0001
0010
0000
,
0000
0010
0001
0100
0001
0010
1000
0000
,
0000
0010
1000
0100
0010
1000
0100
0000
,
0000
0100
1000
0010
0100
1000
0100
0000
,
0000
0100
0001
0010
0100
1000
0100
0000
,
0000
0010
0001
0100
0010
0010
0100
0000
,
0000
0000
0010
0000
1000
0000
0100
0000
0010
0000
0001
0000
0200
0000
0000
0300
,
0002
0000
0000
0000
0000
0000
0000
0000
0000
0000
0000
0003
0010
0000
0010
0000
,
0020
0000
0000
0000
0030
0000
0100
0100
,
0200
0000
0000
0000
0300
0000
0001
0001
,
0002
0000
0000
0000
0000
0000
0000
0000
0003
0000
0000
0000
0020
0000
0000
0030
,
0002
0000
0000
0000
0000
0000
0000
0000
0000
0000
0000
0003
0010
0000
0010
0000
,
0020
0000
0000
0000
0030
0000
0001
0001
,
0200
0000
0000
0000
0300
0000
0001
0001
,
2000
0000
3000
0000
,
0001
0000
0001
0000
0000
0000
0001
0000
0000
0000
0001
0000
0000
0000
0001
0001
,
0000
0000
0010
0000
0000
0000
0010
0000
0000
0000
0010
0000
0000
0000
0010
0010
,
0000
0000
0100
0000
0000
0000
0100
0000
0000
0000
0100
0000
0000
0000
0100
0100
,
0000
0000
1000
0000
0000
0000
1000
0000
0000
0000
1000
0000
0000
0000
1000
1000
,
0002
0000
0000
0000
0000
0000
0000
0000
0000
0000
0000
0003
0010
0000
0010
0000
,
0020
0000
0000
0000
0030
0000
0100
0100
,
0200
0000
0000
0000
0300
0000
0001
0001
,
0002
0000
0000
0000
0000
0000
0000
0000
0003
0000
0000
0000
0020
0000
0000
0030
,
0002
0000
0000
0000
0000
0000
0000
0000
0000
0000
0000
0003
0010
0000
0010
0000
,
0020
0000
0000
0000
0030
0000
0001
0001
,
0200
0000
0000
0000
0300
0000
0001
0001
,
2000
0000
3000
0000
,
0001
0000
0001
0000
0000
0000
0001
0000
0001
0000
0001
0000
0000
0000
0001
0001
,
0100
0000
1000
0000
0000
0000
1000
0000
1000
0000
1000
0000
0000
0000
1000
1000
,
0010
0000
0010
0000
0010
0000
0010
0000
0010
0000
0010
0001
0000
0000
0001
0000
,
0100
0000
0110
0000
0000
0010
0010
0000
0010
0000
0100
0000
0000
0000
0100
0010
,
0001
0000
0010
0000
0100
0000
0010
0100
1000
0000
0000
0000
0000
0000
0000
0000
,
1001
0000
0000
0001
1001
0000
0000
0000
,
0101
0000
0000
0000
0000
0000
1000
0100
,
0100
0000
0100
0010
0100
0000
0000
0000
,
1000
0001
0001
0001
1000
0000
1000
0000
,
0001
0000
0100
0110
0000
0000
0000
0000
,
0101
0000
0000
0000
0000
0000
1000
0100
,
0100
0000
0100
0010
0100
0000
0000
0000
,
1000
0001
0001
0001
1000
0000
1000
0000
,
0001
0000
0100
0110
0000
0000
0000
0000
,
0000
1000
0100
0010
,
0001
1000
0010
0001
,
0010
0100
0010
0001
,
0001
0000
0000
0000
0100
0000
0000
0000
1000
0000
0000
0000
2000
0000
0000
3000
,
0002
0000
0000
0000
0000
0000
0000
0000
0000
0000
0000
0003
0010
0000
0010
0000
,
0020
0000
0000
0000
0030
0000
0100
0100
,
0200
0000
0000
0000
0300
0000
0001
0001
,
0002
0000
0000
0000
0000
0000
0000
0000
0003
0000
0000
0000
0020
0000
0000
0030
,
0002
0000
0000
0000
0000
0000
0000
0000
0000
0000
0000
0003
0010
0000
0010
0000
,
0020
0000
0000
0000
0030
0000
0001
0001
,
0200
0000
0000
0000
0300
0000
0001
0001
,
2000
0000
3000
0000
,
0001
0000
0100
0000
0100
0000
0010
0000
1000
0000
0000
0100
0000
0000
0000
0000
,
0010
0000
0100
0001
0000
0000
0001
0000
0000
0000
0010
0000
0000
0000
0001
0010
,
1000
0000
1000
0000
0000
0000
0100
0000
0000
0000
0010
0000
0000
0000
0010
0001
,
0000
1000
0000
0100
0000
0100
0000
0001
,
0002
0000
0000
0000
0000
0000
0000
0000
0000
0000
0000
0003
0010
0000
0010
0000
,
0020
0000
0000
0000
0030
0000
0100
0100
,
0200
0000
0000
0000
0300
0000
0001
0001
,
0002
0000
0000
0000
0000
0000
0000
0000
0003
0000
0000
0000
0020
0000
0000
0030
,
0002
0000
0000
0000
0000
0000
0000
0000
0000
0000
0000
0003
0010
0000
0010
0000
,
0020
0000
0000
0000
0030
0000
0001
0001
,
0200
0000
0000
0000
0300
0000
0001
0001
,
2000
0000
3000
0000
,
0001
0000
0100
0000
0000
0000
0100
0000
0000
0000
0100
0010
0000
0000
0001
1000
,
0000
0000
1001
0000
0000
0000
1001
0000
0000
0000
0010
0001
0000
0000
0100
0010
,
0000
0000
1010
0000
0000
0000
0101
0000
0000
0000
1000
0000
0000
0000
0001
0100
,
0000
1100
0000
0011
0000
1010
0000
0100
,
0001
0000
0010
0000
0100
0000
0010
0100
0010
0000
0000
0000
0000
0000
0000
0000
,
1001
0000
0000
1000
0001
0000
0000
0000
,
0101
0000
0000
0000
0000
0000
1000
0100
,
0100
0000
0100
0010
0100
0000
0000
0000
,
1000
0001
0001
0001
1000
0000
1000
0000
,
0001
0000
0100
0110
0000
0000
0000
0000
,
0101
0000
0000
0000
0000
0000
1000
0100
,
0100
0000
0100
0010
0100
0000
0000
0000
,
1000
0001
0001
0001
1000
0000
1000
0000
,
0001
0000
0100
0110
0000
0000
0000
0000
,
0000
0000
0001
0000
0010
0000
1000
0100
,
0001
0001
0001
0001
,
0001
0001
0001
0001
,
0001
0001
0001
0001
,
0002
0100
0100
0003
0020
0000
0100
0030
,
0200
0000
0010
0300
0002
0000
0100
0003
,
2000
0001
0001
3000
0200
0000
1000
0300
,
2000
0000
0001
3000
0020
0000
0001
0030
,
0012
0000
0000
0003
0200
0000
0000
0300
,
0020
0000
0000
0030
0002
0000
0000
0003
,
0010
0100
1000
0000
0100
0010
0001
0000
,
0001
0100
0010
1000
0010
1000
1000
0000
,
0010
0001
0001
0000
0100
1000
1000
0000
,
1000
0010
0100
0001
0010
0100
1000
0000
,
0001
0010
0001
0010
0100
1000
0100
1000
,
0100
0010
0001
0010
1100
0000
0000
0100
,
0002
0000
0000
0000
0000
0000
0000
0000
0000
0000
0000
0003
0010
0000
0010
0000
,
0020
0000
0000
0000
0030
0000
0100
0100
,
0200
0000
0000
0000
0300
0000
0001
0001
,
0002
0000
0000
0000
0000
0000
0000
0000
0003
0000
0000
0000
0020
0000
0000
0030
,
0002
0000
0000
0000
0000
0000
0000
0000
0000
0000
0000
0003
0010
0000
0010
0000
,
0020
0000
0000
0000
0030
0000
0001
0001
,
0200
0000
0000
0000
0300
0000
0001
0001
,
2000
0000
3000
0010
,
0001
0002
0000
0000
0000
0000
0000
0000
0000
0000
0000
0000
0000
0000
0000
0000
0000
0000
0000
0000
0000
0000
0000
0000
0000
0000
0000
0000
0000
0000
0000
0000
0000
0000
0000
0000
0000
0000
0000
0000
0000
0000
0000
0000
0000
0000
0000
0000
0000
0000
0000
0000
0000
0000
0000
0000
0000
0000
0000
0000
0000
0000
0000
0000
0000
0000
0000
0000
0000
0000
0000
0000
0000
0000
0000
0000
0000
0000
0000
0000
0000
0000
0000
0000
0000
0000
0000
0000
0000
0000
0000
0000
0000
0000
0000
0000
0000
0000
0000
0000
0000
0000
0000
0000
0000
0000
0000
0000
0000
0000
0000
0000
0000
0000
0000
0000
0000
0000
0000
0000
0000
0000
0000
0000
0000
0000
0000
0000
0000
0000
0000
0000
0003
0000
0000
0000
0000
0000
0000
0000
0000
0000
0000
0000
0001
0000
0000
0000
0000
0000
0000
0000
0000
0000
0000
0000
0000
0000
0000
0000
0000
0000
0000
0000
0000
0000
0000
0000
0001
0000
0000
0000
0000
0000
0000
0000
0000
0000
0000
0000
0000
0000
0000
0000
0000
0000
0000
0000
0000
0000
0000
0000
,
0020
0000
0000
0000
0030
0000
0100
0100
,
0200
0000
0000
0000
0300
0000
0010
0010
,
0002
0000
0003
0000
,
0000
0200
0000
0000
,
0300
0000
0000
0000
;

//---------------dance-single - Light----------------
#NOTES:
     dance-single:
     Light:
     Easy:
     3:
     0.258,0.317,0.051,0.331,0.000,280.000,10.000,65.000,0.000,0.000:
0000
0000
0000
0000
,
0000
0000
0000
0000
,
0000
0000
0000
0000
,
0200
0000
0000
0000
0000
0000
0000
0300
,
0010
1000
1000
0100
,
0000
0001
0001
0010
,
0000
0001
0001
1000
,
0000
1000
0010
0100
,
0000
1000
0100
0100
,
0000
0001
0100
0100
,
0000
0001
0010
0100
,
0000
0000
0000
0000
1000
0000
0000
0000
0010
0000
0000
0000
0200
0000
0000
0300
,
0002
0000
0000
0000
0000
0000
0000
0000
0000
0000
0000
0003
0000
0000
0000
0000
,
0020
0000
0030
0000
,
0200
0000
0300
0000
,
0002
0000
0000
0000
0000
0000
0000
0000
0003
0000
0000
0000
0020
0000
0000
0030
,
0002
0000
0000
0000
0000
0000
0000
0000
0000
0000
0000
0003
0000
0000
0000
0000
,
0020
0000
0030
0000
,
0200
0000
0300
0000
,
2000
0000
3000
0000
,
0001
0001
0000
0001
0000
0001
0000
0001
,
0000
0010
0000
0010
0000
0010
0000
0010
,
0000
0100
0000
0100
0000
0100
0000
0100
,
0000
1000
0000
1000
0000
1000
0000
1000
,
0002
0000
0000
0000
0000
0000
0000
0000
0000
0000
0000
0003
0000
0000
0000
0000
,
0020
0000
0030
0000
,
0200
0000
0300
0000
,
0002
0000
0000
0000
0000
0000
0000
0000
0003
0000
0000
0000
0020
0000
0000
0030
,
0002
0000
0000
0000
0000
0000
0000
0000
0000
0000
0000
0003
0000
0000
0000
0000
,
0020
0000
0030
0000
,
0200
0000
0300
0000
,
2000
0000
3000
0000
,
0001
0001
0000
0001
0000
0001
0000
0001
,
0000
1000
0000
1000
0000
1000
0000
1000
,
0000
0010
0000
0010
0000
0010
0000
0001
,
0100
0000
0000
0010
0000
0100
0000
0100
,
0001
0010
0100
0010
1000
0000
0000
0000
,
0001
0000
0000
0001
1001
0000
0000
0000
,
0101
0100
0010
1000
,
0100
0010
0001
0100
,
1000
0001
1000
1000
,
0001
0100
0010
0000
,
0101
0100
0010
1000
,
0100
0010
0001
0100
,
1000
0001
1000
1000
,
0001
0100
0010
0000
,
0000
1000
0100
0010
,
0001
0000
0000
0000
,
0000
0100
0010
0001
,
0001
0000
0000
0000
0001
0000
0000
0000
1000
0000
0000
0000
2000
0000
0000
3000
,
0002
0000
0000
0000
0000
0000
0000
0000
0000
0000
0000
0003
0000
0000
0000
0000
,
0020
0000
0030
0000
,
0200
0000
0300
0000
,
0002
0000
0000
0000
0000
0000
0000
0000
0003
0000
0000
0000
0020
0000
0000
0030
,
0002
0000
0000
0000
0000
0000
0000
0000
0000
0000
0000
0003
0000
0000
0000
0000
,
0020
0000
0030
0000
,
0200
0000
0300
0000
,
2000
0000
3000
0000
,
0001
0100
1000
0100
,
0010
0100
0001
0010
,
1000
1000
0100
0010
,
0001
1000
0100
0100
,
0002
0000
0000
0000
0000
0000
0000
0000
0000
0000
0000
0003
0000
0000
0000
0000
,
0020
0000
0030
0000
,
0200
0000
0300
0000
,
0002
0000
0000
0000
0000
0000
0000
0000
0003
0000
0000
0000
0020
0000
0000
0030
,
0002
0000
0000
0000
0000
0000
0000
0000
0000
0000
0000
0003
0000
0000
0000
0000
,
0020
0000
0030
0000
,
0200
0000
0300
0000
,
2000
0000
3000
0000
,
0001
0100
0100
0100
,
1001
0010
0100
0001
,
1001
0100
0010
1000
,
0001
0100
0110
0000
,
0001
0010
0100
0010
0010
0000
0000
0000
,
1001
0000
0000
1000
0001
0000
0000
0000
,
0101
0100
0010
1000
,
0100
0010
0001
0100
,
1000
0001
1000
1000
,
0001
0100
0010
0000
,
0101
0100
0010
1000
,
0100
0010
0001
0100
,
1000
0001
1000
1000
,
0001
0100
0010
0000
,
0000
0000
0001
0000
0010
0000
1000
0100
,
0001
0001
0001
0001
,
0001
0001
0001
0001
,
0001
0001
0001
0001
,
0002
0000
0000
0003
0020
0000
0000
0030
,
0200
0000
0000
0300
0002
0000
0000
0003
,
2000
0000
0000
3000
0200
0000
0000
0300
,
2000
0000
0000
3000
0020
0000
0000
0030
,
0002
0000
0000
0003
0200
0000
0000
0300
,
0020
0000
0000
0030
0002
0000
0000
0003
,
0010
1000
0100
0001
,
0001
0010
0010
1000
,
0010
0001
0100
1000
,
1000
0100
0010
1000
,
0001
0001
0100
0100
,
0100
0000
0001
0000
1100
0000
0000
0100
,
0002
0000
0000
0000
0000
0000
0000
0000
0000
0000
0000
0003
0000
0000
0000
0000
,
0020
0000
0030
0000
,
0200
0000
0300
0000
,
0002
0000
0000
0000
0000
0000
0000
0000
0003
0000
0000
0000
0020
0000
0000
0030
,
0002
0000
0000
0000
0000
0000
0000
0000
0000
0000
0000
0003
0000
0000
0000
0000
,
0020
0000
0030
0000
,
0200
0000
0300
0000
,
2000
0000
3000
0000
,
0002
0000
0000
0003
,
0020
0000
0030
0000
,
0200
0000
0300
0000
,
0002
0000
0003
0000
,
0000
2000
0000
0000
,
3000
0000
0000
0000
;
