#TITLE:Seven Eleven;
#SUBTITLE:;
#ARTIST:Mindless Self Indulgence;
#TITLETRANSLIT:;
#SUBTITLETRANSLIT:;
#ARTISTTRANSLIT:;
#CREDIT:;
#BANNER:seveneleven.png;
#BACKGROUND:seveneleven-bg.png;
#LYRICSPATH:;
#CDTITLE:!skorTitle.png;
#MUSIC:Mindless Self Indulence - SevenEleven.mp3;
#OFFSET:3.120;
#SAMPLESTART:40.137;
#SAMPLELENGTH:12.000;
#SELECTABLE:YES;
#BPMS:0.000=148.820,24.000=297.640,32.000=148.820,36.000=297.640,44.000=148.820,48.000=297.640,56.000=148.820,60.000=297.640,92.000=148.820,106.000=297.640,118.000=148.820,120.000=297.640,132.000=148.820,134.000=297.640,146.000=148.820,150.000=297.640,174.000=148.820,182.000=297.640,246.000=148.820,252.000=297.640,256.000=148.820,262.000=297.640,314.000=148.820,320.000=297.640,324.000=148.820,330.000=297.640,334.000=148.820,340.000=297.640,344.000=148.820;
#STOPS:;
#BGCHANGES:;
// cache tags:
#FIRSTBEAT:8.000;
#LASTBEAT:351.500;
#SONGFILENAME:Songs/Community Keyboard Megapack - Volume 1/(skorpion9x) Seven Eleven/seveneleven.sm;
#HASMUSIC:1;
#HASBANNER:1;
#MUSICLENGTH:91.167;
// end cache tags

//---------------dance-single - ----------------
#NOTES:
     dance-single:
     :
     Hard:
     10:
     0.892,0.964,1.000,0.154,0.071,422.000,133.000,14.000,0.000,0.000:  // measure 1
0000
0000
0000
0000
,  // measure 2
0000
0000
0000
0000
,  // measure 3
1000
0100
0010
0001
0001
0010
0100
1000
,  // measure 4
0100
0010
0001
0010
0010
0100
1000
0100
,  // measure 5
0010
0001
0010
0100
0100
1000
0100
0010
,  // measure 6
0001
0010
0100
1000
1000
0100
0010
0001
,  // measure 7
1001
0000
0101
0000
1000
0100
0010
0100
,  // measure 8
1000
0000
0101
0000
0010
0100
0000
0000
,  // measure 9
1001
0000
0000
0000
0001
0100
0001
0000
1000
0100
1000
0100
0000
1000
0100
0000
,  // measure 10
1001
0000
0101
0000
1000
0010
0100
0001
,  // measure 11
0010
0000
1100
0000
0100
0001
0000
0000
,  // measure 12
1001
0000
0000
0000
0001
0010
0100
0000
2000
0000
3100
0010
0000
0010
0001
0000
,  // measure 13
0011
0000
0110
0000
0001
0010
0100
1000
,  // measure 14
0100
0000
1001
0000
0001
1000
0000
0000
,  // measure 15
1001
0000
0000
0000
0000
0000
0000
0001
0010
0001
1000
0001
0100
0000
1001
0000
,  // measure 16
1001
0101
1001
0101
,  // measure 17
1001
0000
0000
0000
0001
0100
0000
0000
,  // measure 18
1100
1001
1100
1001
,  // measure 19
1100
0110
0110
0110
,  // measure 20
0011
0110
0011
0110
,  // measure 21
0011
0000
1000
0001
0010
0001
1000
0000
,  // measure 22
1001
0000
0011
0000
,  // measure 23
1010
0000
1100
0000
,  // measure 24
1002
0000
0000
0100
0000
0010
0010
0013
,  // measure 25
0000
0000
0000
0000
1001
1010
1001
1010
,  // measure 26
2001
0000
0000
0010
0000
0100
0100
3100
,  // measure 27
0000
0000
1001
0000
,  // measure 28
1001
0000
0011
1001
,  // measure 29
0010
0100
0001
1000
0010
0000
1001
0000
,  // measure 30
1000
0001
0000
0000
1001
0000
0000
0000
,  // measure 31
0010
1000
0100
0000
0010
0001
0100
0000
,  // measure 32
1001
0000
0101
0000
1000
0010
0100
0001
,  // measure 33
1000
0000
0101
0000
0100
1000
0000
0000
,  // measure 34
1001
0000
0000
0000
1000
0010
0100
0000
,  // measure 35
0011
1010
1001
0110
,  // measure 36
0001
0010
0100
1000
0001
0000
1000
0000
,  // measure 37
0010
0000
0100
0000
0000
0000
0000
0000
1001
0000
0000
0000
0000
0000
0000
0001
,  // measure 38
0100
0010
1000
0100
0010
0000
0001
0000
1001
0000
0000
0000
1010
0000
0000
0000
,  // measure 39
1001
0011
1001
0000
,  // measure 40
0100
0001
0000
0000
1100
0000
1001
0000
,  // measure 41
0101
1001
1100
1001
,  // measure 42
1001
1001
0110
0011
,  // measure 43
0110
0000
1010
0000
0110
0000
0010
0100
,  // measure 44
0001
1000
0010
0000
2000
0000
3200
0000
,  // measure 45
0320
0000
0032
0000
2003
0000
3000
0001
,  // measure 46
1000
0200
0000
0000
0310
0000
0001
0010
,  // measure 47
0001
1000
0001
0010
0001
0000
1000
0010
,  // measure 48
0000
0010
0001
0000
0010
0000
1000
0010
,  // measure 49
1000
0001
1000
0010
1000
0000
1000
0100
,  // measure 50
0000
0100
0001
0000
1001
0000
0001
0100
,  // measure 51
0001
1000
0001
0100
0001
0000
0001
0100
,  // measure 52
0000
0100
1000
0000
1001
0000
1000
0100
,  // measure 53
1000
0001
1000
0100
1000
0000
0001
0100
,  // measure 54
0000
0100
1000
0000
0011
0000
1001
0000
,  // measure 55
1100
1001
0011
0000
,  // measure 56
1000
0001
0000
0000
0110
0000
1001
0000
,  // measure 57
0101
1100
0110
0000
,  // measure 58
1000
0001
0000
0000
1010
0000
1001
0000
,  // measure 59
1100
1001
1010
0000
,  // measure 60
1000
0001
1000
0000
0101
0000
0000
0000
,  // measure 61
1010
0000
0011
0000
,  // measure 62
1100
0000
0000
0000
2001
0000
0000
0010
,  // measure 63
0000
0100
0100
3100
0000
0000
0000
0000
,  // measure 64
0011
1001
1100
1001
,  // measure 65
1002
0000
0000
0010
0000
0100
0100
0103
,  // measure 66
0000
0000
1001
1010
,  // measure 67
1001
0000
0011
0000
1000
0000
0001
0100
,  // measure 68
0001
1000
0001
0100
0001
0000
0001
0100
,  // measure 69
0000
0100
1000
0000
0001
0000
1000
0100
,  // measure 70
1000
0001
1000
0100
1000
0000
1001
0000
,  // measure 71
1100
0000
0101
0000
1001
0000
0001
0100
,  // measure 72
0001
1000
0001
0100
0001
0000
0001
0100
,  // measure 73
0000
0100
1000
0000
0001
0000
1000
0100
,  // measure 74
1000
0001
1000
0100
1000
0000
1100
0000
,  // measure 75
1001
0000
0101
0000
1001
0000
0001
0100
,  // measure 76
0001
1000
0001
0100
0001
0000
0001
0100
,  // measure 77
0000
0100
1000
0000
1001
0000
1000
0100
,  // measure 78
1000
0001
1000
0100
1000
0000
0011
0000
,  // measure 79
1010
0000
0110
0000
1002
0000
0000
0010
,  // measure 80
0000
0100
0100
0103
0000
0000
0000
0000
,  // measure 81
1010
0011
0110
1100
,  // measure 82
2001
0000
0000
0100
0000
0010
0010
3010
,  // measure 83
0000
0000
1100
0101
,  // measure 84
0011
0000
1010
0000
1002
0000
0000
0010
,  // measure 85
0000
0100
0100
0103
0000
0000
0000
0000
,  // measure 86
1010
0011
0101
1100
,  // measure 87
1001
0001
0010
0100
1000
0100
0010
0001
,  // measure 88
0010
0010
0100
1000
0100
0010
0001
0010
;

//---------------dance-single - ----------------
#NOTES:
     dance-single:
     :
     Challenge:
     11:
     1.000,1.000,1.000,0.000,0.307,576.000,135.000,0.000,0.000,0.000:  // measure 1
0000
0000
0000
0000
,  // measure 2
0000
0000
0000
0000
,  // measure 3
1000
0100
0010
0001
1000
0100
0010
0001
,  // measure 4
0001
0010
0100
1000
0001
0010
0100
1000
,  // measure 5
1000
0010
0100
0001
1000
0010
0100
0001
,  // measure 6
0001
0100
0010
1000
0001
0100
0010
1000
,  // measure 7
0001
0100
0001
0100
0001
0100
0001
0100
,  // measure 8
0010
1000
0010
1000
0001
1000
0001
1000
,  // measure 9
1001
0001
0100
0010
1000
0010
0100
0001
,  // measure 10
0010
0100
0010
0100
0010
0100
0010
0100
,  // measure 11
1000
0010
1000
0010
0100
0001
0100
0001
,  // measure 12
1001
1000
0100
0010
0001
0010
0100
1000
,  // measure 13
0001
0010
0001
0010
0001
0010
0001
0010
,  // measure 14
0100
0010
0100
0010
0100
1000
0100
1000
,  // measure 15
1001
0000
0000
0000
0000
0000
0000
1000
0001
0100
0001
0100
1010
0000
1010
0000
,  // measure 16
0011
0100
0010
0100
0010
0100
0010
0100
,  // measure 17
1001
0001
1000
0001
1000
0001
1000
0001
,  // measure 18
0110
0100
0010
0100
0010
0100
0010
0100
,  // measure 19
1100
0001
1100
0001
1100
0001
1100
0001
,  // measure 20
0011
0010
0001
0010
0001
0010
0001
0010
,  // measure 21
1100
0100
1000
0100
1000
0100
1000
0100
,  // measure 22
1001
0010
0100
0010
1001
0100
0010
0100
,  // measure 23
0110
1000
0001
1000
0110
0001
1000
0001
,  // measure 24
1010
0000
0000
1000
0010
0100
0001
0000
0101
0000
0000
0001
0100
0010
0100
0000
,  // measure 25
0110
0000
0000
0010
0100
0001
0100
0000
0101
0100
0010
1000
0010
0100
0001
0100
,  // measure 26
0101
0000
0000
0100
0001
1000
0010
0000
1010
0000
0000
0010
1000
0100
1000
0000
,  // measure 27
1100
0000
0000
0100
1000
0001
1000
0000
1001
0000
0000
0000
1100
0000
0000
0000
,  // measure 28
1001
0000
0101
0000
0010
1000
0010
1000
,  // measure 29
0010
1000
0010
1000
0001
0100
0001
0100
,  // measure 30
0010
0100
0010
0100
1001
0000
0000
0000
,  // measure 31
1010
1100
0011
0101
,  // measure 32
0001
1000
0001
1000
0001
1000
0001
1000
,  // measure 33
0010
0100
0010
0100
0001
0010
0001
0010
,  // measure 34
1001
0000
1010
0101
,  // measure 35
0011
0000
1100
0000
1000
0010
1000
0010
,  // measure 36
1000
0010
1000
0010
0001
0010
0001
0010
,  // measure 37
1000
0000
0100
0000
1000
0000
0100
0000
1010
0000
0000
0000
0000
0000
0000
1000
,  // measure 38
0001
0100
0010
1000
1010
0000
1010
0000
1001
0000
0000
0000
0000
0000
0000
0000
,  // measure 39
0000
0000
0000
0000
1001
0000
0000
1000
,  // measure 40
0000
0000
1000
0100
0011
0000
0000
0000
,  // measure 41
0000
0000
0000
0000
1001
0000
0000
0001
,  // measure 42
0000
0000
0001
0010
1100
0000
0000
0000
,  // measure 43
0000
0000
0000
0000
1001
0000
0000
1000
,  // measure 44
0000
0000
1000
0100
1001
0001
0001
0001
,  // measure 45
0001
0000
0001
0000
0001
0000
1001
0000
1001
0000
0000
0100
0010
0100
0001
0000
,  // measure 46
0101
0000
0000
0010
0100
0010
1000
0000
1001
0000
0000
0000
0000
0000
0000
0000
,  // measure 47
0000
0001
0100
0010
1001
0000
0000
1001
,  // measure 48
0000
0000
1000
0100
0011
0000
0000
0000
,  // measure 49
0000
0100
0010
1000
1001
0000
0000
1001
,  // measure 50
0000
0000
0001
1000
1010
0000
0000
0000
,  // measure 51
0000
0100
0010
1000
1010
0000
0000
1001
,  // measure 52
0000
0000
0001
0100
0101
0000
0000
0000
,  // measure 53
0000
0001
0100
0010
1010
0000
0000
1001
,  // measure 54
0000
0000
0010
0100
1001
0010
0100
1000
,  // measure 55
0001
0010
0100
1000
1000
0100
0010
0001
,  // measure 56
1000
0100
0010
0001
0001
0010
0100
1000
,  // measure 57
0001
0010
0100
1000
1000
0100
0010
0001
,  // measure 58
1000
0100
0010
0001
0001
0010
0100
1000
,  // measure 59
0001
0010
0100
1000
1000
0100
0010
0001
,  // measure 60
1000
0100
0010
0001
1001
0000
0000
0000
,  // measure 61
1001
0000
1001
0000
,  // measure 62
1001
0000
0000
0000
0000
0000
0000
0000
1001
0000
0000
0100
0010
1000
0001
0000
,  // measure 63
1100
0000
0000
0010
0100
0001
1000
0000
0101
0000
0000
0100
0010
1000
0001
0000
,  // measure 64
0101
0011
1100
1010
,  // measure 65
1001
0000
0000
1000
0001
0100
0001
0000
1001
0000
0000
0001
1000
0100
1000
0000
,  // measure 66
1001
0000
0000
0010
0100
0010
1000
0000
1010
0000
0000
0000
1100
0000
0000
0000
,  // measure 67
0110
0000
1001
0000
1001
0100
0010
0001
,  // measure 68
0010
0100
1000
0010
0110
0000
0000
1001
,  // measure 69
0000
0000
1010
1010
1001
0010
0100
1000
,  // measure 70
0100
0010
0001
0010
0011
0000
0000
0101
,  // measure 71
0000
0000
1001
1001
1010
1000
0100
0010
,  // measure 72
0100
1000
0001
0100
0101
0000
0000
1001
,  // measure 73
0000
0000
1010
1010
1001
0001
0100
0010
,  // measure 74
1000
0010
0100
0001
1001
0000
0000
1100
,  // measure 75
0000
0000
0011
0011
0101
0100
0010
1000
,  // measure 76
0001
0100
0010
1000
1010
0000
0000
1100
,  // measure 77
0000
0000
0110
0110
1001
1000
0100
1000
,  // measure 78
0001
0100
0001
0010
0011
0000
1010
0000
,  // measure 79
0011
0000
0000
0000
1010
0000
0000
0000
1001
0000
0000
1000
0001
0100
0010
0000
,  // measure 80
1010
0000
0000
0010
1000
0001
0010
0000
0110
0000
0000
0100
0010
1000
0001
0000
,  // measure 81
1001
1010
1100
1001
,  // measure 82
1010
0000
0000
0100
1000
0001
1000
0000
1010
0000
0000
0010
0100
0001
1000
0000
,  // measure 83
1010
0000
0000
0100
0010
1000
0100
0000
0110
0000
0000
0000
1010
0000
0000
0000
,  // measure 84
0101
0000
0000
0000
1010
0000
0000
0000
0101
0000
0000
0001
1000
0010
0100
0000
,  // measure 85
0101
0000
0000
0100
0010
1000
0100
0000
0011
0000
0000
0010
0100
1000
0001
0000
,  // measure 86
0101
1010
0110
0101
,  // measure 87
1001
0010
0100
0001
1000
0010
0100
0001
,  // measure 88
0001
0010
0100
1000
0001
0010
0100
1000
;

//---------------dance-single - ----------------
#NOTES:
     dance-single:
     :
     Medium:
     9:
     0.696,1.000,0.724,0.055,0.093,373.000,66.000,5.000,0.000,0.000:  // measure 1
0000
0000
0000
0000
,  // measure 2
0000
0000
0000
0000
,  // measure 3
1000
0100
1000
0100
0010
0001
0010
0001
,  // measure 4
0001
0100
0001
0100
0010
1000
0010
1000
,  // measure 5
0001
1000
0001
1000
0010
0100
0010
0100
,  // measure 6
0001
1000
0001
1000
0100
0010
0100
0010
,  // measure 7
0001
0001
0001
0001
,  // measure 8
0010
0010
0100
0100
,  // measure 9
1000
1000
1000
1000
,  // measure 10
0100
0100
0100
0100
,  // measure 11
0010
0010
0001
0001
,  // measure 12
1000
1000
1000
1000
,  // measure 13
0001
0001
0001
0001
,  // measure 14
0100
0100
0010
0010
,  // measure 15
1000
0000
0000
0000
,  // measure 16
1001
0000
0000
0000
,  // measure 17
0110
0000
0000
0000
,  // measure 18
1100
0000
0000
0000
,  // measure 19
0011
0001
1000
0001
,  // measure 20
0101
0000
0000
0000
,  // measure 21
1010
0000
0000
0000
,  // measure 22
1100
0000
1001
0000
,  // measure 23
1010
0000
1001
0000
,  // measure 24
0120
0000
0000
2030
0000
3001
1000
0002
,  // measure 25
0000
0000
0003
0000
0100
0100
0100
0100
,  // measure 26
0020
0000
0000
2030
0000
3001
0010
0001
,  // measure 27
0000
0000
1001
0000
,  // measure 28
1001
0000
0001
0001
,  // measure 29
0001
0001
1000
1000
,  // measure 30
0100
0100
0010
0000
,  // measure 31
1001
0010
1001
0100
,  // measure 32
0010
0010
0010
0010
,  // measure 33
1000
1000
0001
0001
,  // measure 34
0100
0000
0110
1000
,  // measure 35
0110
0001
1000
1000
,  // measure 36
1000
1000
0001
0001
,  // measure 37
0010
0010
0100
0000
,  // measure 38
1000
1000
1001
0000
,  // measure 39
0000
0000
0000
0000
0001
0000
0000
0001
,  // measure 40
0000
0000
0001
0100
0010
0000
0000
0000
,  // measure 41
0000
0000
0000
0000
0010
0000
0000
0010
,  // measure 42
0000
0000
0010
1000
0100
0000
0000
0000
,  // measure 43
0000
0000
0000
0000
0100
0000
0000
0100
,  // measure 44
0000
0000
0100
0010
0001
0100
0001
0100
,  // measure 45
0001
0000
0100
0000
0001
0000
1000
0000
1000
0000
0000
0001
1000
0000
0100
0000
,  // measure 46
0010
0000
0000
0100
0010
0000
0001
0000
1001
0000
0000
0000
0000
0000
0000
0000
,  // measure 47
0000
0000
0001
0000
0011
0000
0000
0011
,  // measure 48
0000
0000
0001
1000
0001
0000
0000
0000
,  // measure 49
0000
0000
1000
0000
1010
0000
0000
1010
,  // measure 50
0000
0000
1000
0001
1000
0000
0000
0000
,  // measure 51
0000
0000
0001
0000
0101
0000
0000
0101
,  // measure 52
0000
0000
0100
0010
1000
0000
0000
0000
,  // measure 53
0000
0000
1000
0000
1100
0000
0000
1100
,  // measure 54
0000
0000
0100
0010
0100
1000
0100
1000
,  // measure 55
0100
1000
0100
1000
0001
0100
0001
0100
,  // measure 56
0001
0100
0001
0100
0010
1000
0010
1000
,  // measure 57
0010
1000
0010
1000
0001
0010
0001
0010
,  // measure 58
0001
0010
0001
0010
0001
1000
0001
1000
,  // measure 59
0001
1000
0001
1000
0010
0100
0010
0100
,  // measure 60
0010
0100
0010
0100
0010
0000
0000
0000
,  // measure 61
0110
0000
1001
0000
,  // measure 62
1001
0000
0000
0000
0000
0000
0000
0000
0010
0000
0000
0010
1000
0000
1000
0000
,  // measure 63
1000
0000
0000
1000
0100
0000
0100
0000
0100
0000
0000
0100
0010
0000
0010
0000
,  // measure 64
0010
0001
0010
0000
0010
0001
0010
0000
,  // measure 65
0001
0000
0000
0001
0100
0000
0100
0000
0100
0000
0000
0100
0010
0000
0010
0000
,  // measure 66
0010
0000
0000
0010
1000
0000
1000
0000
1000
0000
0100
0000
1000
0000
0000
0000
,  // measure 67
1000
0100
1000
0000
1001
0000
0000
0000
,  // measure 68
0000
0000
1000
0000
0011
0000
0000
0011
,  // measure 69
0000
0000
0001
0010
0001
0000
0000
0000
,  // measure 70
0000
0000
0001
0000
1010
0000
0000
1010
,  // measure 71
0000
0000
1000
0010
1000
0000
0000
0000
,  // measure 72
0000
0000
0100
0000
1001
0000
0000
1001
,  // measure 73
0000
0000
0100
0010
0100
0000
0000
0000
,  // measure 74
0000
0000
0001
0000
0110
0000
0000
0110
,  // measure 75
0000
0000
0001
1000
0001
0000
0000
0000
,  // measure 76
0000
0000
0010
0000
1100
0000
0000
0011
,  // measure 77
0000
0000
0001
0100
0010
0000
0000
0000
,  // measure 78
0000
0000
1010
1100
,  // measure 79
0011
0000
0000
0000
0101
0000
0000
0000
1001
0000
0000
1000
0100
0000
0010
0000
,  // measure 80
0110
0000
0000
0100
1000
0000
0001
0000
1001
0000
0000
1000
0100
0000
0010
0000
,  // measure 81
0011
1100
0011
1100
,  // measure 82
1001
0000
0000
0001
0100
0000
0001
0000
0101
0000
0000
0100
0010
0000
1000
0000
,  // measure 83
1010
0000
0000
0010
1000
0000
0010
0000
1010
0000
0000
0000
0101
0000
0000
0000
,  // measure 84
1010
0000
0000
0000
0101
0000
0000
0000
1001
0000
0000
1000
0010
0000
0010
0000
,  // measure 85
1010
0000
0000
0010
0100
0000
0100
0000
0110
0000
0000
0100
0001
0000
0001
0000
,  // measure 86
0101
1001
1100
1001
,  // measure 87
0001
0010
0100
1000
0001
0010
0100
1000
,  // measure 88
0001
0100
0010
1000
0001
0100
0010
1000
;

//---------------dance-single - ----------------
#NOTES:
     dance-single:
     :
     Easy:
     6:
     0.475,0.771,0.186,0.439,0.000,246.000,17.000,40.000,0.000,0.000:  // measure 1
0000
0000
0000
0000
,  // measure 2
0000
0000
0000
0000
,  // measure 3
1000
0001
1000
0001
,  // measure 4
0010
0100
0010
0100
,  // measure 5
1000
0001
1000
0001
,  // measure 6
0100
0010
0100
0010
,  // measure 7
2000
0000
0000
0000
,  // measure 8
3020
0000
0230
0000
,  // measure 9
0301
0000
0000
0000
,  // measure 10
0002
0000
0000
0000
,  // measure 11
0203
0000
0320
0000
,  // measure 12
1030
0000
0000
0000
,  // measure 13
2000
0000
0000
0000
,  // measure 14
3002
0000
0203
0000
,  // measure 15
0310
0000
0000
0000
,  // measure 16
2002
0000
3003
0000
,  // measure 17
0020
0000
0030
0000
,  // measure 18
2002
0000
3003
0000
,  // measure 19
0100
0010
0100
0010
,  // measure 20
2020
0000
3030
0000
,  // measure 21
0002
0000
0003
0000
,  // measure 22
1001
0000
1001
0000
,  // measure 23
1001
0000
1001
0000
,  // measure 24
2000
0000
3000
0002
0003
0100
0010
0100
,  // measure 25
0000
0000
1000
1000
,  // measure 26
0002
0000
0003
0200
0300
0100
0010
0100
,  // measure 27
0000
0000
1001
0000
,  // measure 28
1001
0000
0200
0000
,  // measure 29
0010
0000
0302
0000
,  // measure 30
2003
0000
3001
0000
,  // measure 31
0110
0000
0110
0000
,  // measure 32
0002
0000
1000
0000
,  // measure 33
0023
0000
0230
0000
,  // measure 34
1300
0000
0011
0000
,  // measure 35
0011
0000
0002
0000
,  // measure 36
1000
0000
0203
0000
,  // measure 37
0320
0000
1030
0000
,  // measure 38
0000
0000
1001
0000
,  // measure 39
0000
0000
0000
0000
1000
0000
0000
1000
,  // measure 40
0000
1000
0001
0000
,  // measure 41
0000
0000
0000
0000
0001
0000
0000
0001
,  // measure 42
0000
0001
0010
0000
,  // measure 43
0000
0000
0000
0000
0010
0000
0000
0010
,  // measure 44
0000
0010
0100
0100
,  // measure 45
0100
0000
0100
0000
0100
0000
0001
0100
,  // measure 46
0001
0000
1000
0100
2000
0000
0000
0000
,  // measure 47
0000
0000
0000
0000
0001
0000
0000
0001
,  // measure 48
0000
0001
3002
0000
,  // measure 49
0000
0000
0000
0000
0100
0000
0000
0100
,  // measure 50
0000
0100
0203
0000
,  // measure 51
0000
0000
0000
0000
0010
0000
0000
0010
,  // measure 52
0000
0010
0320
0000
,  // measure 53
0000
0000
0000
0000
1000
0000
0000
1000
,  // measure 54
0000
1000
1030
0100
,  // measure 55
1000
0100
0010
0001
,  // measure 56
0010
0001
1000
0010
,  // measure 57
1000
0010
0100
0001
,  // measure 58
0100
0001
1000
0001
,  // measure 59
1000
0001
0010
0100
,  // measure 60
0010
0100
1000
0000
,  // measure 61
1001
0000
0100
0000
,  // measure 62
0110
0000
0000
0000
1001
0000
0001
0100
,  // measure 63
0001
0000
1000
0100
1000
0000
0100
0010
,  // measure 64
0100
0100
0100
0100
,  // measure 65
1000
0000
1000
0010
1000
0000
0001
0010
,  // measure 66
0001
0000
0010
0100
0010
0000
0010
0000
,  // measure 67
0010
0010
0002
0000
,  // measure 68
0000
0000
0000
0000
0100
0000
0000
1000
,  // measure 69
0000
0100
0203
0000
,  // measure 70
0000
0000
0000
0000
0010
0000
0000
0001
,  // measure 71
0000
0010
0320
0000
,  // measure 72
0000
0000
0000
0000
1000
0000
0000
0100
,  // measure 73
0000
1000
2030
0000
,  // measure 74
0000
0000
0000
0000
0100
0000
0000
0010
,  // measure 75
0000
0100
3200
0000
,  // measure 76
0000
0000
0000
0000
0010
0000
0000
0001
,  // measure 77
0000
0010
0320
0000
,  // measure 78
0000
0000
0001
0001
,  // measure 79
0001
0000
0001
0000
0031
0000
0001
0100
,  // measure 80
0010
0000
0100
0010
1000
0000
0010
1000
,  // measure 81
0001
0001
0001
0001
,  // measure 82
0001
0000
0001
0010
0100
0000
0010
0100
,  // measure 83
1000
0000
0100
1000
0001
0000
0001
0000
,  // measure 84
0001
0000
0001
0000
0001
0000
0001
0100
,  // measure 85
0010
0000
1000
0100
0010
0000
0001
1000
,  // measure 86
0001
0001
0001
0001
,  // measure 87
0001
1000
0001
1000
0001
1000
0001
1000
,  // measure 88
0100
0010
0100
0010
0100
0010
0100
0010
;
