#TITLE:Be Careful;
#SUBTITLE:;
#ARTIST:S.S.H.;
#TITLETRANSLIT:;
#SUBTITLETRANSLIT:;
#ARTISTTRANSLIT:;
#CREDIT:Arvin;
#BANNER:../Tachyon Gamma-bn.png;
#BACKGROUND:../Tachyon Gamma-bg.png;
#LYRICSPATH:;
#CDTITLE:;
#MUSIC:Be Careful.ogg;
#OFFSET:-0.168;
#SAMPLESTART:54.420;
#SAMPLELENGTH:12.000;
#SELECTABLE:YES;
#DISPLAYBPM:239.950;
#BPMS:0.000=240.008;
#STOPS:;
#BGCHANGES:;
// cache tags:
#FIRSTBEAT:28.000;
#LASTBEAT:758.000;
#SONGFILENAME:Songs/Tachyon Gamma/Be Careful - [Arvin]/Be Careful.sm;
#HASMUSIC:1;
#HASBANNER:1;
#MUSICLENGTH:191.722;
// end cache tags

//---------------dance-single - Arvin----------------
#NOTES:
     dance-single:
     Arvin:
     Challenge:
     16:
     1.000,1.000,0.083,0.939,0.743,1500.000,16.000,180.000,12.000,0.000:

0000
0000
0000
0000
,
0000
0000
0000
0000
,
0000
0000
0000
0000
,
0000
0000
0000
0000
,
0000
0000
0000
0000
,
0000
0000
0000
0000
,
0000
0000
0000
0000
,
1000
0000
1000
0000
1000
0000
0000
0001
,
1000
0100
1000
0100
0010
0100
0010
0001
,
0010
0001
1000
0001
1000
0010
1000
0100
,
1000
0001
0100
0001
0010
0100
1000
0010
,
0100
0001
0010
0100
1000
0010
0100
0001
,
1000
0100
0010
0100
1000
0001
0010
0100
,
0010
0001
1000
0010
1000
0001
0010
0001
,
1000
0100
1000
0001
0100
0001
0010
0100
,
1000
0001
0100
0010
1000
0100
0010
0100
,
0010
0001
0100
0010
1000
0001
0100
0001
,
0010
0100
1000
0010
0100
0001
0010
0001
,
1000
0100
1000
0010
0100
0001
0010
0100
,
1000
0001
0100
0010
1000
0100
0010
0001
,
0100
0010
1000
0001
0010
0100
1000
0010
,
0100
0100
0001
1000
0000
0000
0004
0000
,
1003
0100
0010
0001
1000
0010
0100
0001
,
2000
0010
3010
2000
0010
3010
0100
0002
,
0000
0103
0010
1000
0001
0010
0100
1000
,
0002
0010
0013
0002
0010
0013
0100
2000
,
0000
3001
0100
0020
0100
0130
0001
1000
,
0010
0100
0001
0020
0100
0130
1000
0001
,
0100
0001
1000
0020
0100
0130
0001
1000
,
0002
0010
0013
0002
0010
0013
0200
0000
,
1300
0100
0010
0001
1000
0010
0100
0001
,
2000
0100
3100
2000
0100
3100
0010
0002
,
0000
0013
0100
1000
0001
0100
0010
1000
,
0002
0100
0103
0002
0100
0103
0010
2000
,
0000
3001
0100
0020
0100
0130
0001
1000
,
0100
0010
0001
0200
0010
0310
1000
0001
,
1000
0000
0200
0000
0010
0000
0310
0000
0001
0000
1000
0100
0010
0001
1000
0010
,
1000
0001
0100
0001
1000
0100
1000
0001
0010
0001
0100
0010
1000
0100
0010
0001
,
0200
0300
0000
0000
0010
0000
0000
0000
1000
0000
0000
0000
0002
0003
0000
0000
0010
0000
0000
0000
0100
0000
0000
0000
1000
0000
0000
0000
0001
0000
0000
0000
,
0020
0030
0000
0000
0001
0000
0000
0000
1000
0000
0000
0000
0200
0300
0000
0000
1000
0000
0000
0000
0010
0000
0000
0000
0200
0300
0000
0000
0001
0000
0000
0000
,
0200
0300
0000
0000
0010
0000
0000
0000
1000
0000
0000
0000
0001
0000
0000
0000
0010
0000
0000
0000
0100
0000
0000
0000
2000
3000
0000
0000
0100
0000
0000
0000
,
0020
0030
0000
0000
0001
0000
0000
0000
0100
0000
0000
0000
0010
0000
0000
0000
1000
0000
0010
0000
1000
0000
0001
0000
0010
0000
0001
0000
1000
0000
0100
0000
,
2000
3000
0000
0000
0100
0000
0000
0000
0010
0000
0000
0000
0200
0300
0000
0000
0010
0000
0000
0000
0001
0000
0000
0000
1000
0000
0000
0000
0001
0000
0000
0000
,
0020
0030
0000
0000
0100
0000
0000
0000
1000
0000
0000
0000
0002
0003
0000
0000
0010
0000
0000
0000
0001
0000
0000
0000
2000
3000
0000
0000
0010
0000
0000
0000
,
2000
3000
0000
0000
0100
0000
0000
0000
0010
0000
0000
0000
0100
0000
0000
0000
1000
0000
0000
0000
0001
0000
0000
0000
0020
0030
0000
0000
0100
0000
0000
0000
,
0020
0030
0000
0000
0001
0000
0000
0000
1M10
0000
0000
0000
0001
0000
0000
0000
1M10
0000
0000
0000
0001
0000
0000
0000
1M10
0000
0000
0000
0001
0000
0000
0000
,
0020
0030
0000
0000
0100
0000
0000
0000
1000
0000
0000
0000
0002
0003
0000
0000
0100
0000
0000
0000
0010
0000
0000
0000
2000
3000
0000
0000
0010
0000
0000
0000
,
2000
3000
0000
0000
0001
0000
0000
0000
0010
0000
0000
0000
0002
0003
0000
0000
0010
0000
0000
0000
0100
0000
0000
0000
2000
3000
0000
0000
0010
0000
0000
0000
,
0200
0300
0000
0000
0001
0000
0000
0000
0010
0000
0000
0000
0100
0000
0000
0000
1000
0000
0000
0000
0001
0000
0000
0000
0100
0000
0000
0000
0010
0000
0000
0000
,
2000
3000
0000
0000
0001
0000
0000
0000
0010
0000
0000
0000
0002
0003
0000
0000
0010
0000
0000
0000
0200
0300
0000
0000
1000
0000
0000
0000
0001
0000
0000
0000
,
0200
0300
0000
0000
0010
0000
0000
0000
1000
0000
0000
0000
0100
0000
0000
0000
2000
3000
0000
0000
0001
0000
0000
0000
0010
0000
0000
0000
0001
0000
0000
0000
,
2000
3000
0000
0000
0010
0000
0000
0000
1000
0000
0000
0000
0001
0000
0000
0000
0200
0300
0000
0000
0001
0000
0000
0000
0010
0000
0000
0000
0100
0000
0000
0000
,
2000
3000
0000
0000
0001
0000
0000
0000
0010
0000
0000
0000
0001
0000
0000
0000
0010
0000
0100
0000
1000
0000
0001
0000
0010
0000
0001
0000
0100
0000
0010
0000
,
2000
3000
0001
0000
0010
0000
0000
0000
0100
0000
0000
0000
1000
0000
0001
0000
0100
0000
0000
0000
0010
0000
0000
0000
1000
0000
0000
0000
0001
0000
0000
0000
,
0000
0000
2000
0100
3100
2000
0100
3100
,
0020
0001
0031
2000
0010
3010
1000
0010
,
0100
0001
1000
0200
0000
1300
0010
0100
,
0001
0100
0010
1000
0100
0010
0001
1000
0010
0100
0001
1000
0010
0100
0001
0000
,
0000
0000
2000
0010
3010
2000
0010
3010
,
0200
0001
0301
2000
0100
3100
1000
0100
,
0010
0001
0100
0020
0000
1030
0100
0010
,
0001
0000
0100
0000
0010
0000
0010
0000
0000
0000
1000
0001
0010
0001
1000
0100
,
1000
0001
0100
0001
1000
0100
0010
0001
0100
0010
1000
0100
0010
0001
1000
0010
,
1000
0001
0010
0100
1000
0001
0010
0100
1000
0001
0010
0001
0100
0010
0100
0001
,
0010
0001
1000
0100
0010
0001
1000
0100
1000
0010
0100
0001
0010
0100
1000
0100
,
1000
0001
1000
0010
0100
0001
1000
0100
0010
0001
0010
0001
0100
0000
0010
0000
,
2000
0000
0000
3002
0000
0000
0203
0000
,
0320
0000
0000
2030
0000
0000
3200
0000
,
0320
0000
0000
0000
,
0000
0000
0000
0000
0000
0000
0031
0100
,
0020
0000
0000
2030
0000
0000
3002
0000
,
0023
0000
0000
0032
0000
0000
2003
0000
,
3200
0000
0000
0000
0000
0000
0000
0000
1300
0001
0010
0100
0010
0100
1000
0001
,
0020
0000
0000
0000
0000
0000
0130
1000
,
0002
0000
0000
0203
0000
0000
0320
0000
,
2030
0000
0000
3002
0000
0000
0203
0000
,
0320
0000
0000
0000
0000
0000
0000
0000
1030
0100
0010
0001
1000
0001
1000
0100
,
0020
0000
0000
0000
0000
0000
0031
0100
0010
1000
0100
0010
0001
0100
0010
1000
,
0100
1000
0001
0010
0001
0010
0100
0010
0100
1000
0001
1000
0010
1000
0001
0010
,
0001
1000
0100
1000
0001
0100
0001
0010
0100
1000
0010
0100
0001
0010
0100
1000
,
0002
0000
0000
0000
0000
0000
0000
0003
,
1M10
0001
0001
1M10
0001
1M10
0001
0000
,
1000
0100
0000
0100
0020
0000
0000
0030
,
0001
0100
0000
0100
0020
0000
0000
0030
,
1000
0000
0100
0000
0000
0000
0100
0000
0020
0000
0000
0000
0031
0010
0100
1000
,
0001
1000
0100
0010
0001
0100
0010
1000
0001
0010
0001
0010
0100
1000
0001
0010
,
0001
1000
0100
0010
0001
1000
0100
1000
0001
0100
0010
1000
0001
0010
0100
1000
,
0001
0100
0000
0100
0020
0000
0000
0030
,
1000
0100
0000
0100
0020
0000
0000
0030
,
0001
0100
0000
0100
0020
0000
0000
0030
,
1000
0010
1000
0001
0010
0001
1000
0100
,
1000
0001
0100
0001
0010
0100
1000
0000
,
0001
0100
0000
0100
0010
0000
101M
0000
,
1000
0100
0000
0100
0010
0000
M011
0000
,
0001
0100
0000
0100
0010
0000
101M
0000
,
1000
0010
0100
0001
0010
0100
1000
0001
0010
0001
0100
0010
1000
0100
0010
0100
,
0010
0001
1000
0010
1000
0001
0100
0001
0010
0100
1000
0001
0010
0001
1000
0010
,
1000
0010
1000
0001
0010
0100
0010
0100
,
1000
0001
1000
0100
0010
0001
0010
0100
,
1000
0001
0100
0010
1000
0010
1000
0001
,
0010
0001
1000
0010
1000
0001
0100
0001
,
1000
0000
0100
0000
0010
0000
0001
0000
0100
0010
1000
0001
0010
0001
1000
0010
,
1000
0100
0010
0001
0100
0010
1000
0100
0010
0001
1000
0010
1000
0001
0010
0100
,
1000
0010
0100
0001
0010
0001
1000
0100
0010
0001
0100
0010
1000
0100
0010
0001
,
1000
0010
0100
0001
0010
0100
1000
0001
0010
0001
1000
0100
1000
0001
0100
0001
,
0020
0100
0130
2000
0001
3001
0200
0000
,
0310
1000
0001
0010
0001
0010
0100
2000
,
0000
0000
3001
0000
1000
0000
0100
0010
0001
1000
0100
1000
0001
0010
0001
0100
,
0010
0000
1000
0000
0001
0000
0010
0001
1000
0000
0010
0000
0100
0000
0002
0000
,
0000
0013
0100
1000
0010
0100
0010
1000
,
0001
0010
0100
1000
0001
0010
0001
1000
,
0100
0010
0001
1000
0100
0010
0001
1000
,
0010
1000
0001
1000
0010
1000
0001
0010
,
0200
0000
2300
0000
,
3002
0000
0000
0000
0000
0000
1003
0100
0010
0100
1000
0001
0010
0100
2000
0000
,
0000
3001
0100
0020
0000
1030
0100
0020
,
0000
0000
0130
1000
0001
0010
0100
0010
0001
1000
0100
0010
0100
1000
0001
0010
,
0001
1000
0100
1000
0001
0100
0001
1000
0010
1000
0001
0010
0001
1000
0100
0010
,
0100
1000
0001
0010
0100
1000
0100
0010
0100
0010
0001
0010
0001
1000
0001
1000
,
0001
0010
0100
1000
0001
0100
0010
1000
0001
0010
0100
1000
0001
0100
0010
1000
,
0100
0010
0001
1000
0010
1000
0001
0010
0001
1000
0100
1000
0001
0100
0001
1000
,
0100
0010
0001
0100
0010
1000
0001
0010
0100
1000
0010
0100
0001
0010
0100
1000
,
0002
0000
0000
0000
,
0000
0000
0000
0000
0003
0000
1000
0100
0010
0001
0100
0010
1000
0100
0010
0001
,
1000
0010
1000
0001
0010
0100
1000
0001
0200
0000
0000
0000
0000
0000
0000
0000
,
0000
0000
0000
0000
0300
0010
1000
0001
,
0010
0001
1000
0100
1000
0100
0020
0000
,
0032
0000
0103
0020
0000
0000
1030
0100
,
1000
0001
0010
0200
0000
0000
0000
0000
,
0000
0000
0000
0000
0000
0300
0000
0000
,
1000
0100
0010
0100
1000
0001
0010
0100
,
0010
0001
1000
0010
1000
0001
0100
0001
,
1000
0100
1000
0001
0010
0001
0010
0100
,
1000
0001
1000
0100
0010
0001
0100
0010
,
1000
0000
0001
0000
0010
0000
0100
0000
0010
0000
0001
0010
0001
1000
0100
0010
,
0001
0100
0010
1000
0100
0010
0001
1000
0010
1000
0001
0010
0100
1000
0001
0000
,
1000
0001
0001
0001
,
1000
0000
0001
0000
1000
0010
1000
0000
,
0001
0010
0001
0000
1000
0100
1000
0000
,
0001
0000
1000
0000
0001
0100
0001
0000
,
1000
0000
0010
0000
1000
0000
0000
0000
0001
0010
0001
1000
0100
1000
0001
0100
,
0001
0000
1000
0000
0001
0100
0001
0000
,
1000
0100
1000
0000
0001
0010
0001
0000
,
1000
0000
0001
0000
1000
0100
1000
0000
,
0001
0000
1000
0000
0001
0000
1000
0000
0001
0000
1000
0000
0001
0010
0100
1000
,
0200
0300
0000
0000
0010
0000
0000
0000
0001
0000
0000
0000
2000
3000
0000
0000
0010
0000
0000
0000
0100
0000
0000
0000
0001
0000
0000
0000
1000
0000
0000
0000
,
0020
0030
0000
0000
1000
0000
0000
0000
0001
0000
0000
0000
0200
0300
0000
0000
0001
0000
0000
0000
0010
0000
0000
0000
0200
0300
0000
0000
1000
0000
0000
0000
,
0200
0300
0000
0000
0010
0000
0000
0000
0001
0000
0000
0000
1000
0000
0000
0000
0010
0000
0000
0000
0100
0000
0000
0000
0002
0003
0000
0000
0100
0000
0000
0000
,
0020
0030
0000
0000
1000
0000
0000
0000
0100
0000
0000
0000
0010
0000
0000
0000
0001
0000
0010
0000
0001
0000
1000
0000
0010
0000
1000
0000
0001
0000
0100
0000
,
0002
0003
0000
0000
0100
0000
0000
0000
0010
0000
0000
0000
0200
0300
0000
0000
0010
0000
0000
0000
1000
0000
0000
0000
0001
0000
0000
0000
1000
0000
0000
0000
,
0020
0030
0000
0000
0100
0000
0000
0000
0001
0000
0000
0000
2000
3000
0000
0000
0010
0000
0000
0000
1000
0000
0000
0000
0002
0003
0000
0000
0010
0000
0000
0000
,
0002
0003
0000
0000
0100
0000
0000
0000
0010
0000
0000
0000
0100
0000
0000
0000
0001
0000
0000
0000
1000
0000
0000
0000
0020
0030
0000
0000
0100
0000
0000
0000
,
0020
0030
0000
0000
1000
0000
0000
0000
0M11
0000
0000
0000
1000
0000
0000
0000
0M11
0000
0000
0000
1000
0000
0000
0000
0M11
0000
0000
0000
1000
0000
0000
0000
,
0020
0030
0000
0000
0100
0000
0000
0000
0001
0000
0000
0000
2000
3000
0000
0000
0100
0000
0000
0000
0010
0000
0000
0000
0002
0003
0000
0000
0010
0000
0000
0000
,
0002
0003
0000
0000
1000
0000
0000
0000
0010
0000
0000
0000
2000
3000
0000
0000
0010
0000
0000
0000
0100
0000
0000
0000
0002
0003
0000
0000
0010
0000
0000
0000
,
0200
0300
0000
0000
1000
0000
0000
0000
0010
0000
0000
0000
0100
0000
0000
0000
0001
0000
0000
0000
1000
0000
0000
0000
0100
0000
0000
0000
0010
0000
0000
0000
,
0002
0003
0000
0000
1000
0000
0000
0000
0010
0000
0000
0000
2000
3000
0000
0000
0010
0000
0000
0000
0200
0300
0000
0000
0001
0000
0000
0000
1000
0000
0000
0000
,
0200
0300
0000
0000
0010
0000
0000
0000
0001
0000
0000
0000
0100
0000
0000
0000
0002
0003
0000
0000
1000
0000
0000
0000
0010
0000
0000
0000
1000
0000
0000
0000
,
0002
0003
0000
0000
0010
0000
0000
0000
0001
0000
0000
0000
1000
0000
0000
0000
0200
0300
0000
0000
1000
0000
0000
0000
0010
0000
0000
0000
0100
0000
0000
0000
,
0002
0003
0000
0000
1000
0000
0000
0000
0010
0000
0000
0000
1000
0000
0000
0000
0010
0000
0100
0000
0001
0000
1000
0000
0010
0000
1000
0000
0100
0000
0010
0000
,
0002
0003
1000
0000
0010
0000
0000
0000
0100
0000
0000
0000
0001
0000
1000
0000
0100
0000
0000
0000
0010
0000
0000
0000
0001
0000
0000
0000
1000
0000
0000
0000
,
0000
0000
0002
0100
0103
0002
0100
0103
,
0020
1000
1030
0002
0010
0013
0001
0010
,
0100
1000
0001
0200
0000
0301
0010
0100
,
1000
0100
0010
0001
0100
0010
1000
0001
0010
0100
1000
0001
0010
0100
1000
0000
,
0000
0000
0002
0010
0013
0002
0010
0013
,
0200
1000
1300
0002
0100
0103
0001
0100
,
0010
1000
0100
0020
0000
0031
0100
0010
,
1000
0000
0100
0000
0010
0000
0010
0000
0000
0000
0001
0100
0010
1000
0001
0010
,
0001
1000
0100
1000
0001
0010
0100
0010
0001
1000
0100
0010
0100
1000
0001
0010
,
0100
1000
0010
0100
0001
0010
0100
1000
0001
0010
0100
1000
0001
0010
0001
1000
,
0100
1000
0001
0100
0001
1000
0010
1000
0100
0010
0001
1000
0100
0010
0100
0010
,
0001
0010
0001
1000
0001
0010
0100
1000
0001
1000
0100
0010
0001
0000
0100
0000
,
0001
1000
0010
0100
0001
0100
0001
0010
,
0100
1000
0010
0200
0000
0000
0302
0000
,
0013
0100
1000
0001
0100
0001
1000
0100
,
0010
0001
0100
0010
2000
0000
3200
0000
,
0320
0000
0000
0032
0000
0000
2003
0000
,
3020
0000
0000
0230
0000
0000
0302
0000
,
2003
0000
0000
3010
0100
0001
1000
0100
,
0010
0001
1000
0100
1000
0100
0010
0001
,
2000
0000
0000
3020
0000
0000
0230
0000
,
0302
0000
0000
2003
0000
0000
3020
0000
,
0230
0000
0301
0020
0000
0000
0000
0000
,
0000
0000
0000
0000
0000
0000
0000
0030
,
0100
1000
0001
0100
0001
1000
0100
1000
,
0020
0100
0130
0002
1000
1003
0200
0000
,
0310
0000
0000
0000
0010
0000
0000
0000
0010
0000
0000
0000
0022
0033
0000
0000
,
0000
0000
0220
0330
0000
0000
0000
0000
2200
0000
0000
0000
0000
0000
0000
0000
,
0000
0000
0000
0000
3300
0000
1000
0001
0100
0000
0000
0000
0000
0000
0000
0000
;
