#TITLE:X Treme  O.o;
#SUBTITLE:Never rob a bank.;
#ARTIST:BanYa;
#TITLETRANSLIT:;
#SUBTITLETRANSLIT:;
#ARTISTTRANSLIT:;
#CREDIT:BanYa4eVr ;
#BANNER:X-TremeBN.jpg;
#BACKGROUND:X-TremeBG.jpg;
#LYRICSPATH:;
#CDTITLE:;
#MUSIC:BanYa - X Treme.mp3;
#OFFSET:0.000;
#SAMPLESTART:83.980;
#SAMPLELENGTH:12.000;
#SELECTABLE:YES;
#BPMS:0.000=162.000,48.000=40.500,49.000=162.000,193.000=40.500,194.000=162.000;
#STOPS:;
#BGCHANGES:0.000=X-TremeBG.jpg=1.000=0=0=1,
99999=-nosongbg-=1.000=0=0=0 // don't automatically add -songbackground-
;
// cache tags:
#FIRSTBEAT:0.000;
#LASTBEAT:259.500;
#SONGFILENAME:Songs/toune/BanYa - X Treme/BanYa - X Treme.sm;
#HASMUSIC:1;
#HASBANNER:1;
#MUSICLENGTH:102.486;
// end cache tags

//---------------dance-single - ----------------
#NOTES:
     dance-single:
     :
     Hard:
     7:
     0.661,0.696,0.332,0.273,0.000,411.000,34.000,28.000,0.000,1.000:
0000
0000
0000
0000
,
1000
0010
0100
0001
0100
1000
0001
0000
,
0001
0100
1000
0010
0100
0001
1000
0000
,
0010
0100
0001
0100
1000
0010
0100
0000
,
0001
0010
0100
1000
0001
0010
0100
0000
,
1000
0001
0100
0010
0100
0001
1000
0000
,
1100
0100
0010
0001
0010
0100
0101
0000
,
1000
0100
0010
0001
0010
0100
1000
0000
,
1001
1000
0001
0100
0010
2000
0000
3000
,
0100
0010
0001
1000
0100
0020
0000
0030
,
1000
0001
0100
0010
0001
1000
0100
0000
,
0100
1000
0001
0010
0100
1000
0000
0000
,
2002
0000
0000
3003
1001
0000
0000
0000
0000
0000
1000
0000
0001
0000
0000
0000
,
0001
1000
0100
0010
0000
0001
1000
0000
,
1000
0100
0010
0001
0000
0100
0001
0000
,
0001
0100
0010
1000
0000
0100
1000
0000
,
2000
0000
3020
0030
0000
0100
0010
0000
,
1000
0001
0100
0001
0000
1000
0100
0000
,
0010
0010
1000
0001
0000
1000
0010
0000
,
1000
0010
0100
0001
0100
0010
0001
1000
,
0100
0010
0011
0001
0010
1000
0001
0010
,
0100
0001
0101
0001
0010
0100
1000
0010
,
0100
1000
1100
0100
0001
1000
0010
0100
,
0010
1000
1010
0010
1000
0001
0010
0100
,
0101
0001
1001
1000
0100
0001
0100
0001
,
1001
1000
1010
0010
0001
0100
0001
1000
,
1100
1000
1001
0001
0010
0100
1000
0001
,
0100
0001
1001
0001
0100
0010
0001
2000
,
0000
3000
0001
0100
0010
0001
1000
0010
,
0100
0001
0100
1000
0001
0010
0100
0001
,
1000
0010
0001
1000
0001
0010
0100
0001
,
1000
0100
0010
0100
1000
0001
0100
0001
,
0010
1000
0100
0010
1000
0010
0001
1000
,
0010
0100
0010
0001
0100
0010
1000
0001
,
1000
0100
0010
1000
0001
0100
0010
0001
,
1000
0001
0110
0100
0001
0100
0010
2000
,
0000
3000
0001
0100
0001
1000
0001
0100
,
0000
0000
0001
0010
1000
0001
0010
0100
,
0001
0000
1000
0010
0001
1000
0001
0010
,
2000
3000
1001
0000
0000
0000
0000
0000
,
0000
0000
0000
2000
,
0000
3100
0000
0002
,
0000
0103
0000
2000
,
0000
3010
0000
0002
,
0000
0013
0000
2000
,
3001
0200
0301
0020
,
0031
0002
1003
0020
,
1030
0200
1300
2000
,
3001
0000
0000
0000
2002
0000
0000
3003
1001
0000
0000
0000
1000
0000
0001
0000
,
2000
0000
0000
3000
1001
0001
0100
0010
,
0001
1000
0010
1000
1010
1000
0001
0100
,
0010
0001
1000
0100
1100
0100
0001
0010
,
1000
0001
0010
0100
0101
0001
0010
1000
,
0010
1000
0010
0001
0011
0001
1000
0010
,
0001
0100
0001
1000
1001
0001
0010
0100
,
1000
0100
0010
0001
1001
0001
1000
0010
,
0100
0002
0000
0003
0010
1000
0001
0100
,
0001
1000
0010
0001
1000
0010
1000
0001
,
0100
1000
0100
0001
1000
0001
0100
0010
,
1000
0010
0001
1000
0100
0010
1000
0001
,
0010
0001
1000
0010
0110
0001
1000
0010
,
0100
0001
0101
0100
1100
0100
0001
1000
,
0010
0100
0011
0010
1010
1000
0100
0010
,
0001
0010
0100
1000
1001
0001
0010
0100
,
1000
0002
0003
0000
2022
0030
0003
3000
;

//---------------dance-single - Copied from----------------
#NOTES:
     dance-single:
     Copied from:
     Challenge:
     10:
     0.953,1.000,0.439,0.537,0.751,582.000,45.000,55.000,0.000,2.000:
1000
0000
0001
0000
0100
0010
0001
0010
0100
0000
2000
0000
3001
0000
0000
0000
,
0001
0010
0100
1000
0010
0001
1000
0100
0001
0000
0100
0000
0002
0000
0003
0000
,
0100
0010
0001
1000
0010
0100
1000
0100
0010
0000
1000
0000
0002
0000
0003
0000
,
0100
0010
0001
0010
1000
0100
0010
0100
0001
0000
0100
0000
0020
0000
0030
0000
,
0001
0010
0100
1000
0100
0010
1000
0010
0001
0000
0010
0000
0200
0000
0300
0000
,
0001
0010
1000
0100
0010
0001
0100
0001
0010
0000
1000
0000
0002
0000
0003
0000
,
1100
0000
0100
0001
0010
0100
1000
0100
0010
0001
0100
0000
0101
0000
0000
0000
,
0001
0010
0100
0001
1000
0001
0100
0010
0001
0010
0100
0000
2000
0000
3000
0000
,
1001
1000
0001
0100
0010
2000
0000
3000
,
0110
0100
0101
0001
0011
0020
0000
0030
,
1000
0000
0001
0010
0100
0000
0010
0000
0001
0010
0100
0001
0100
0010
0001
0000
,
1100
1000
1001
0001
0101
0002
0003
0000
,
2002
0000
0000
3003
1001
0000
0000
0000
0000
0000
1000
0001
1000
0000
0000
0000
,
0001
0000
1000
0000
0100
0001
0010
0000
0000
0000
0001
1000
0001
0000
0000
0000
,
1000
0000
0100
0000
0010
0100
1000
0000
0000
0000
0100
0001
0100
0000
0000
0000
,
0001
0000
0100
0000
0010
0001
1000
0000
0000
0000
0100
0010
0100
0000
0000
0000
,
2000
0000
0000
0000
3020
0000
0030
0000
0000
0000
0100
1000
0010
0000
0000
0000
,
1000
0100
0010
0000
0100
0010
0001
0000
0000
0000
1000
0010
0100
0000
0000
0000
,
0010
0001
0010
0000
1000
0010
0001
0000
0000
0000
1000
0100
0010
0000
0000
0000
,
0001
0010
0100
1000
0010
0100
1000
0100
0010
0001
1000
0100
1000
0100
0001
0010
,
0100
0000
0010
0000
0011
0000
0001
0000
0010
0100
1000
0100
0001
0100
1000
0100
,
0010
0000
0001
0000
0101
0000
0001
0000
0010
0001
0010
0100
1000
0100
0010
0001
,
0010
0000
1000
0000
1100
0000
0100
0000
0001
0100
1000
0100
0010
0100
1000
0100
,
0001
0000
1000
0000
1010
0000
0010
0000
1000
0010
0001
0010
1000
0000
1000
0000
,
1010
0000
1000
0000
1001
0000
1000
0000
0100
0010
0001
0010
0100
0000
0001
0000
,
1001
0000
0001
0000
0101
0000
0100
0000
0001
0010
0100
0010
0001
0000
1000
0000
,
1100
0000
1000
0000
1001
0000
0001
0000
0001
0010
0100
1000
0100
0010
0001
0010
,
0100
0000
0001
0000
1001
0000
2000
3000
0020
0030
0200
0300
2000
3000
0002
0000
,
0000
0000
0003
0000
0001
0010
0100
0000
0010
0000
1000
0000
0001
0000
0100
0000
,
0010
0000
1000
0000
0010
0100
1000
0000
0010
0000
0100
0000
0001
0000
1000
0000
,
0001
0000
0010
0000
0001
0100
1000
0000
0010
0000
0001
0000
1000
0000
0010
0000
,
0001
0000
0100
0000
0010
0001
0100
0000
1000
0000
0010
0000
0001
0000
1000
0000
,
0001
0000
0010
0000
0100
1000
0010
0000
1000
0000
0001
0000
1000
0000
0010
0000
,
0001
0000
0100
0000
0010
1000
0001
0000
0100
0000
0010
0000
1000
0000
0001
0000
,
1000
0000
0100
0000
0010
0001
1000
0000
0001
0000
0100
0000
0010
0000
0001
0000
,
1000
0000
0001
0000
0110
0000
0100
0010
0001
0010
0100
1000
0010
0100
2000
0000
,
0000
0000
3000
0000
0001
0010
0100
0000
1000
0000
0100
0000
0001
0010
0200
0000
,
0300
0000
0000
0000
0001
0000
0010
0100
1000
0000
0001
0000
0010
0001
0100
0000
,
0002
0000
1003
0000
1000
0100
0010
0000
0001
0000
1000
0000
0001
0010
0100
0000
,
2000
0000
3000
0000
1021
0030
0000
0000
0000
0000
0000
0000
0000
0000
0000
0000
,
0000
0000
0000
2000
,
0000
0000
0000
0000
0200
0000
0000
0000
3000
0000
0000
0000
0002
0000
0000
0300
,
0010
0000
0000
0000
0020
0000
0000
0000
0003
0000
0000
0000
2000
0000
0000
0030
,
0000
0000
0000
0000
0200
0000
0000
0000
3000
0000
0000
0000
0002
0000
0000
0300
,
0010
0020
0003
2030
,
3100
0002
0103
2000
,
3010
0000
0002
0000
0013
0000
0020
0031
,
2000
3010
0200
0301
2000
3010
0002
1003
,
2000
0000
3001
0000
2002
0000
0000
3003
1001
0000
0000
0000
1000
0000
0001
0000
,
2000
0000
0000
0000
0000
0000
3000
0000
1001
0000
0001
0000
0100
1000
0010
0100
,
0001
0010
1000
0100
0010
0000
1000
0000
1010
0000
1000
0000
0001
0010
0100
0001
,
0010
0100
0001
0100
0010
0000
0100
0000
1100
0000
0100
0000
0002
0003
0020
0030
,
2000
3000
0002
0003
0020
0030
0100
0000
0101
0000
0001
0000
0010
0100
1000
0001
,
0010
0001
1000
0100
0010
0000
0001
0000
0011
0000
0001
0000
1000
0100
0010
1000
,
0001
1000
0100
0010
0001
0000
1000
0000
1001
0000
0001
0000
0010
0001
0100
0010
,
1000
0010
0100
0001
0010
0000
0001
0000
1001
0000
0101
0000
1100
0000
0110
0000
,
0101
0000
0012
0000
0000
0000
0003
0000
0010
0100
1000
0100
0001
0010
0100
0010
,
0001
0100
1000
0100
0001
0010
0100
0010
1000
0010
0100
0010
0001
0100
0001
0010
,
0100
1000
0010
1000
0001
0010
0001
0010
1000
0010
0001
0010
0100
1000
0010
0001
,
0010
1000
0010
0100
0001
0100
0010
1000
0100
0010
0100
0001
1000
0001
0100
0010
,
0100
0000
0001
0010
1000
0010
0100
0000
0110
0000
0001
0000
1000
0100
0010
0001
,
0100
0000
0001
0000
1100
0000
1000
0000
0101
0000
0100
0000
0001
0010
1000
0010
,
0001
0000
0100
0000
1010
0000
1000
0000
0011
0000
1000
0000
0100
0001
0010
0100
,
0001
0100
0010
0001
0100
0000
1000
0000
1001
0000
1000
0000
0100
0000
0010
0000
,
0001
2000
3000
0000
2202
0300
3000
0003
;

//---------------dance-single - Copied from----------------
#NOTES:
     dance-single:
     Copied from:
     Medium:
     5:
     0.570,0.538,0.332,0.263,0.000,348.000,34.000,27.000,0.000,0.000:
0000
0000
0000
0000
,
1000
0000
0001
0000
0100
0010
0001
0000
,
0100
0000
1000
0000
0010
0100
1000
0000
,
0001
0000
0100
0000
0010
0001
1000
0000
,
0001
0000
0100
1000
0001
0000
0010
0000
,
1000
0001
0010
0000
0100
0000
0001
0000
,
1100
0000
0010
0100
0010
0000
0101
0000
,
1000
0100
0010
0001
,
1001
0000
0001
0000
0010
2000
0000
3000
,
0100
0010
0001
1000
0100
0020
0000
0030
,
1000
0100
0001
0010
,
0100
0000
0001
0000
0100
1000
0000
0000
,
2002
0000
0000
3003
1001
0000
0000
0000
0000
0000
1000
0000
0001
0000
0000
0000
,
0001
1000
0100
0010
0000
0001
1000
0000
,
1000
0100
0010
0001
0000
0100
0001
0000
,
0001
0100
0010
1000
0000
0100
1000
0000
,
2000
0000
3020
0030
0000
0100
0010
0000
,
1000
0001
0100
0001
0000
1000
0100
0000
,
0010
0010
1000
0001
0000
1000
0010
0000
,
1000
0010
0100
0001
0100
0010
0001
1000
,
0100
0000
0011
0000
0010
1000
0001
0010
,
0100
0000
0101
0000
0010
0100
1000
0010
,
0100
0000
1100
0000
0001
1000
0010
0100
,
0010
0000
1010
0000
1000
0001
0010
0000
,
0101
0000
1001
0000
0100
0001
0100
0000
,
1001
0000
1010
0000
0001
0100
0001
0000
,
1100
0000
1001
0000
0010
0100
1000
0001
,
0100
0000
1001
0001
0100
0010
0001
2000
,
0000
3000
0001
0100
0010
0001
1000
0010
,
0100
0001
0100
1000
0001
0010
0100
0001
,
1000
0000
0001
1000
0001
0010
0100
0001
,
1000
0100
0010
0100
1000
0001
0100
0001
,
0010
0000
0100
0010
1000
0010
0001
1000
,
0010
0100
0010
0001
0100
0010
1000
0001
,
1000
0000
0010
1000
0001
0100
0010
0001
,
1000
0001
0110
0000
0001
0000
0010
2000
,
0000
3000
0001
0001
0001
0001
0001
0001
,
0000
0000
0001
0010
1000
0001
0010
0100
,
0001
0000
1000
1000
1000
1000
1000
1000
,
2000
3000
1001
0000
0000
0000
0000
0000
,
0000
0000
0000
2000
,
0000
3100
0000
0002
,
0000
0103
0000
2000
,
0000
3010
0000
0002
,
0000
0013
0000
2000
,
3001
0200
0301
0020
,
0031
0002
1003
0020
,
1030
0200
1300
2000
,
3001
0000
0000
0000
2002
0000
0000
3003
1001
0000
0000
0000
1000
0000
0001
0000
,
2000
0000
0000
3000
1001
0001
0100
0010
,
0001
1000
0010
0000
1010
0000
0001
0100
,
0010
0001
1000
0000
1100
1000
0001
0010
,
1000
0001
0010
0100
0101
0000
0010
1000
,
0001
1000
0010
0000
0011
0000
1000
0010
,
0001
0100
0001
0000
1001
0000
0001
0100
,
1000
0100
0010
0000
1001
0000
1000
0010
,
0100
0002
0000
0003
0010
1000
0001
0100
,
0001
1000
0010
0001
1000
0010
1000
0001
,
0100
1000
0100
0000
1000
0001
0100
0010
,
1000
0010
0001
1000
0100
0010
1000
0001
,
0010
0001
1000
0000
0110
0001
1000
0010
,
0100
0000
0101
0000
1100
0000
0001
1000
,
0010
0000
0011
0000
1010
0000
1000
0010
,
0001
0010
0100
1000
1001
0001
0010
0100
,
1000
0002
0003
0000
2002
0000
0000
3003
;
