#TITLE:Companions That Surpassed Their Tribe;
#SUBTITLE:From Final Fantasy Tactics Advanced OST;
#ARTIST:Hitoshi Sakimoto And Nobuo Uematsu;
#TITLETRANSLIT:;
#SUBTITLETRANSLIT:;
#ARTISTTRANSLIT:;
#CREDIT:;
#BANNER:companions-bn.png;
#BACKGROUND:companions-bg.png;
#LYRICSPATH:;
#CDTITLE:mm-cdtitle.png;
#MUSIC:companions.mp3;
#OFFSET:1.160;
#SAMPLESTART:0.660;
#SAMPLELENGTH:21.080;
#SELECTABLE:YES;
#DISPLAYBPM:132.000;
#BPMS:0.000=139.380;
#STOPS:;
#BGCHANGES:;
// cache tags:
#FIRSTBEAT:4.000;
#LASTBEAT:259.750;
#SONGFILENAME:Songs/new again/companions/companions.sm;
#HASMUSIC:1;
#HASBANNER:1;
#MUSICLENGTH:118.047;
// end cache tags

//---------------dance-single - ----------------
#NOTES:
     dance-single:
     :
     Challenge:
     13:
     1.000,1.000,1.000,1.000,1.000,642.000,324.000,411.000,0.000,413.000:
0000
0000
0000
0000
,
1220
0331
0212
0000
1000
0303
2020
0100
,
0001
0000
3130
0000
2012
0000
3103
0000
1220
0000
0331
0000
2012
0100
3013
0100
,
1220
0331
0122
0000
1000
0033
2200
0010
,
0001
0000
3310
0000
2102
0000
3013
0000
0221
0000
1330
0000
2102
0010
3103
0010
,
2001
0001
3001
0110
0011
0110
2100
0100
3100
1200
1000
1300
,
0110
0101
0110
0110
1010
0110
0021
0001
0031
0011
0110
1010
,
0120
0100
0130
1002
1000
1003
0110
1100
0110
0011
0110
1010
,
0201
0001
0301
0011
0110
1010
0120
0100
0130
1001
1010
1100
,
2012
0000
0000
3000
0010
0000
0200
0000
0013
0000
0000
0000
0011
0000
0000
0300
1001
0000
0020
0000
0101
0030
0000
0000
0122
0000
0000
0000
0100
0000
0000
0000
0130
0003
0000
0000
1022
0000
0000
0000
1000
0000
0000
0000
1003
0030
0000
0000
,
0211
0000
0000
0000
1001
0000
0300
0000
0101
1000
0000
0000
1210
0000
0000
0300
1001
0000
0020
0000
1100
0030
0000
0000
2102
0000
0000
0000
0100
0000
0000
0000
3100
0003
0000
0000
1120
0000
0000
0000
1001
0000
0000
0000
1100
0030
0000
0000
,
0221
0000
0000
0300
0001
0000
2000
0000
0031
0000
0000
0000
0012
0000
0000
3000
0010
0000
0200
0000
0013
0300
0000
0000
0121
0000
0000
0000
1001
0000
0030
0000
0101
0001
0000
0000
1021
0000
0000
0030
1010
0000
0200
0000
1000
0300
0000
0000
,
2210
0000
0000
0000
0010
0000
3000
0000
0310
0100
0000
0000
1021
0000
0000
0030
1010
0000
0002
0000
1100
0003
0000
0000
2120
0000
0000
0000
0100
0000
0000
0000
3100
0030
0000
0000
0221
0000
0000
0000
0001
0000
0000
0000
0031
0300
0000
0000
,
2200
3300
1022
0033
2021
3030
0212
0303
0220
0000
0001
0330
2012
3003
1220
0330
,
2002
0000
0100
3003
2210
3300
2021
3030
2002
3003
0212
0303
0122
0033
1202
0303
,
2002
3003
2120
3030
2210
0000
0001
0000
0010
0001
0010
3300
0122
0000
0100
0000
,
0000
0033
1220
0330
2112
0000
0010
0000
0100
0010
0100
3003
1221
0000
0001
0330
,
1220
1330
1022
0133
1100
0110
0212
0313
2210
3301
0011
0101
,
2210
3310
2012
3103
1100
0110
1001
1010
1100
1100
0110
0101
,
0212
0313
2210
3301
0011
0101
0212
0313
2012
3103
1100
0110
,
1001
1010
1100
1100
0110
0101
0110
1010
0110
0011
0101
1001
,
0022
0033
2201
3300
1202
0303
2120
3030
0220
0000
1000
0330
2102
3003
0221
0330
,
2002
0000
0010
3003
0122
0033
1202
0303
2002
3003
2120
3030
2210
3300
2021
3030
,
2002
3003
0212
0303
0122
0000
1000
0000
0000
0000
0100
0033
2210
0000
0010
0000
,
0000
3300
0221
0330
2102
0000
0010
0000
0100
0010
0100
3013
1221
1000
0001
1330
,
0221
1330
2120
0000
0001
3030
0202
0010
,
1000
0000
0313
0000
2102
0000
3013
0000
0221
0000
1330
0000
2102
0010
3103
0010
,
0221
1330
2210
0000
0001
3300
0022
0100
,
1000
0000
0133
0000
2012
0000
3103
0000
1220
0000
0331
0000
2012
0100
3013
0100
,
0221
0000
1000
1000
1000
0000
0001
0001
0001
0000
1000
1000
1000
0000
1000
0000
,
0001
0000
0001
0001
0001
0000
1330
1000
1000
0000
0010
0010
2210
0000
3310
0000
,
2120
0000
3031
0001
0221
0000
1330
1000
1202
0000
1303
1000
1022
0033
2210
3300
,
0122
0000
1033
1000
1202
0000
0313
0010
2012
0000
3103
0100
2120
0000
3130
0000
,
2210
0000
3310
0010
0212
0000
1000
1000
1000
0000
0010
0010
0010
0000
0313
0000
,
0122
0000
0133
0100
2120
0000
0001
0001
0001
0000
3031
0001
2201
0000
3310
0000
,
2021
0000
3130
0100
2102
0000
0010
0010
0010
0000
3013
0010
0212
0000
0313
0000
,
0122
0000
0100
0100
0100
0000
1000
1000
1000
0000
0133
0100
2120
0000
3030
0000
,
2211
0010
0001
0010
0001
0010
0001
3310
2120
0001
0100
0001
0100
0001
0101
3031
,
1212
1000
0010
1000
0010
1000
0010
1303
0122
1000
0100
1000
2200
0000
3300
0033
,
0122
0000
0133
0100
2120
0000
3031
0001
2201
0000
3310
0010
0212
0303
2021
3030
,
1220
0000
0331
0001
2201
0000
3301
0001
2021
0000
3130
0100
2102
0000
3103
0000
,
0212
0000
1303
1000
1022
0000
0100
0100
0100
0000
1000
1000
1000
0000
0133
0000
,
1202
0000
0313
0010
2012
0000
0100
0100
0100
0000
3103
0100
2120
0000
3130
0000
,
0221
0000
1330
1000
1202
0000
0010
0010
0010
0000
1303
1000
1220
0000
1330
0000
,
2120
0000
3031
0001
0221
0000
1000
1000
1000
0000
1330
1000
1202
0000
0313
0000
,
0222
0000
0000
0000
0333
0000
1011
1101
2020
0000
0000
0000
0202
0000
3333
0000
,
2220
0000
0000
0000
3330
0000
1101
1011
0222
0000
0333
0000
2220
0000
3330
0000
,
2202
3303
2022
3033
2202
3303
2200
3311
,
0222
0333
2220
3330
0222
0333
2002
3113
,
0222
0333
2022
3033
2202
3303
2020
3131
,
2220
0000
3330
0000
0222
0000
0333
0000
1220
0001
1000
0331
2012
0100
0010
3103
,
1100
1010
1202
0000
0303
0011
0111
1010
,
2200
3300
2021
3030
0022
0033
0212
0303
,
0221
1330
2120
0000
0001
3030
0202
0010
,
1000
0000
0313
0000
2102
0000
3013
0000
0221
0000
1330
0000
2102
0010
3103
0010
,
0221
1330
2210
0000
0001
3300
0022
0100
,
1000
0000
0133
0000
2012
0000
3103
0000
1220
0000
0331
0000
2012
0100
3013
0100
,
1002
1000
1003
0110
1100
0110
0012
0010
0013
0021
0001
0031
,
0110
1010
0110
0110
0101
0110
1200
1000
1300
1100
0110
0101
,
0210
0010
0310
2001
0001
3001
0110
0011
0110
1100
0110
0101
,
1020
1000
1030
1100
0110
0101
0210
0010
0310
1001
0101
0011
,
2102
0000
0000
0003
0100
0000
0020
0000
3100
0000
0000
0000
1100
0000
0000
0030
1001
0000
0200
0000
1010
0300
0000
0000
2210
0000
0000
0000
0010
0000
0000
0000
0310
3000
0000
0000
2201
0000
0000
0000
0001
0000
0000
0000
3001
0300
0000
0000
,
1120
0000
0000
0000
1001
0000
0030
0000
1010
0001
0000
0000
0121
0000
0000
0030
1001
0000
0200
0000
0011
0300
0000
0000
2012
0000
0000
0000
0010
0000
0000
0000
0013
3000
0000
0000
0211
0000
0000
0000
1001
0000
0000
0000
0011
0300
0000
0000
,
1220
0000
0000
0030
1000
0000
0002
0000
1300
0000
0000
0000
2100
0000
0000
0003
0100
0000
0020
0000
3100
0030
0000
0000
1210
0000
0000
0000
1001
0000
0300
0000
1010
1000
0000
0000
1201
0000
0000
0300
0101
0000
0020
0000
0001
0030
0000
0000
,
0220
0000
0330
1001
0110
1001
0022
0000
0033
2200
0000
3300
;

//---------------dance-single - ----------------
#NOTES:
     dance-single:
     :
     Hard:
     11:
     1.000,1.000,1.000,1.000,0.542,494.000,233.000,482.000,0.000,183.000:
0000
0000
0000
0000
,
1020
0031
0210
0000
1000
0300
0020
0100
,
0001
0000
0130
0000
2012
0000
3103
0000
1020
0000
0031
0000
2010
0100
3010
0100
,
1020
0031
0102
0000
1000
0003
0200
0010
,
0001
0000
0310
0000
2100
0000
3010
0000
0021
0000
1030
0000
2100
0010
3100
0010
,
0002
0000
0003
0120
0001
0130
2200
0000
3300
2200
0000
3300
,
0210
0001
0310
0120
1000
0130
0022
0000
0033
0021
0100
1030
,
0220
0000
0330
2002
0000
3003
0210
1000
0310
0021
0100
1030
,
0202
0000
0303
0021
0100
1030
0220
0000
0330
2001
0010
3100
,
2022
0000
0000
3000
0000
0000
0200
0000
0033
0000
0000
0000
0012
0000
0000
0300
1000
0000
0020
0000
0103
0030
0000
0000
0222
0000
0000
0000
0000
0000
0000
0000
0330
0003
0000
0000
2022
0000
0000
0000
0000
0000
0000
0000
3003
0030
0000
0000
,
0212
0000
0000
0000
1000
0000
0300
0000
0103
1000
0000
0000
2210
0000
0000
0300
0001
0000
0020
0000
3100
0030
0000
0000
2202
0000
0000
0000
0000
0000
0000
0000
3300
0003
0000
0000
2120
0000
0000
0000
0001
0000
0000
0000
3100
0030
0000
0000
,
0222
0000
0000
0300
0000
0000
2000
0000
0033
0000
0000
0000
0022
0000
0000
3000
0000
0000
0200
0000
0033
0300
0000
0000
0122
0000
0000
0000
1000
0000
0030
0000
0103
0001
0000
0000
2021
0000
0000
0030
0010
0000
0200
0000
3000
0300
0000
0000
,
2220
0000
0000
0000
0000
0000
3000
0000
0330
0100
0000
0000
2021
0000
0000
0030
0010
0000
0002
0000
3100
0003
0000
0000
2220
0000
0000
0000
0000
0000
0000
0000
3300
0030
0000
0000
0222
0000
0000
0000
0000
0000
0000
0000
0033
0300
0000
0000
,
2200
3300
0022
0033
2020
3030
0202
0303
0220
0000
0000
0330
2002
3003
0220
0330
,
2002
0000
0000
3003
2200
3300
2020
3030
2002
3003
0202
0303
0022
0033
1202
0303
,
2002
3003
2120
3030
2200
0000
0001
0000
0010
0001
0010
3300
0022
0000
0100
0000
,
0000
0033
1220
0330
2102
0000
0010
0000
0100
0010
0100
3003
0220
0000
0000
0330
,
2220
0330
3022
0233
1000
0310
0222
0303
2230
3302
0010
0103
,
2220
3300
2032
3203
1000
0310
2001
0010
3100
1200
0010
0301
,
0222
0303
2230
3302
0010
0103
0222
0303
2032
3203
1000
0310
,
2001
0010
3100
1200
0010
0301
0120
1000
0130
0012
0100
1003
,
0022
0033
2200
3300
0202
0303
2020
3030
0220
0000
0000
0330
2002
3003
0220
0330
,
2002
0000
0000
3003
0022
0033
0202
0303
2002
3003
2020
3030
2200
3300
2020
3030
,
2002
3003
0202
0303
0022
0000
0000
0000
0000
0000
0000
0033
2200
0000
0000
0000
,
0000
3300
0220
0330
2002
0000
0000
0000
0100
0010
0100
3013
1221
1000
0001
1330
,
0221
1330
2100
0000
0001
3000
0002
0010
,
1000
0000
0013
0000
2100
0000
3010
0000
0201
0000
1300
0000
0102
0010
0103
0010
,
0201
1300
2010
0000
0001
3000
0020
0100
,
1000
0000
0130
0000
0012
0000
0103
0000
1200
0000
0301
0000
0012
0100
0013
0100
,
0220
2000
3000
0002
0003
2000
3000
0000
,
0000
0002
0003
2330
3000
0020
2230
3300
,
2020
0000
3032
0000
0223
0000
2330
0000
3202
0000
2303
0000
3022
0033
2200
3300
,
0022
2033
3202
0323
2032
3203
2320
3030
,
2200
3320
0232
2000
3000
0020
0030
0303
,
0022
0233
2320
0002
0003
3032
2203
3300
,
2020
3230
2302
0020
0030
3023
0232
0303
,
0022
0200
0300
2000
3000
0233
2320
3030
,
0001
0010
0100
1000
0001
0010
0100
1000
0001
0010
0100
1000
0001
0010
0100
1000
,
1000
0100
0010
0001
1000
0100
0010
0001
1000
0100
0010
0001
2200
0000
3300
0000
,
0022
0000
0233
0000
2320
0000
3032
0000
2203
0000
3320
0000
0232
0303
2020
3030
,
0220
0332
2203
3302
2023
3230
2302
3003
,
0202
2303
3022
0200
0300
2000
3000
0033
,
0202
0323
2032
0200
0300
3203
2320
3030
,
0220
2330
3202
0020
0030
2303
3220
0330
,
2020
3032
0223
2000
3000
2330
3202
0303
,
0022
0000
0000
0000
0033
0000
1010
0101
2020
0000
0000
0000
0202
0000
3333
0000
,
2200
0000
0000
0000
3300
0000
0101
1010
0022
0000
0033
0000
0220
0000
0330
0000
,
2202
3303
2022
3033
2202
3303
2200
3311
,
0222
0333
2220
3330
0222
0333
2002
3113
,
0222
0333
2022
3033
2202
3303
2020
3131
,
2220
0000
3330
0000
0222
0000
0333
0000
1220
0001
1000
0331
2012
0100
0010
3103
,
1100
1010
1202
0000
0303
0011
0111
1010
,
2200
3300
2021
3030
0022
0033
0212
0303
,
0201
1300
0120
0000
0001
0030
0200
0010
,
1000
0000
0310
0000
2102
0000
3013
0000
0201
0000
1300
0000
0102
0010
0103
0010
,
0201
1300
2010
0000
0001
3000
0020
0100
,
1000
0000
0130
0000
0012
0000
0103
0000
1200
0000
0301
0000
0012
0100
0013
0100
,
2000
0000
3000
0210
1000
0310
0022
0000
0033
0022
0000
0033
,
0120
1000
0130
0210
0001
0310
2200
0000
3300
1200
0010
0301
,
0220
0000
0330
2002
0000
3003
0120
0001
0130
1200
0010
0301
,
2020
0000
3030
1200
0010
0301
0220
0000
0330
1002
0100
0013
,
2202
0000
0000
0003
0000
0000
0020
0000
3300
0000
0000
0000
2100
0000
0000
0030
0001
0000
0200
0000
3010
0300
0000
0000
2220
0000
0000
0000
0000
0000
0000
0000
0330
3000
0000
0000
2202
0000
0000
0000
0000
0000
0000
0000
3003
0300
0000
0000
,
2120
0000
0000
0000
0001
0000
0030
0000
3010
0001
0000
0000
0122
0000
0000
0030
1000
0000
0200
0000
0013
0300
0000
0000
2022
0000
0000
0000
0000
0000
0000
0000
0033
3000
0000
0000
0212
0000
0000
0000
1000
0000
0000
0000
0013
0300
0000
0000
,
2220
0000
0000
0030
0000
0000
0002
0000
3300
0000
0000
0000
2200
0000
0000
0003
0000
0000
0020
0000
3300
0030
0000
0000
2210
0000
0000
0000
0001
0000
0300
0000
3010
1000
0000
0000
1202
0000
0000
0300
0100
0000
0020
0000
0003
0030
0000
0000
,
0220
0000
0330
0011
1100
0011
2200
0000
3300
0022
0000
0033
;

//---------------dance-single - ----------------
#NOTES:
     dance-single:
     :
     Medium:
     9:
     0.933,1.000,1.000,1.000,0.534,430.000,145.000,196.000,0.000,0.000:
0000
0000
0000
0000
,
1000
0001
0010
0000
1000
0000
0000
0100
,
0001
0000
0100
0000
0010
0000
0100
0000
1000
0000
0001
0000
0010
0100
0010
0100
,
1000
0001
0100
0000
1000
0000
0000
0010
,
0001
0000
0010
0000
0100
0000
0010
0000
0001
0000
1000
0000
0100
0010
0100
0010
,
0000
0000
0000
0100
0001
0100
2000
0000
3000
0200
0000
0300
,
0010
0001
0010
0100
1000
0100
0020
0000
0030
0001
0100
1000
,
0020
0000
0030
0002
0000
0003
0010
1000
0010
0001
0100
1000
,
0200
0000
0300
0001
0100
1000
0020
0000
0030
0001
0010
0100
,
2002
0000
0000
3000
0000
0000
0200
0000
0003
0000
0000
0000
0010
0000
0000
0300
1000
0000
0020
0000
0100
0030
0000
0000
0022
0000
0000
0000
0000
0000
0000
0000
0030
0003
0000
0000
0022
0000
0000
0000
0000
0000
0000
0000
0003
0030
0000
0000
,
0210
0000
0000
0000
1000
0000
0300
0000
0100
1000
0000
0000
0210
0000
0000
0300
0001
0000
0020
0000
0100
0030
0000
0000
2002
0000
0000
0000
0000
0000
0000
0000
3000
0003
0000
0000
0120
0000
0000
0000
0001
0000
0000
0000
0100
0030
0000
0000
,
0220
0000
0000
0300
0000
0000
2000
0000
0030
0000
0000
0000
0002
0000
0000
3000
0000
0000
0200
0000
0003
0300
0000
0000
0120
0000
0000
0000
1000
0000
0030
0000
0100
0001
0000
0000
0021
0000
0000
0030
0010
0000
0200
0000
0000
0300
0000
0000
,
2200
0000
0000
0000
0000
0000
3000
0000
0300
0100
0000
0000
0021
0000
0000
0030
0010
0000
0002
0000
0100
0003
0000
0000
2020
0000
0000
0000
0000
0000
0000
0000
3000
0030
0000
0000
0220
0000
0000
0000
0000
0000
0000
0000
0030
0300
0000
0000
,
1100
0011
1010
0101
0110
0000
1001
0110
,
1001
0000
1100
1010
1001
0101
0011
1001
,
1001
1010
1100
0000
0000
0000
0011
0000
,
0000
1010
0101
0000
0000
0000
0110
0000
,
0220
0330
0022
0033
1000
0010
0202
0303
2200
3300
0010
0100
,
2200
3300
2002
3003
1000
0010
0001
0010
0100
1000
0010
0001
,
0202
0303
2200
3300
0010
0100
0202
0303
2002
3003
1000
0010
,
0001
0010
0100
1000
0010
0001
0100
1000
0100
0010
0100
1000
,
0011
1100
0101
1010
0110
0000
1001
0110
,
1001
0000
0011
0101
1001
1010
1100
1010
,
1001
0101
0011
0000
0000
0000
1100
0000
,
0000
0000
0110
0000
1001
0000
0000
0000
0100
0010
0100
0010
0001
1000
0001
1000
,
0001
1000
0100
0000
0001
0000
0000
0010
,
1000
0000
0010
0000
0100
0000
0010
0000
0001
0000
1000
0000
0100
0010
0100
0010
,
0001
1000
0010
0000
0001
0000
0000
0100
,
1000
0000
0100
0000
0010
0000
0100
0000
1000
0000
0001
0000
0010
0100
0010
0100
,
0220
0000
0000
0000
,
0000
0000
0000
0330
0000
0000
2200
3300
,
2020
0000
3030
0000
0220
0000
0330
0000
0202
0000
0303
0000
0022
0033
2200
3300
,
0022
0033
0202
0303
2002
3003
2020
3030
,
2200
3300
0202
0000
0000
0000
0000
0303
,
0022
0033
2020
0000
0000
3030
2200
3300
,
2020
3030
2002
0000
0000
3003
0202
0303
,
0022
0000
0000
0000
0000
0033
2020
3030
,
0001
0010
0100
1000
0001
0010
0100
1000
0001
0010
0100
1000
0001
0010
0100
1000
,
1000
0100
0010
0001
1000
0100
0010
0001
1000
0100
0010
0001
2200
0000
3300
0000
,
0022
0000
0033
0000
2020
0000
3030
0000
2200
0000
3300
0000
0202
0303
2020
3030
,
0220
0330
2200
3300
2020
3030
2002
3003
,
0202
0303
0022
0000
0000
0000
0000
0033
,
0202
0303
2002
0000
0000
3003
2020
3030
,
0220
0330
0202
0000
0000
0303
0220
0330
,
2020
3030
0220
0000
0000
0330
0202
0303
,
0022
0000
0000
0000
0033
0000
1000
0100
0020
0000
0000
0000
0002
0000
0033
0000
,
2200
0000
0000
0000
3300
0000
0100
1000
0022
0000
0033
0000
0220
0000
0330
0000
,
0101
0000
1010
0000
0101
0000
0100
0010
,
0011
0000
1100
0000
0011
0000
1000
0100
,
0110
0000
1001
0000
1001
0000
0010
0001
,
1010
0000
0000
0000
0101
0000
0000
0000
1000
0001
1000
0001
0010
0100
0010
0100
,
1100
1010
0202
0000
0303
0011
0101
1010
,
2200
3300
2020
3030
0022
0033
0202
0303
,
0001
1000
0100
0000
0001
0000
0000
0010
,
1000
0000
0010
0000
0100
0000
0010
0000
0001
0000
1000
0000
0100
0010
0100
0010
,
0001
1000
0010
0000
0001
0000
0000
0100
,
1000
0000
0100
0000
0010
0000
0100
0000
1000
0000
0001
0000
0010
0100
0010
0100
,
0000
0000
0000
0010
1000
0010
0002
0000
0003
0020
0000
0030
,
0100
1000
0100
0010
0001
0010
0200
0000
0300
1000
0010
0001
,
0200
0000
0300
2000
0000
3000
0100
0001
0100
1000
0010
0001
,
0020
0000
0030
1000
0010
0001
0200
0000
0300
1000
0100
0010
,
2002
0000
0000
0003
0000
0000
0020
0000
3000
0000
0000
0000
0100
0000
0000
0030
0001
0000
0200
0000
0010
0300
0000
0000
2200
0000
0000
0000
0000
0000
0000
0000
0300
3000
0000
0000
2200
0000
0000
0000
0000
0000
0000
0000
3000
0300
0000
0000
,
0120
0000
0000
0000
0001
0000
0030
0000
0010
0001
0000
0000
0120
0000
0000
0030
1000
0000
0200
0000
0010
0300
0000
0000
2002
0000
0000
0000
0000
0000
0000
0000
0003
3000
0000
0000
0210
0000
0000
0000
1000
0000
0000
0000
0010
0300
0000
0000
,
0220
0000
0000
0030
0000
0000
0002
0000
0300
0000
0000
0000
2000
0000
0000
0003
0000
0000
0020
0000
3000
0030
0000
0000
0210
0000
0000
0000
0001
0000
0300
0000
0010
1000
0000
0000
1200
0000
0000
0300
0100
0000
0020
0000
0000
0030
0000
0000
,
0220
0000
0330
0100
0010
0100
0022
0000
0033
2200
0000
3300
;

//---------------dance-single - ----------------
#NOTES:
     dance-single:
     :
     Easy:
     7:
     0.645,0.688,0.593,0.635,0.368,388.000,70.000,75.000,0.000,0.000:
0000
0000
0000
0000
,
1000
0001
0010
0000
1000
0000
0000
0100
,
0001
0000
0100
0000
0010
0000
0100
0000
1000
0000
0001
0000
0010
0100
0010
0100
,
1000
0001
0100
0000
1000
0000
0000
0010
,
0001
0000
0010
0000
0100
0000
0010
0000
0001
0000
1000
0000
0100
0010
0100
0010
,
0000
0000
0000
0100
0001
0100
2000
0000
3000
0200
0000
0300
,
0010
0001
0010
0100
1000
0100
0020
0000
0030
0001
0100
1000
,
0020
0000
0030
0002
0000
0003
0010
1000
0010
0001
0100
1000
,
0200
0000
0300
0001
0100
1000
0020
0000
0030
0001
0010
0100
,
0002
0003
0200
0000
0000
0300
2000
3000
0020
0000
0000
0030
2000
0000
0000
3000
,
0200
0000
0300
0100
0200
0300
2000
3000
0020
0000
0000
0030
2000
0000
0000
3000
,
0200
0300
0002
0000
0000
0003
0200
0300
2000
0000
3000
0100
2000
3000
0200
0300
,
0002
0000
0003
0001
2000
3000
0020
0030
2000
0000
0000
3000
0200
0000
0000
0300
,
0100
0001
1000
0001
0110
0000
1000
0010
,
1001
0000
0100
0010
0001
0100
0010
1000
,
0001
0010
1100
0000
0000
0000
0011
0000
,
0000
0010
0101
0000
0000
0000
0110
0000
,
0020
0030
0002
0003
1000
0010
0200
0300
0200
0300
0010
0100
,
2000
3000
2000
3000
1000
0010
0001
0010
0100
1000
0010
0001
,
0002
0003
0200
0300
0010
0100
0002
0003
2000
3000
1000
0010
,
0001
0010
0100
1000
0010
0001
0100
1000
0100
0010
0100
1000
,
0010
0100
0001
0010
0110
0000
0001
0100
,
1001
0000
0010
0100
1000
0010
0100
0010
,
1000
0100
0011
0000
0000
0000
1100
0000
,
0000
0000
0010
0000
1001
0000
0000
0000
0100
0010
0100
0010
0001
1000
0001
1000
,
0001
1000
0100
0000
0001
0000
0000
0010
,
1000
0000
0010
0000
0100
0000
0010
0000
0001
0000
1000
0000
0100
0010
0100
0010
,
0001
1000
0010
0000
0001
0000
0000
0100
,
1000
0000
0100
0000
0010
0000
0100
0000
1000
0000
0001
0000
0010
0100
0010
0100
,
0220
0000
0000
0000
,
0000
0000
0000
0330
0000
0000
1100
0000
,
1010
0000
0110
0000
0101
0000
0011
1100
,
0011
0101
1001
1010
,
1100
0101
0000
0000
,
0011
1010
0000
1100
,
1010
1001
0000
0101
,
0011
0000
0000
1010
,
0001
0010
0100
1000
0001
0010
0100
1000
,
0001
0010
0100
1000
0001
0010
1100
0000
,
0011
0000
1010
0000
1100
0000
0101
1010
,
0110
1100
1010
1001
,
0101
0011
0000
0000
,
0101
1001
0000
1010
,
0110
0101
0000
0110
,
1010
0110
0000
0101
,
0011
0000
0000
0000
0000
0000
1000
0100
0010
0000
0000
0000
0001
0000
0000
0000
,
1100
0000
0000
0000
0000
0000
0100
1000
0011
0000
0000
0000
0110
0000
0000
0000
,
0101
0000
1010
0000
0101
0000
0100
0010
,
0011
0000
1100
0000
0011
0000
1000
0100
,
0110
0000
1001
0000
1001
0000
0010
0001
,
1010
0000
0000
0000
0101
0000
0000
0000
1000
0001
1000
0001
0010
0100
0010
0100
,
0100
0010
0002
0000
0003
0010
0100
1000
,
0200
0300
0020
0030
0002
0003
0200
0300
,
0001
1000
0100
0000
0001
0000
0000
0010
,
1000
0000
0010
0000
0100
0000
0010
0000
0001
0000
1000
0000
0100
0010
0100
0010
,
0001
1000
0010
0000
0001
0000
0000
0100
,
1000
0000
0100
0000
0010
0000
0100
0000
1000
0000
0001
0000
0010
0100
0010
0100
,
0000
0000
0000
0010
1000
0010
0002
0000
0003
0020
0000
0030
,
0100
1000
0100
0010
0001
0010
0200
0000
0300
1000
0010
0001
,
0200
0000
0300
2000
0000
3000
0100
0001
0100
1000
0010
0001
,
0020
0000
0030
1000
0010
0001
0200
0000
0300
1000
0100
0010
,
2000
3000
0020
0000
0000
0030
0002
0003
0200
0000
0000
0300
0002
0000
0000
0003
,
0020
0000
0030
0010
0020
0030
0002
0003
0200
0000
0000
0300
0002
0000
0000
0003
,
0020
0030
2000
0000
0000
3000
0020
0030
0002
0000
0003
0010
0002
0003
0020
0030
,
2000
0000
3000
0100
0020
0030
0002
0003
0220
0000
0000
0330
2002
0000
0000
3003
;
