#TITLE:Nomina Nuda Tenemus;
#SUBTITLE:;
#ARTIST:Unknown;
#TITLETRANSLIT:;
#SUBTITLETRANSLIT:;
#ARTISTTRANSLIT:;
#CREDIT:;
#BANNER:bn.png;
#BACKGROUND:bg.png;
#LYRICSPATH:;
#CDTITLE:Dis159.PNG;
#MUSIC:Nomina Nuda Tenemus.mp3..mp3;
#OFFSET:1.120;
#SAMPLESTART:99.960;
#SAMPLELENGTH:12.000;
#SELECTABLE:YES;
#BPMS:0.000=195.001,4.000=48.750,27.000=195.001,44.000=188.001,48.000=195.001,154.500=48.741,154.750=48.761,155.000=48.741,155.250=48.761,155.500=48.741,155.750=48.761,156.000=48.741,156.250=48.761,156.500=48.741,156.750=48.761,157.000=48.741,157.250=48.761,157.500=48.741,157.750=48.761,158.000=48.741,158.250=48.761,158.500=48.741,158.750=48.761,159.000=48.741,159.250=48.761,159.500=48.741,159.750=48.761,160.000=48.741,160.250=48.761,160.500=48.741,160.750=48.761,161.000=48.741,161.250=48.761,161.500=48.741,161.750=48.761,162.000=48.741,162.250=48.761,162.500=195.001,225.500=97.501,228.000=195.001,292.000=48.761,293.000=48.741,294.000=48.761,295.000=48.741,296.000=48.761,297.000=48.741,298.000=48.761,299.000=48.741,300.000=48.761,301.000=48.741,302.000=48.761,303.000=48.741,304.000=48.761,305.000=48.741,306.000=48.761,307.000=48.741,308.000=195.001,500.000=48.761;
#STOPS:81.500=0.020
,81.688=0.020
,103.750=0.080
;
#BGCHANGES:;
// cache tags:
#FIRSTBEAT:4.000;
#LASTBEAT:506.000;
#SONGFILENAME:Songs/Definitive Keyboard Megapack/Nomina Nuda Tenemus(Disregard159)/NNT.sm;
#HASMUSIC:1;
#HASBANNER:1;
#MUSICLENGTH:205.453;
// end cache tags

//---------------dance-single - ----------------
#NOTES:
     dance-single:
     :
     Challenge:
     20:
     1.000,1.000,1.000,0.715,1.000,1817.000,809.000,147.000,14.000,55.000:

0000
0000
0000
0000
,
2020
3032
2203
0320
3030
0000
0000
0000
2022
3233
0320
2030
3222
0333
0000
0000
,
2002
3223
2331
3020
0230
0300
0000
0000
2000
3200
0302
0003
2220
0000
0000
0000
,
0000
0000
0000
0000
0000
0000
0330
3000
2022
0000
0000
0000
0000
0000
0000
0000
0000
0000
0000
0000
0000
0000
0033
0000
3222
0000
0000
0000
0000
0000
0000
0000
,
0000
0333
0000
0000
0000
0000
1200
0001
,
1000
0010
0001
1300
0120
0000
0001
0000
1000
0100
0001
1000
2130
0000
0001
0000
,
0100
0010
3001
0100
0010
0000
0001
0000
1000
0100
0010
0000
1001
0100
0010
1000
,
0101
0010
0100
0001
1000
0110
1000
0100
0010
0001
1100
0010
0100
0010
1000
0101
,
0010
0100
1001
0100
0010
1000
0001
0010
1100
0010
0001
0100
0010
1000
0001
0010
,
1100
0010
0001
1000
0010
0100
0001
1000
0101
0010
0001
1010
0100
1000
0001
0010
,
1100
0010
0001
1100
0010
0100
1001
0010
1001
0100
0010
1100
0012
0200
0320
0230
,
2300
0000
0000
0000
0000
0000
0000
0000
0000
0000
0000
0000
3200
0000
0000
0000
0000
0000
0000
0000
0000
0000
0000
0000
0320
0000
0000
0000
0000
0000
0000
0000
0000
0000
0000
0000
0230
0000
0000
0000
0000
0000
0000
0000
0000
0000
0000
0000
0320
0000
0000
0000
0000
0000
0000
0000
0000
0000
0000
0000
2030
0000
0000
0000
0000
0000
0000
0000
0000
0000
0000
0000
3200
0000
0000
0000
0000
0000
0000
0000
0000
0000
0000
0000
0300
0000
0000
0000
0000
0000
2000
0000
0020
3000
0000
0000
0233
0000
0000
0000
0000
0000
0000
0000
0000
0000
0000
0000
0000
0000
0000
0000
0000
0000
0000
0000
0000
0000
0000
0000
0000
0000
0000
0000
0000
0000
0000
0000
0000
0000
0000
0000
0000
0000
0000
0000
0000
0000
0000
0000
0000
0000
0000
0000
0300
0000
0000
0000
0200
0000
0000
0000
0002
0000
0000
0000
0300
0000
0000
2000
0003
0000
0000
0000
0000
0000
0000
0000
0000
0000
0000
0000
0000
0000
0000
0000
0000
0000
0000
0000
0000
0000
0000
0000
0000
0000
0000
0000
0000
0000
0000
0000
,
3110
0001
1000
0010
1100
0001
1000
0101
2000
3000
0101
0010
0101
2000
3000
1010
,
0001
0100
1010
0001
0100
1010
0001
0100
1010
0001
0100
1010
0001
0100
0011
1000
,
0011
0100
0001
1000
0011
0100
0010
M00M
0000
0000
0000
1010
0001
0100
1000
0011
,
1000
0100
0010
0101
1010
0001
0100
0001
1000
0101
0010
1001
0110
1000
0011
0100
,
1010
0100
1001
0010
0100
1001
0100
0010
0101
1000
0100
1010
0100
1000
0010
1100
,
0011
0100
1001
0010
1100
0011
0100
1001
0110
1000
0011
0100
0010
0001
1100
0011
,
1100
0010
1001
0100
1010
0100
0010
1001
0010
0100
1010
0100
1001
0010
0100
1001
,
0100
0010
1001
0010
0100
1001
0100
0010
1001
0010
0100
1001
0100
0010
1001
0010
,
0100
1001
0100
0010
1001
0200
0300
1001
0100
0010
1100
0001
0010
1001
0000
0200
,
0300
0000
0000
1001
0010
0100
0001
0010
1100
0011
0100
1000
0010
0101
1000
0011
,
1000
0100
0010
1001
0010
1100
0001
0010
0100
1010
0100
0011
1100
0011
0100
1001
,
0110
0001
1010
0100
1010
0101
0010
1001
0100
0010
1100
0010
1001
0110
1000
0110
,
1000
0001
0110
1000
0001
0110
1000
0001
0010
0101
1000
0110
1000
0001
0010
0100
,
1000
0001
1000
0010
1100
0001
0100
1010
0001
0010
0101
1000
0101
0010
1100
0011
,
1100
0011
0100
1000
0001
0100
1010
0001
0100
1010
0001
0100
1010
0001
0100
1010
,
0001
0100
0001
0100
0001
0100
1001
0100
1010
0101
0010
0101
1010
0100
1000
0010
,
2100
3010
0101
1010
0101
1010
0101
0020
1130
0010
0001
0020
1130
0001
0100
0010
,
1100
0001
1000
0100
0010
1000
0102
0003
0000
0000
1001
0010
0100
0010
1000
0101
,
1010
0100
0010
0001
1100
0001
1010
0100
0010
0001
1100
0011
0100
1001
0110
1001
,
0010
0100
1000
0011
1100
0010
1001
0100
0001
1010
0001
0110
1000
0010
0101
1000
,
0001
0110
1000
0001
1010
0001
0010
0100
1001
0010
0001
0010
0100
1000
0100
1000
,
0011
0100
0010
0101
1000
0001
0110
1000
0100
1010
0001
1010
0101
0010
1001
0000
,
0101
0010
0001
0110
1000
0100
1010
0101
1000
0101
1010
0100
0011
1100
0010
1001
,
0110
1000
0101
0010
0001
1100
0010
0001
1100
0010
0001
1100
0010
0001
0010
0100
,
1000
0100
0010
0101
1010
0101
1000
0002
0003
1100
0010
1000
0001
0010
0100
0010
,
1100
0010
0001
0100
0010
1000
0102
0003
0000
0000
1001
0100
1010
0001
1100
0001
,
1010
0100
1001
0100
0011
1000
0110
0001
1010
0001
1200
0000
0002
0003
2000
3020
,
0332
2003
3120
0000
0002
0003
2000
3200
0332
1003
2100
0000
0001
0000
3100
0010
,
0001
0100
0010
0000
0001
0000
1000
0100
0010
0000
1001
0010
1100
0010
1001
0010
,
0101
0010
1001
0100
0011
1000
0110
0001
1100
0001
0110
1000
0011
1000
0101
1000
,
0110
0001
1010
0100
1001
0010
1100
0010
1001
0100
0011
1000
0110
0001
1100
0010
,
0101
0010
1001
0100
1010
0001
0110
1000
0101
0010
1001
0100
0011
1000
0110
1000
,
0011
0100
1010
0001
0110
0001
1010
0100
1001
0100
1010
0100
1001
0100
0011
1000
,
0110
0001
1100
0001
0110
1000
0011
0100
1010
0100
1001
0010
0101
1000
0011
0100
,
1001
0100
1010
0100
1001
0010
0101
1000
0011
1000
0110
1000
0011
1000
0110
0001
,
1100
0001
0110
0001
1100
0010
0101
1000
0101
0010
1001
0010
1100
0010
1001
0100
,
0011
0100
1001
0010
1100
0010
1001
0100
1001
0010
0101
0010
1100
0010
1001
0100
,
0011
1000
0011
0100
1001
0010
1001
0100
0011
1000
0101
0010
0101
1000
0101
1000
,
0110
0001
0110
1000
0101
0010
1001
0100
1001
0010
1100
0001
0110
1000
0011
1000
,
0110
0001
1010
0001
0110
0001
1100
0001
0110
1000
0101
0010
1001
0100
1010
0100
,
1001
0010
0101
0010
1100
0010
1001
0100
0011
1000
0110
0001
1010
0001
0110
1000
,
0101
0010
1001
0100
1010
0001
1100
0001
0110
1000
0011
0100
1001
0010
1100
0001
,
0110
1000
0101
0010
1001
0010
0101
1000
0011
0100
1001
0100
0011
1000
0110
1000
,
0011
1000
0110
0000
0000
0000
1001
0000
0000
0000
0220
0000
0000
0000
0330
0000
,
1001
0000
0000
0000
0000
0000
0102
0010
0100
0010
1000
0100
0010
0100
0013
0000
,
0101
1000
0011
0100
1001
0010
1100
0001
1010
0100
1001
0010
1001
0100
0011
0100
,
0011
1000
0011
0100
1001
0010
1100
0001
0110
1000
0011
0100
1001
0010
1100
0010
,
1100
0001
0110
1000
0011
0100
0011
0100
1001
0010
1001
0100
1010
0100
1010
0100
,
0011
0100
1001
0010
1100
0001
0110
1000
0011
0100
1001
0010
1100
0001
1010
0100
,
0011
0100
2001
0000
0010
0000
3100
0000
0011
0100
1001
0010
1100
0001
1010
0100
,
1001
0010
0101
0010
1001
0100
1010
0001
0110
1000
0011
0100
1001
0100
0011
0100
,
1010
0100
1001
0010
1100
0001
0110
0001
1010
0001
0110
0001
1100
0001
0110
1000
,
0011
0100
1001
0010
1001
0100
1010
0100
1010
0001
0110
0001
1010
0100
1001
0010
,
1100
0001
0110
1000
0101
0010
1001
0100
1001
0010
1001
0100
0011
0100
1001
0010
,
1100
0001
0110
1000
0011
0100
1001
0010
1100
0001
0110
1000
0011
1000
0110
1000
,
0101
1000
0110
0001
1100
0010
1001
0100
0011
0100
1001
0010
1100
0010
0101
0010
,
1001
0100
1010
0001
0110
1000
0011
1000
0110
0000
1100
0000
1001
0100
0011
1000
,
0101
1000
0110
0001
1010
0100
1001
0010
0101
1000
0110
0001
1100
0010
1001
0010
,
1100
0001
1010
0100
1001
0100
1010
0001
0110
0001
1010
0001
0120
0030
0000
0000
,
1001
0100
0011
0100
1001
0010
1100
0001
1010
0001
0110
1000
0101
0010
1100
0001
,
0000
0000
0000
0000
,
1200
0000
0000
0000
0000
0000
0000
0000
0021
0000
0030
0000
0000
0000
0000
0000
2000
0000
3000
0000
0010
0000
2000
0000
3301
0000
0000
0000
2000
0000
3000
0000
0220
0000
0300
0000
2002
0000
3003
0000
0201
0300
0000
0000
0000
0000
0000
0000
2000
0000
3000
0000
0100
0000
2000
0000
3031
0000
0000
0000
2000
0000
3000
0000
,
2200
0000
0300
0000
0220
0000
0330
0000
0021
0030
0000
0000
0000
0000
0000
0000
0200
0000
0300
0000
0010
0000
0200
0000
3301
0000
0000
0000
0200
0000
0300
0000
2002
0000
3000
0000
0220
0000
0330
0000
2100
3000
0000
0000
0000
0000
0000
0000
1020
0000
0030
0000
0100
0000
0000
0000
0013
0000
0000
0000
0000
0000
0000
0000
,
2202
0000
0000
0000
0000
0000
0000
0000
3003
0000
0000
0000
0000
0000
0000
0000
0000
0000
0000
0000
0000
0000
0000
0000
0021
0000
0000
0000
0000
0000
0030
0000
0000
0000
0000
0000
0000
0000
0000
0000
0000
0000
0000
0000
0000
0000
0000
0000
2000
0000
0000
0000
0000
0000
3000
0000
0000
0000
0000
0000
0010
0000
0000
0000
0000
0000
2000
0000
0000
0000
0000
0000
3301
0000
0000
0000
0000
0000
0000
0000
0000
0000
0000
0000
2000
0000
0000
0000
0000
0000
3000
0000
0000
0000
0000
0000
0220
0000
0000
0000
0000
0000
0300
0000
0000
0000
0000
0000
2002
0000
0000
0000
0000
0000
3003
0000
0000
0000
0000
0000
0201
0000
0000
0300
0000
0000
0000
0000
0000
0000
0000
0000
0000
0000
0000
0000
0000
0000
0000
0000
0000
0000
0000
0000
2000
0000
0000
0000
0000
0000
3000
0000
0000
0000
0000
0000
0100
0000
0000
0000
0000
0000
2000
0000
0000
0000
0000
0000
3031
0000
0000
0000
0000
0000
0000
0000
0000
0000
0000
0000
2000
0000
0000
0000
0000
0000
3000
0000
0000
0000
0000
0000
,
2200
0000
0300
0000
0220
0000
0330
0000
0021
0030
0000
0000
0000
0000
0000
0000
0200
0000
0300
0000
0010
0000
0200
0000
3301
0000
0000
0000
0200
0000
0300
0000
2000
0000
3000
0000
0220
0000
0330
0000
2100
3000
0000
0000
0000
0000
0000
0000
1020
0000
0030
0000
0100
0000
0000
0000
0010
0000
0000
0000
0000
0000
0000
0000
,
1001
0100
0011
0100
1011
0100
1001
0010
1100
0001
1100
0010
1001
0100
0011
0100
,
0011
0100
1001
0010
1100
0001
0110
0001
1010
0100
1001
0010
1100
0001
0110
1000
,
0011
0100
1001
0010
0101
1000
0011
0100
0011
1000
0101
0010
1100
0001
1010
0100
,
1001
0010
1100
0001
0110
0000
0011
0100
1001
0010
1100
0010
1001
0110
1000
0001
,
0110
1000
0001
0110
1000
0001
0110
1000
0011
0100
0011
0100
1001
0010
1100
0010
,
1001
0100
1001
0010
1100
0001
1010
0100
0011
1000
0101
0010
1100
0001
0110
1000
,
0011
0100
1001
0010
1001
0100
1001
0010
1100
0001
0110
0001
1100
0010
0100
1001
,
0000
2222
0000
0000
0000
0000
0000
3333
,
1001
0010
1100
0001
1010
0100
1001
0010
1100
0001
0110
1000
0011
0100
1001
0010
,
0100
1001
0100
0010
1001
0100
0010
1001
0100
0010
1001
0100
0011
1000
0011
0100
,
1010
0001
1010
0100
1001
0010
1100
0001
0110
1000
0011
0100
1010
0100
1010
0100
,
0011
1000
0101
0010
1001
0000
0011
0100
0011
0100
1001
0010
1100
0011
0100
1000
,
0011
0100
1000
0011
0100
1000
0011
0100
1001
0100
1001
0010
1100
0001
1010
0100
,
0011
1000
0101
0010
1100
0001
0110
0001
1010
0100
0011
1000
0101
0020
0000
1031
,
0000
0000
0011
0000
0110
0000
1100
0000
0110
0000
0011
0000
0202
0303
1001
0000
,
1010
0100
1010
0100
0011
0100
1001
0010
1001
0100
1010
0001
0110
1000
0011
0100
,
1001
0010
1100
0001
1010
0100
1001
0010
1100
0001
0110
1000
0011
0100
1001
0010
,
1001
0010
1100
0010
1001
0010
0101
0010
1001
0100
0011
1000
0110
0001
1100
0001
,
0110
1000
0011
1000
0101
1000
0110
0001
1010
0100
1001
0010
1100
0010
1001
0100
,
0011
1000
0110
0001
1100
0010
0101
0010
1001
0100
1010
0001
0110
1000
0101
0010
,
1001
0100
0011
1000
0110
1000
0011
0100
1010
0001
0110
0001
1010
0100
1001
0100
,
1010
0100
1001
0100
0011
1000
0110
0001
1100
0001
0110
1000
0011
0100
1010
0100
,
1001
0010
0101
1000
0011
0100
1001
0100
1010
0100
1001
0010
0101
1000
0011
1000
,
0110
1000
0011
1000
0110
0001
1100
0001
0110
0001
1100
0010
0101
1000
0101
0010
,
1001
0010
1100
0010
1001
0100
0011
0100
1001
0010
1100
0010
1001
0100
1001
0010
,
0101
0010
1100
0010
1001
0100
0011
1000
0011
0100
1001
0010
1001
0100
0011
1000
,
0101
0010
0101
1000
0101
1000
0110
0001
0110
1000
0101
0010
1001
0100
1001
0010
,
1100
0001
0110
1000
0011
1000
0110
0001
1010
0001
0110
0001
1100
0001
0110
1000
,
0101
0010
1001
0100
1010
0100
1001
0010
0101
0010
1100
0010
1001
0100
0011
1000
,
0110
0001
1010
0001
0110
1000
0101
0010
1001
0100
1010
0001
1100
0001
0110
1000
,
0011
0100
1001
0010
1100
0001
0110
1000
0101
0010
1001
0010
0101
1000
0011
0100
,
1001
0100
0011
1000
0110
1000
0011
1000
0110
0001
1010
0100
1001
0010
1100
0001
,
0110
0001
0110
1000
0110
0001
1010
0100
1010
0001
1010
0001
1100
0001
1100
0010
,
1100
0011
0100
1000
0011
0100
1000
0011
0100
1000
0011
0100
1001
0100
0011
1000
,
0011
0100
1001
0010
1001
0100
0011
0100
1010
0001
0110
0001
1010
0001
0110
1000
,
0101
1000
0010
0101
1000
0010
0101
1000
0011
0100
1010
0001
0110
0001
1010
0100
,
1001
0100
1010
0001
0110
1000
0011
0100
1001
0110
1000
0001
0110
1000
0001
0110
,
1000
0001
0110
1000
0101
0010
1100
0001
1010
0100
1001
0010
1100
0001
0110
1000
,
0011
0100
1001
0010
1100
0001
1010
0100
0011
0100
1001
0000
0010
0000
0000
0000
,
0110
1000
0101
0010
1001
0100
1010
0001
1100
0001
0110
1000
0011
0100
1001
0010
,
1100
0001
0110
1000
0101
0010
1001
0010
0101
1000
0011
0100
1001
0100
0011
1000
,
0011
1100
0010
0001
1100
0010
0001
1100
0010
0001
1100
0010
1001
0100
1010
0001
,
1010
0001
1010
0100
1010
0001
1010
0001
1100
0001
1100
0010
1100
0011
0100
1000
,
0011
0100
1000
0011
0100
1000
0011
0100
1001
0100
0011
1000
0011
0100
1001
0010
,
1001
0100
0011
0100
1010
0001
0110
0001
1010
0001
0110
1000
0101
1000
0010
0101
,
1000
0010
0101
1000
0011
0100
1010
0001
0110
0001
1010
0100
1001
0100
1010
0001
,
0110
1000
0011
0100
1001
0110
1000
0001
0110
1000
0001
0110
1000
0001
0110
1000
,
0101
0010
2000
0000
0000
0000
0000
0000
0000
0000
0000
0000
0000
0000
0000
0000
,
3101
0000
0000
0000
,
0000
0000
2MM0
0MM0
0MM2
0MM3
0MM0
3MM2
0003
0000
0000
0000
0000
0000
0000
0000
;
