#TITLE:Sudden dream;
#SUBTITLE:;
#ARTIST:Antibrain/bzr;
#TITLETRANSLIT:;
#SUBTITLETRANSLIT:;
#ARTISTTRANSLIT:;
#CREDIT:;
#BANNER:sudden-banner.jpg;
#BACKGROUND:sudden-bg.jpg;
#LYRICSPATH:;
#CDTITLE:bemoz.png;
#MUSIC:sudden dream.mp3;
#OFFSET:-0.222;
#SAMPLESTART:41.820;
#SAMPLELENGTH:14.000;
#SELECTABLE:YES;
#BPMS:0.000=181.920;
#STOPS:;
#BGCHANGES:;
// cache tags:
#FIRSTBEAT:9.000;
#LASTBEAT:320.000;
#SONGFILENAME:Songs/Bemani.se Megapack/(Bemoz) Sudden dream/Sudden dream.sm;
#HASMUSIC:1;
#HASBANNER:1;
#MUSICLENGTH:105.903;
// end cache tags

//---------------dance-single - ----------------
#NOTES:
     dance-single:
     :
     Hard:
     10:
     1.000,1.000,1.000,0.595,0.921,717.000,174.000,63.000,0.000,0.000:
0000
0000
0000
0000
,
0000
0000
0000
0000
,
0000
0000
0000
0000
2002
0000
0000
0000
0000
0000
0000
0000
0000
0000
0000
3003
,
0000
0000
0000
0000
,
0000
0000
0000
0000
2002
0000
0000
3003
2002
0000
0000
0000
0000
0000
0000
0000
,
0000
0000
0000
3003
0000
0000
0000
0000
0000
0000
0000
0000
0000
0000
0000
0000
,
0000
0000
0000
0000
2002
0000
0000
3003
2002
0000
0000
0000
0000
0000
0000
0000
,
0000
0000
3003
0000
0000
0000
0000
0000
2002
0000
0000
3003
2002
0000
0000
3003
,
2002
3003
0000
0000
0000
0000
2002
3003
0000
0000
0000
0000
2002
3003
0000
0000
0000
0000
2002
3003
0000
0000
0000
0000
1010
0000
0000
0000
0000
0000
0001
0000
0000
0000
0000
0000
1001
0000
0000
0000
0000
0000
1000
0000
0000
0000
0000
0000
,
1100
0001
1001
0100
0110
0010
1100
0001
,
1001
0001
0101
1000
1100
0010
1010
0100
,
0011
0100
1010
0100
0101
1000
1001
0010
,
0011
0001
1010
0110
0101
0100
1010
0100
,
0110
0001
1001
0010
0110
1000
0101
0001
,
0011
1000
1001
0010
0101
0010
1100
0100
,
0011
0000
0100
0000
1010
0000
0010
0000
1001
0000
0100
0000
1001
0000
0001
1000
,
0010
0100
0001
1000
0001
0000
0010
1000
0010
0000
1000
0000
1010
0000
0010
0000
,
0101
0010
1010
0100
0101
0100
1010
1000
,
1010
0000
0010
0000
1010
0000
0001
0010
0001
0000
0010
0000
1001
0000
0100
0000
,
0110
0010
1001
0100
0011
1000
1100
0100
,
1010
1100
0011
1010
1100
0001
0101
0010
,
0011
1000
1001
0100
0101
0010
1010
0100
,
1001
0100
0011
0100
1010
0001
1001
1000
,
0101
0000
1000
0000
1010
0000
0101
0000
2200
0000
0000
3300
2200
0000
0000
3300
,
2200
0000
0000
3300
2200
0000
3300
0000
1100
0000
1001
0000
0101
0000
0110
0000
,
0110
1001
1010
1100
0011
1100
1010
0101
,
0110
0010
0110
1001
1100
0101
1010
1001
,
0101
1010
1010
0101
0110
0011
1100
1010
,
0011
0000
0011
0000
0100
0010
0100
0010
0100
0000
0010
0000
0001
0000
0100
1000
,
0100
0000
0001
0000
0101
0000
0010
0000
0100
0000
0001
0000
1000
0000
0001
1000
,
0001
0000
1000
0000
1100
0000
0001
0000
0100
0000
0010
0000
0100
0000
0001
0100
,
0010
0000
1000
0000
1010
0000
1000
0000
0001
0000
0100
0000
0010
0000
0100
0001
,
0010
0000
0100
0000
0010
0100
0010
0100
0010
0001
0010
0100
1000
0100
0010
0001
,
1000
0001
0100
0010
0100
0010
0100
0001
0010
0100
1000
0001
0100
0010
1000
0001
,
0100
0010
1000
0001
1000
0010
0100
0010
1000
0001
1000
0001
1000
0001
0100
0010
,
1000
0100
0010
0001
0010
0100
1000
0100
0010
0001
1000
0001
1000
0010
1000
0100
,
1000
0001
0010
0100
0010
0100
1000
0100
0010
0001
0010
0100
1000
0100
0010
0001
,
0010
0100
1000
0001
1000
0010
0100
0010
0100
0001
0010
0100
1000
0010
0100
0001
,
0100
0010
1000
0001
0100
0001
0010
0001
0100
0001
0010
0001
1000
0001
0100
0001
,
0100
0001
0100
0010
1000
0001
0010
0100
1000
0000
0010
0000
0100
0000
0001
0100
,
0010
0000
0001
0000
0010
0000
0100
0010
0001
0010
0001
0010
0001
0010
0100
1000
,
0001
0100
0010
1000
0100
0010
0001
0010
0100
1000
0100
0010
0100
0010
0001
0100
,
0001
1000
0001
0100
0010
0100
0001
0100
0010
0100
0010
0100
0001
0010
0100
0010
,
0001
0100
0001
0100
0010
0100
0001
0100
0010
0100
0001
0100
0010
0100
0001
0100
,
0010
1000
1000
0001
0100
0001
1000
0100
1000
0010
0100
0001
0100
0001
1000
0001
,
0100
0010
0100
0001
0100
0010
0100
0001
0010
0100
1000
0010
0100
0001
1000
0010
,
0100
0001
1000
0010
0100
0001
0100
0010
0100
0010
0100
0010
0100
0001
0100
0001
,
0010
0001
1000
0001
0010
0001
1000
0001
1000
0000
0001
0000
1000
0000
0001
0100
,
0010
1000
0200
0300
0001
0000
0101
0000
,
0101
0110
0101
0101
,
1001
1010
0101
0110
,
1100
1010
0011
0110
,
1001
1100
0011
0110
,
0011
0000
1010
0000
1100
0110
0101
0000
,
1010
0011
0101
0110
,
1001
0000
1001
0000
0101
0000
0110
0101
,
1010
0000
0110
0000
0010
0100
0010
0100
0010
0100
0001
0010
0100
1000
0001
0010
,
0100
1000
0100
0010
0001
1000
0001
0100
0010
0100
0001
0100
0010
1000
0001
1000
,
0100
0010
0001
0010
0100
0010
0001
0100
0010
1000
0100
0001
0100
1000
0100
0010
,
0001
0100
0010
1000
0010
0100
0001
1000
0010
0100
0001
1000
0010
0100
0001
1000
,
0100
0010
0100
1000
0100
0010
0001
0010
0100
0010
0001
0010
0100
1000
0100
0010
,
0001
1000
0001
1000
0010
0100
0010
0100
0001
0010
0100
0010
0001
0100
0010
1000
,
0100
0010
0001
0010
0100
0010
0100
1000
0100
0010
0001
0100
0010
1000
0010
0100
,
0001
1000
0010
0100
0001
1000
0010
0100
0001
0000
1000
0000
0001
0000
0100
0010
,
1000
0010
1010
0001
1010
0101
0110
1010
,
1010
0101
0110
1100
1001
0101
0110
1010
,
1001
1100
1100
0110
1001
1001
0011
0110
,
0011
1100
0110
0011
0110
0110
0011
0101
,
1010
0000
1010
0000
0001
0100
0001
0100
0010
0000
1000
0000
0100
0000
0010
0100
,
0010
0000
0001
0000
0101
0000
0010
0000
0100
0000
0001
0000
1000
0000
0010
1000
,
0100
0000
1000
0000
0110
0000
0001
0000
0100
0000
0010
0000
0100
0000
0001
0100
,
0010
0000
1000
0000
1010
0000
1000
0000
0001
0000
0100
0000
0010
0000
0100
0001
,
0010
0000
0100
0000
0010
0100
0010
0100
0020
0000
0000
0000
0000
0000
0000
0000
,
0032
0000
2003
0000
3020
0000
0000
0030
,
0200
0000
0000
0000
0000
0000
0000
0000
0000
0000
0000
0000
0000
0000
0000
0000
0000
0000
0000
0000
0000
0000
0000
0000
0000
0000
0000
0000
0000
0000
0000
0000
0000
0000
0000
0000
0000
0000
0000
0000
0000
0000
0000
0000
0000
0000
0000
0000
0000
0000
0000
0000
0000
0000
0000
0000
0300
0000
0000
0000
0000
0000
0000
0000
0000
0000
0000
0000
0000
0000
0000
0000
0000
0000
0000
0000
0000
0000
0000
0000
0000
0000
0000
0000
0000
0000
0000
0000
0000
0000
0000
0000
0000
0000
0000
0000
0002
0000
0000
0000
0000
0000
0000
0000
0003
0000
0000
0000
0000
0000
0000
0000
0000
0000
0000
0000
0000
0000
0000
0000
2000
0000
0000
0000
0000
0000
0000
0000
3000
0000
0000
0000
0000
0000
0000
0000
0000
0000
0000
0000
0000
0000
0000
0000
0020
0000
0000
0000
0000
0000
0000
0000
0000
0000
0000
0000
0030
0000
0000
0000
0000
0000
0000
0000
0000
0000
0000
0000
0200
0000
0000
0000
0000
0000
0300
0000
0000
0000
0000
0000
0000
0000
0000
0000
0000
0000
0000
0000
0000
0000
0000
0000
,
0200
0000
0000
0000
0000
0000
0300
0000
0000
0000
0000
0000
0000
0000
0000
0000
0000
0000
0000
0000
0000
0000
0000
0000
0000
0000
0000
0000
0000
0000
0000
0000
0000
0000
0000
0000
0000
0000
0000
0000
0000
0000
0000
0000
0000
0000
0000
0000
0002
0000
0000
0000
0000
0000
0000
0000
0000
0000
0000
0000
0000
0000
0000
0000
0000
0000
0000
0000
0000
0000
0000
0000
0000
0000
0000
0000
0000
0000
0000
0000
0000
0000
0000
0000
0000
0000
0000
0000
0000
0000
0000
0000
0003
0000
0000
0000
2000
0000
0000
0000
0000
0000
0000
0000
0000
0000
0000
0000
0000
0000
0000
0000
0000
0000
0000
0000
0000
0000
0000
0000
0000
0000
0000
0000
0000
0000
0000
0000
0000
0000
0000
0000
0000
0000
0000
0000
0000
0000
0000
0000
0000
0000
0000
0000
0000
0000
0000
0000
0000
0000
0000
0000
0000
0000
0000
0000
0000
0000
0000
0000
0000
0000
0000
0000
0000
0000
0000
0000
0000
0000
0000
0000
0000
0000
0000
0000
0000
0000
0000
0000
0000
0000
0000
0000
0000
0000
0000
0000
0000
0000
0000
0000
,
3020
0000
0000
0000
0000
0000
0000
0000
0000
0000
0000
0000
0000
0000
0000
0000
0000
0030
0000
0000
0000
0000
0000
0000
2000
0000
0000
0000
0000
0000
0000
0000
0000
3000
0000
0000
0002
0000
0003
0000
0000
0000
0200
0000
0300
0000
0000
0000
,
0020
0000
0000
0000
0000
0000
0000
0000
0030
0000
0000
0000
0000
0000
0000
0000
0000
0000
0000
0000
0000
0000
0000
0000
2000
0000
0000
0000
0000
0000
0000
0000
3000
0000
0000
0000
0000
0000
0000
0000
0000
0000
0000
0000
0000
0000
0000
0000
0200
0000
0000
0000
0000
0000
0000
0000
0300
0000
0000
0000
0000
0000
0000
0000
0000
0000
0000
0000
0000
0000
0000
0000
0020
0000
0000
0000
0000
0000
0000
0000
0030
0000
0000
0000
0000
0000
0000
0000
0000
0000
0000
0000
0000
0000
0000
0000
0200
0000
0000
0000
0000
0000
0000
0000
0000
0000
0000
0000
0000
0000
0000
0000
0000
0000
0000
0000
0000
0000
0000
0000
0000
0000
0000
0000
0000
0000
0000
0000
0000
0000
0000
0000
0300
0000
0000
0000
0000
0000
0000
0000
0000
0000
0000
0000
2000
0000
0000
0000
0000
0000
0000
0000
0000
0000
0000
0000
0000
0000
0000
0000
0000
0000
0000
0000
0000
0000
0000
0000
0000
0000
0000
0000
0000
0000
3000
0000
0000
0000
0000
0000
0000
0000
0000
0000
0000
0000
0000
0000
0000
0000
0000
0000
,
0020
0000
0000
0000
0000
0000
0000
0000
0000
0030
0000
0000
2000
0000
0000
0000
0000
0000
0000
0000
0000
3000
0000
0000
0002
0000
0000
0000
0000
0000
0000
0000
0000
0003
0000
0000
0200
0000
0300
0000
0000
0000
0020
0000
0030
0000
0000
0000
,
0200
0300
0000
0002
0003
0000
0020
0030
0000
2000
3000
0000
0020
0000
0000
0000
0000
0000
0000
0000
0000
0000
0000
0000
,
0030
0000
0000
0000
;
