#TITLE:Black Dragon;
#SUBTITLE:;
#ARTIST:Rhapsody;
#TITLETRANSLIT:;
#SUBTITLETRANSLIT:;
#ARTISTTRANSLIT:;
#CREDIT:Arvin;
#BANNER:../bn-Rhapsody.png;
#BACKGROUND:../Rhapsody-bg.png;
#LYRICSPATH:;
#CDTITLE:;
#MUSIC:Rhapsody - Black Dragon.ogg;
#OFFSET:0.010;
#SAMPLESTART:37.500;
#SAMPLELENGTH:10.000;
#SELECTABLE:YES;
#BPMS:0.000=173.025;
#STOPS:;
#BGCHANGES:;
// cache tags:
#FIRSTBEAT:4.000;
#LASTBEAT:861.000;
#SONGFILENAME:Songs/Rhapsody of Fire/Black Dragon - [Arvin]/Black_Dragon.sm;
#HASMUSIC:1;
#HASBANNER:1;
#MUSICLENGTH:298.919;
// end cache tags

//---------------dance-single - Challenge----------------
#NOTES:
     dance-single:
     Challenge:
     Challenge:
     15:
     1.000,1.000,0.585,0.214,1.000,2565.000,175.000,64.000,8.000,8.000:

0000
0000
0000
0000
,
1000
0100
1000
0010
1000
0001
1000
0010
1000
0100
1000
0100
0010
0001
0100
0010
,
0100
0001
0100
0010
0100
0010
0100
0001
0100
0010
0100
0001
0010
0100
1000
0010
,
0100
0000
0101
0000
0011
0000
1001
0000
1010
0000
1100
0000
,
0001
0010
0001
0100
0001
1000
0001
0100
0001
0010
0001
0010
0100
1000
0010
0100
,
0010
1000
0010
0100
0010
0100
0010
1000
0010
0100
0010
1000
0100
0010
0001
0100
,
0010
0000
0000
0000
1010
0000
0000
0000
1100
0000
0000
0000
2002
0000
0000
3003
0000
0000
0011
0000
0000
0000
0000
0000
,
1000
0100
1000
0001
1000
0100
1000
0010
1000
0001
1000
0100
1000
0010
1000
0100
,
0010
0001
1000
0001
0100
0001
0010
0001
1000
0001
0010
0001
0100
0001
0010
0100
,
1000
0000
1010
0000
0101
0000
1001
0000
0011
0000
1001
0000
,
1000
0010
1000
0001
1000
0010
1000
0100
1000
0001
1000
0010
1000
0100
1000
0010
,
0100
0001
1000
0001
0010
0001
0100
0001
1000
0001
0100
0001
0010
0001
0100
0010
,
1000
0000
0000
0000
1100
0000
0000
0000
0011
0000
0000
0000
2002
0000
0000
3003
0000
0000
0011
0000
0000
0000
0000
0000
,
0001
0010
0001
1000
0001
0010
0001
0100
0001
1000
0001
0010
0001
0100
0001
0010
,
0100
1000
0001
1000
0010
1000
0100
1000
0001
1000
0100
1000
0010
1000
0100
0010
,
0001
0000
0101
0000
1010
0000
1001
0000
1100
0000
1001
0000
,
0001
0100
0001
1000
0001
0100
0001
0010
0001
1000
0001
0100
0001
0010
0001
0100
,
0010
1000
0001
1000
0100
1000
0010
1000
0001
1000
0010
1000
0100
1000
0010
0100
,
0001
0000
0000
0000
0011
0000
0000
0000
1100
0000
0000
0000
2002
0000
0000
3003
0000
0000
1100
0000
0000
0000
0000
0000
,
0011
0000
0000
0000
0101
0000
0000
0000
1010
0000
0000
0000
2002
0000
0000
3003
0000
0000
0011
0000
0000
0000
0000
0000
,
1000
0100
1000
0001
0010
0001
1000
0010
1000
0001
0100
0001
1000
0010
1000
0001
,
0100
0010
0100
0001
0010
0100
1000
0010
0100
0001
0100
0010
1000
0100
1000
0010
,
0100
0001
0010
0100
1000
0010
0100
0001
1000
0100
0010
0001
1000
0010
0100
0010
,
1000
0100
1000
0010
1000
0001
1000
0010
1000
0100
1000
0100
0010
0001
0100
0010
,
0100
0001
0100
0010
0100
0010
0100
0001
0100
0010
0100
0001
0010
0100
1000
0010
,
1000
0010
1000
0001
0100
0001
1000
0100
1000
0001
0010
0001
1000
0100
1000
0001
,
0010
0100
0010
0001
0100
0010
1000
0100
0010
0001
0010
0100
1000
0010
1000
0100
,
0010
0001
0100
0010
1000
0100
0010
0001
1000
0010
0100
0001
1000
0100
0010
0100
,
1000
0010
1000
0100
1000
0001
1000
0100
1000
0010
1000
0010
0100
0001
0010
0100
,
0010
0001
0010
0100
0010
0100
0010
0001
0010
0100
0010
0001
0100
0010
1000
0100
,
1000
0100
1000
0001
0010
0001
1000
0010
1000
0001
0100
0001
1000
0010
1000
0001
,
0100
0010
0100
0001
0010
0100
1000
0010
0100
0001
0100
0010
1000
0100
1000
0010
,
0100
0001
0010
0100
1000
0010
0100
0001
1000
0100
0010
0001
1000
0010
0100
0010
,
1000
0100
1000
0010
1000
0001
1000
0010
1000
0100
1000
0100
0010
0001
0100
0010
,
0100
0001
0100
0010
0100
0010
0100
0001
0100
0010
0100
0001
0010
0100
1000
0001
,
1000
0010
1000
0001
0100
0001
1000
0100
1000
0001
0010
0001
1000
0100
1000
0001
,
0010
0100
0010
0001
0100
0010
1000
0100
0010
0001
0010
0100
1000
0010
1000
0100
,
0010
0001
0100
0010
1000
0100
0010
0001
1000
0010
0100
0001
1000
0100
0010
0100
,
1000
0010
1000
0100
1000
0001
1000
0100
1000
0010
1000
0100
0010
0001
0010
0100
,
0010
0001
0010
0100
0010
0100
0010
0001
0010
0100
0010
0001
0100
0010
1000
0100
,
0010
0000
0011
0000
1000
0001
1001
0000
,
0001
0000
0011
0000
0001
1000
1001
0000
,
1000
0000
1010
0000
1000
0001
1001
0000
,
0001
0000
0101
0000
0001
1000
1001
0000
,
0011
0000
1001
0000
0001
1000
1001
0000
,
1000
0000
1010
0000
1000
0001
1001
0000
,
2002
0000
3003
0022
0033
0000
0220
0330
,
2200
0000
0000
0000
,
3300
0000
1001
1001
1001
1001
1001
1001
,
0001
0010
0001
1000
0100
1000
0001
0100
0001
1000
0010
1000
0001
0100
0001
1000
,
0010
0100
0010
1000
0100
0010
0001
0100
0010
1000
0010
0100
0001
0010
0001
0100
,
0010
1000
0100
0010
0001
0100
0010
1000
0001
0010
0100
1000
0001
0100
0010
0100
,
0001
0010
0001
0100
0001
1000
0001
0100
0001
0010
0001
0010
0100
1000
0010
0100
,
0010
1000
0010
0100
0010
0100
0010
1000
0010
0100
0010
1000
0100
0010
0001
0100
,
0001
0100
0001
1000
0010
1000
0001
0010
0001
1000
0100
1000
0001
0010
0001
1000
,
0100
0010
0100
1000
0010
0100
0001
0010
0100
1000
0100
0010
0001
0100
0001
0010
,
0100
1000
0010
0100
0001
0010
0100
1000
0001
0100
0010
1000
0001
0010
0100
0010
,
0001
0100
0001
0010
0001
1000
0001
0010
0001
0100
0001
0100
0010
1000
0100
0010
,
0100
1000
0100
0010
0100
0010
0100
1000
0100
0010
0100
1000
0010
0100
0001
0010
,
0001
0010
0001
1000
0100
1000
0001
0100
0001
1000
0010
1000
0001
0100
0001
1000
,
0010
0100
0010
1000
0100
0010
0001
0100
0010
1000
0010
0100
0001
0010
0001
0100
,
0010
1000
0100
0010
0001
0100
0010
1000
0001
0010
0100
1000
0001
0100
0010
0100
,
0001
0010
0001
0100
0001
1000
0001
0100
0001
0010
0001
0010
0100
1000
0010
0100
,
0010
1000
0010
0100
0010
0100
0010
1000
0010
0100
0010
1000
0100
0010
0001
1000
,
0001
0100
0001
1000
0010
1000
0001
0010
0001
1000
0100
1000
0001
0010
0001
1000
,
0100
0010
0100
1000
0010
0100
0001
0010
0100
1000
0100
0010
0001
0100
0001
0010
,
0100
1000
0010
0100
0001
0010
0100
1000
0001
0100
0010
1000
0001
0010
0100
0010
,
0001
0100
0001
0010
0001
1000
0001
0010
0001
0100
0001
0010
0100
1000
0100
0010
,
0100
1000
0100
0010
0100
0010
0100
1000
0100
0010
0100
1000
0010
0100
0001
0010
,
0100
0000
1100
0000
0001
1000
1001
0000
,
1000
0000
1100
0000
1000
0001
1001
0000
,
0001
0000
0101
0000
0001
1000
1001
0000
,
1000
0000
1010
0000
1000
0001
1001
0000
,
1100
0000
1001
0000
1000
0001
1001
0000
,
0001
0000
0101
0000
0001
1000
1001
0000
,
2002
0000
3003
2200
3300
0000
0220
0330
,
0022
0000
0000
0000
,
0033
0000
1000
0001
1001
1001
0101
0101
,
0001
0010
0100
1000
0010
0100
0001
0010
0100
1000
0001
0010
0001
1000
0100
0010
,
0001
1000
0100
1000
0001
0100
0001
0100
0010
1000
0010
1000
0001
0010
0100
1000
,
0100
0010
0001
1000
0001
0100
0010
1000
0001
1000
0010
0100
0001
0010
0100
1000
,
0100
0010
0001
0100
0010
1000
0001
0010
0001
1000
0100
1000
0010
0100
0001
1000
,
0001
0100
0010
1000
0100
0010
0001
0100
0010
1000
0001
0100
0001
1000
0010
0100
,
0001
1000
0010
1000
0001
0010
0001
0010
0100
1000
0100
1000
0001
0100
0010
1000
,
0010
0100
0001
1000
0001
0010
0100
1000
0001
1000
0100
0010
0001
0100
0010
1000
,
0010
0100
0001
0010
0100
1000
0001
0100
0001
1000
0010
1000
0100
0010
0001
1000
,
0001
0010
0100
1000
0010
0100
0001
0010
0100
1000
0001
0010
0001
1000
0100
0010
,
0001
1000
0100
1000
0001
0100
0001
0100
0010
1000
0010
1000
0001
0010
0100
1000
,
0100
0010
0001
1000
0001
0100
0010
1000
0001
1000
0010
0100
0001
0010
0100
1000
,
0100
0010
0001
0100
0010
1000
0001
0010
0001
1000
0100
1000
0010
0100
0001
1000
,
0001
0100
0010
1000
0100
0010
0001
0100
0010
1000
0001
0100
0001
1000
0010
0100
,
0001
1000
0010
1000
0001
0010
0001
0010
0100
1000
0100
1000
0001
0100
0010
1000
,
0010
0100
0001
1000
0001
0010
0100
1000
0001
1000
0100
0010
0001
0100
0010
1000
,
0010
0100
0001
0010
0100
1000
0001
0100
0001
1000
0010
1000
0100
0010
0001
1000
,
0001
0100
0010
0100
0001
0010
0100
1000
0001
0100
0001
1000
0010
0100
0010
1000
,
0100
0010
0001
0100
0010
0100
0001
0010
0100
0010
0001
1000
0100
0010
0001
1000
,
0010
1000
0001
0100
0001
1000
0100
0010
0001
0100
0010
1000
0100
0010
0001
1000
,
0001
1000
0100
0010
0001
0100
0010
1000
0001
1000
0010
0100
0001
0010
0100
1000
,
0001
0010
0100
0010
0001
0100
0010
1000
0001
0010
0001
1000
0100
0010
0100
1000
,
0010
0100
0001
0010
0100
0010
0001
0100
0010
0100
0001
1000
0010
0100
0001
1000
,
0100
1000
0001
0010
0001
1000
0010
0100
0001
0010
0100
1000
0010
0100
0001
1000
,
0001
1000
0010
0100
0001
0010
0100
1000
0001
1000
0100
0010
0001
0100
0010
1000
,
0001
0000
0000
1001
0000
0000
0101
0000
,
0011
0000
0000
1100
0000
0000
1001
0000
,
0101
0000
0000
0000
0000
0000
0000
0000
0000
1000
0001
1000
,
1001
0000
0000
0101
0000
0000
0011
0000
,
0001
0010
0001
1000
0001
0010
0001
0100
0001
1000
0001
0010
0001
0100
0001
0010
,
0100
1000
0001
1000
0010
1000
0100
1000
0001
1000
0100
1000
0010
1000
0100
0010
,
0001
0000
0101
0000
1010
0000
1001
0000
1100
0000
1001
0000
,
0001
0100
0001
1000
0001
0100
0001
0010
0001
1000
0001
0100
0001
0010
0001
0100
,
0010
1000
0001
1000
0100
1000
0010
1000
0001
1000
0010
1000
0100
1000
0010
0100
,
0001
0000
0000
0000
0011
0000
0000
0000
1100
0000
0000
0000
2002
0000
0000
3003
0000
0000
1100
0000
0000
0000
0000
0000
,
1000
0100
1000
0001
1000
0100
1000
0010
1000
0001
1000
0100
1000
0010
1000
0100
,
0010
0001
1000
0001
0100
0001
0010
0001
1000
0001
0010
0001
0100
0001
0010
0100
,
1000
0000
1010
0000
0101
0000
1001
0000
0011
0000
1001
0000
,
1000
0010
1000
0001
1000
0010
1000
0100
1000
0001
1000
0010
1000
0100
1000
0010
,
0100
0001
1000
0001
0010
0001
0100
0001
1000
0001
0100
0001
0010
0001
0100
0010
,
1000
0000
0000
0000
1100
0000
0000
0000
0011
0000
0000
0000
2002
0000
0000
3003
0000
0000
0011
0000
0000
0000
0000
0000
,
1100
0000
0000
0000
1010
0000
0000
0000
0101
0000
0000
0000
2002
0000
0000
3003
0000
0000
1100
0000
0000
0000
0000
0000
,
0001
0010
0001
1000
0001
0010
0100
1000
0001
0100
0010
0100
0001
1000
0100
0010
,
0001
1000
0100
1000
0010
0100
0010
0100
0002
0000
0000
0000
1003
0000
0000
0000
,
1000
0100
0010
0001
1000
0100
1000
0010
1000
0001
0100
0010
1000
0001
0010
0100
,
1000
0010
0100
0010
1000
0001
0010
0100
2000
0000
0000
0000
3000
0000
MMMM
0000
,
1000
0100
1000
0001
1000
0100
0010
0001
1000
0010
0100
0010
1000
0001
0010
0100
,
1000
0001
0010
0001
0100
0010
0100
0010
2000
0000
0000
0000
3001
0000
0000
0000
,
0001
0010
0100
1000
0001
0010
0001
0100
0001
1000
0010
0100
0001
1000
0100
0010
,
0001
0100
0010
0100
0001
1000
0100
0010
0002
0000
1003
0010
1000
0010
1000
0001
,
0100
0010
0100
0001
0010
0100
1000
0010
0100
0010
1000
0100
0010
0001
1000
0001
,
1000
0100
0010
0001
0100
0010
1000
0001
2000
0000
0000
0000
3010
0000
0000
0000
,
0100
0001
1000
0001
0100
0001
0010
0100
1000
0010
0100
0001
1000
0100
1000
0010
,
0100
0001
0010
0100
1000
0001
0100
0001
2000
0000
0000
0000
3001
0000
MMMM
0000
,
0001
0100
0010
1000
0100
0010
0001
0100
0010
0100
0001
0010
0100
1000
0001
1000
,
0001
0010
0100
1000
0010
0100
0001
1000
0002
0000
0000
0000
0103
0000
0000
0000
,
0010
1000
0001
1000
0010
1000
0100
0010
0001
0100
0010
1000
0001
0000
1000
0000
,
0010
1000
0100
0010
0001
1000
0010
1000
0002
0000
1003
0100
1000
0100
1000
0001
,
0100
0010
1010
1000
0001
1000
1010
0000
,
1001
0001
1000
1001
1000
0001
0101
0000
,
1100
0100
1000
1001
0001
1000
1001
0000
,
0011
0010
0100
1100
1000
0001
0101
0000
,
1010
0010
1000
1010
0010
1000
1010
1000
,
0001
0100
0001
0101
0100
0001
0101
0001
,
1000
0100
1000
1100
0100
1000
1100
1000
,
0001
0010
0001
0011
0010
0001
0011
0001
,
1100
0100
1000
1001
0001
0010
0110
0100
,
1000
0100
1000
1010
0010
0100
0101
0001
,
1001
1000
0010
0110
0100
0001
1001
1000
,
1000
0010
0100
0101
0001
0010
0011
0001
,
0101
0100
0001
1001
1000
0010
0110
0100
,
0001
0100
0001
0011
0010
0100
1100
1000
,
1001
0001
0010
0110
0100
1000
1001
0001
,
0001
0010
0100
1100
1000
0010
1010
1000
,
0011
0010
0001
1001
1000
0100
0110
0010
,
0001
0000
0000
0010
0000
0000
0001
0000
0000
0101
0000
0000
0001
0000
0100
0000
0001
0000
0100
0000
0001
0000
0100
0000
,
0202
0000
0000
0303
0002
0000
0000
0000
,
0200
0000
0020
0000
,
1333
0000
0100
0000
0010
0000
0001
1000
,
1010
0010
0100
0001
,
2002
0000
0000
3003
2000
0000
0000
0000
,
0002
0000
0200
0000
,
3313
0000
1000
0000
0001
0000
0010
0100
,
1100
0000
1000
0000
1001
0001
0010
0000
,
0022
0000
0000
0033
0002
0000
0000
0000
,
0020
0000
0200
0000
,
1333
0000
0001
0000
0100
0000
0010
1000
,
1010
0000
0010
0000
0100
0001
1000
0000
,
2020
0000
0000
3030
2000
0000
0000
0000
,
0020
0000
0200
0000
,
3331
0000
1000
0000
0010
0000
0100
0001
,
1000
0000
0000
0000
0100
0000
0010
0000
0001
0100
0001
0100
0001
1000
0010
1000
,
0001
0010
0100
1000
0100
0010
0001
1000
0010
1000
0001
0100
0001
0010
0100
1000
,
0100
0010
0001
1000
0100
1000
0001
0010
0001
1000
0100
0010
0001
0010
0100
1000
,
0001
0100
0001
1000
0010
1000
0100
0010
0001
0010
0100
1000
0001
0010
0001
1000
,
0100
1000
0001
0010
0100
1000
0001
0010
0100
1000
0100
0010
0001
1000
0001
1000
,
0010
0100
0010
1000
0100
0010
0001
0100
0010
0100
0001
0010
0100
1000
0001
1000
,
0100
0010
0001
1000
0001
0100
0010
0100
0001
0010
0100
0010
0100
1000
0001
0100
,
0001
1000
0100
0010
0001
0100
0010
1000
0100
0010
0001
1000
0100
1000
0010
0100
,
0001
1000
0001
0100
0010
0100
0001
0010
0100
0000
1100
0000
1100
0000
1100
0000
,
0001
1000
0001
1000
0010
0100
0001
1000
0001
1000
0010
0100
0001
0010
0100
1000
,
0010
0100
0001
0010
0100
1000
0001
1000
0100
0010
0001
0100
0010
1000
0100
0010
,
0001
1000
0001
0010
0100
0010
0100
1000
0010
0100
0001
1000
0001
0100
0010
0100
,
0001
1000
0100
0010
0001
0100
0010
1000
0001
1000
0100
0010
0001
1000
0001
1000
,
0001
1000
0001
1000
0010
0100
0001
1000
0001
1000
0010
0100
0001
0010
0100
1000
,
0010
0100
0001
0010
0100
1000
0001
1000
0100
0010
0001
0100
0010
1000
0100
0010
,
0001
1000
0001
0010
0100
0010
0100
1000
0010
0100
0001
1000
0001
0100
0010
0100
,
0001
1000
0001
0000
0001
0000
0010
0000
0010
0000
0100
0000
0100
0000
1000
0000
,
2002
0000
0000
0000
0000
0000
0000
3003
,
0202
0000
0000
0000
0000
0000
0000
0303
,
1000
0100
0010
0001
0100
0010
1000
0100
0010
0001
1000
0100
1000
0001
0010
0100
,
1000
0001
0010
0001
1000
0010
1000
0010
0100
0001
0100
0001
1000
0100
0010
0001
,
0010
0100
1000
0001
1000
0010
0100
0001
1000
0001
0100
0010
1000
0100
0010
0001
,
0010
0100
1000
0010
0100
0001
1000
0100
1000
0001
0010
0001
0100
0010
1000
0001
,
1000
0010
0100
0001
0010
0100
1000
0010
0100
0001
1000
0010
1000
0001
0100
0010
,
1000
0001
0100
0001
1000
0100
1000
0100
0010
0001
0010
0001
1000
0010
0100
0001
,
0100
0010
1000
0001
1000
0100
0010
0001
1000
0001
0010
0100
1000
0010
0100
0001
,
0100
0010
1000
0100
0010
0001
1000
0010
1000
0001
0100
0001
0010
0100
1000
0001
,
1000
0100
0010
0001
0100
0010
1000
0100
0010
0001
1000
0100
1000
0001
0010
0100
,
1000
0001
0010
0001
1000
0010
1000
0010
0100
0001
0100
0001
1000
0100
0010
0001
,
0010
0100
1000
0001
1000
0010
0100
0001
1000
0001
0100
0010
1000
0100
0010
0001
,
0010
0100
1000
0010
0100
0001
1000
0100
1000
0001
0010
0001
0100
0010
1000
0001
,
1000
0010
0100
0001
0010
0100
1000
0010
0100
0001
1000
0010
1000
0001
0100
0010
,
1000
0001
0100
0001
1000
0100
1000
0100
0010
0001
0010
0001
1000
0010
0100
0001
,
0100
0010
1000
0001
1000
0100
0010
0001
1000
0001
0010
0100
1000
0010
0100
0001
,
0100
0010
1000
0100
0010
0001
1000
0010
1000
0001
0100
0001
0010
0100
1000
0001
,
1000
0010
0100
0010
1000
0100
0010
0001
1000
0010
1000
0001
0100
0010
0100
0001
,
0010
0100
1000
0010
0100
0010
1000
0100
0010
0100
1000
0001
0010
0100
1000
0001
,
0100
0001
1000
0010
1000
0001
0010
0100
1000
0010
0100
0001
0010
0100
1000
0001
,
1000
0001
0010
0100
1000
0010
0100
0001
1000
0001
0100
0010
1000
0100
0010
0001
,
1000
0100
0010
0100
1000
0010
0100
0001
1000
0100
1000
0001
0010
0100
0010
0001
,
0100
0010
1000
0100
0010
0100
1000
0010
0100
0010
1000
0001
0100
0010
1000
0001
,
0010
0001
1000
0100
1000
0001
0100
0010
1000
0100
0010
0001
0100
0010
1000
0001
,
1000
0001
0100
0010
1000
0100
0010
0001
1000
0001
0010
0100
1000
0010
0100
0001
,
1000
0000
0000
1001
0000
0000
0101
0000
,
0011
0000
0000
1100
0000
0000
1001
0000
,
0101
0000
0000
0000
0000
0000
0000
0000
0000
1000
0001
1000
,
1001
0000
0000
0101
0000
0000
0011
0000
,
2002
3003
0000
0000
;
