#TITLE:Felys;
#SUBTITLE:;
#ARTIST:Onoken;
#TITLETRANSLIT:;
#SUBTITLETRANSLIT:;
#ARTISTTRANSLIT:;
#CREDIT:;
#BANNER:felys-bn.png;
#BACKGROUND:felys-bg.png;
#LYRICSPATH:;
#CDTITLE:!boombaTitle.png;
#MUSIC:onoken - felys.mp3;
#OFFSET:-10.740;
#SAMPLESTART:100.152;
#SAMPLELENGTH:12.000;
#SELECTABLE:YES;
#BPMS:0.000=180.200,160.000=90.100,196.250=135.140,197.500=180.200,264.000=90.100;
#STOPS:;
#BGCHANGES:;
// cache tags:
#FIRSTBEAT:0.000;
#LASTBEAT:280.000;
#SONGFILENAME:Songs/Fresh Flock of Fantastic Files F4/(b00mba) Felys/Felys.sm;
#HASMUSIC:1;
#HASBANNER:1;
#MUSICLENGTH:132.127;
// end cache tags

//---------------dance-single - ----------------
#NOTES:
     dance-single:
     :
     Hard:
     11:
     0.971,0.954,0.810,0.083,1.000,780.000,107.000,11.000,0.000,0.000:  // measure 1
0001
0010
0100
1000
0001
1000
0100
0010
,  // measure 2
0100
0000
1000
0000
0100
0000
0001
0000
1000
0000
0010
0000
0100
0001
0010
0000
,  // measure 3
0001
0100
0010
1000
0001
0100
0010
1000
,  // measure 4
0001
0000
0100
0000
0010
0000
1000
0000
0001
0000
0011
0000
0010
0100
1000
0000
,  // measure 5
0001
1000
0010
0100
0001
1000
0010
0100
,  // measure 6
0001
0000
1000
0000
0010
0000
0100
0000
0001
0000
1000
0000
0100
0010
0001
0000
,  // measure 7
0010
0100
1000
0001
1000
0010
0100
0001
,  // measure 8
0100
0010
0101
0001
0101
0001
2002
3003
,  // measure 9
1001
0100
0010
0001
0010
0100
1000
0100
,  // measure 10
1000
0000
0001
0000
1000
0000
0010
0000
0100
0000
0001
0000
1000
0010
0100
0000
,  // measure 11
0001
1000
0100
0010
0001
1000
0010
0100
,  // measure 12
0001
0000
1000
0000
0100
0000
0010
0000
0001
0000
1100
0000
0001
1000
0100
0000
,  // measure 13
0011
0000
0100
0010
0000
0000
0000
0000
1001
0000
0010
0100
0000
0000
0000
0000
,  // measure 14
0010
0010
0010
0000
1001
0000
0000
0000
0110
0000
0000
0100
0000
0000
0000
0000
,  // measure 15
0010
0000
0010
0000
0101
0000
0010
0100
0001
0010
0100
0010
1001
0000
0010
0000
,  // measure 16
0100
0000
0010
0000
1001
0000
0100
0000
0011
0000
0100
0000
1001
0100
0010
0001
,  // measure 17
0110
0000
0001
0000
1100
0000
1000
0001
0010
0100
0010
0000
1001
0000
0100
0000
,  // measure 18
1100
0000
0011
0000
0110
0000
0001
0100
0010
0100
0001
0000
1010
0000
0001
0000
,  // measure 19
1010
0000
0110
0000
0011
0000
0100
1000
0010
0100
0001
0000
1010
0000
0001
0000
,  // measure 20
0101
0000
1010
0000
1001
0000
1000
0100
0010
0100
0010
0000
1001
0000
0100
0000
,  // measure 21
1100
0000
0101
0000
0110
0000
0001
0100
0010
1000
0001
0000
1100
0000
0100
0000
,  // measure 22
0110
0000
1001
0000
1010
0000
0001
0100
0010
0100
0001
0000
1010
0000
0001
0000
,  // measure 23
1010
0000
1100
0000
0011
0000
0100
0010
0100
0001
0010
0000
0110
0000
1000
0000
,  // measure 24
0001
0010
0100
1000
0100
0010
0001
0010
0100
0010
0001
0010
0100
0000
0001
0000
,  // measure 25
1010
0001
1000
0101
0000
0000
0000
0000
,  // measure 26
1000
0001
1000
0100
1000
0001
1000
0100
1000
0001
0010
0100
0010
0100
1000
0100
,  // measure 27
1001
0010
1000
0101
0000
0000
0000
1000
,  // measure 28
0100
0010
0001
0000
0010
0000
0100
0000
1000
0000
0010
0000
0100
0000
0001
0000
,  // measure 29
1010
0001
1000
0011
0000
0000
0000
0000
,  // measure 30
1000
0100
0010
0001
0010
0001
1000
0001
1000
0010
1000
0001
0100
0001
0100
0001
,  // measure 31
0110
0001
0100
1010
0000
0000
0000
1000
,  // measure 32
0100
1000
0010
0000
0001
0000
1000
0000
0100
0000
0010
0000
0001
0000
0100
0000
,  // measure 33
0110
0000
0100
0000
0001
0000
0011
0000
0000
0000
0000
0000
0000
0000
0001
0100
,  // measure 34
0001
1000
0001
0010
0100
1000
0100
0010
0001
1000
0100
1000
0010
0100
0010
1000
,  // measure 35
0101
0000
0010
0000
0001
0000
1100
0000
0000
0000
0010
0000
1000
0000
0001
0010
,  // measure 36
0100
1000
0010
1000
0001
0100
0001
0010
0001
0100
0010
1000
0001
0100
0010
1000
,  // measure 37
0110
0000
0100
0000
1000
0000
0011
0000
0000
0000
0000
0010
0001
0010
0100
1000
,  // measure 38
0010
1000
0100
0010
0001
0010
0100
1000
0001
1000
0100
0010
0001
0010
0100
0010
,  // measure 39
1001
0000
0010
0000
0100
0000
0011
0000
0000
0000
0001
0000
0001
0010
0001
0010
,  // measure 40
0100
1000
0001
0010
0100
0010
0001
0010
0100
1000
0100
0010
0100
1000
0100
0010
,  // measure 41
1002
0000
0000
0000
0000
0000
0000
0000
0000
0000
0000
0000
0003
0000
0000
0000
1000
0001
0010
0100
1000
0100
0010
0001
0010
0100
1000
0000
0000
0000
0000
0000
,  // measure 42
0010
1000
0100
0010
0001
0100
1000
0010
0100
0001
0010
1000
0001
0100
1000
0001
,  // measure 43
0100
0010
0001
1000
0100
0001
1000
0010
0001
0100
0010
0001
0100
0001
0010
0200
,  // measure 44
0300
0010
0100
1000
0001
0010
0100
0002
1003
0001
0100
0020
1030
0010
0100
2000
,  // measure 45
3100
0001
0100
0010
0001
0010
0001
0200
1300
0010
0001
2000
3100
0001
0010
0100
,  // measure 46
0010
1100
0001
0000
0001
0011
0000
0100
1000
0000
1000
0010
0100
1001
0000
0100
,  // measure 47
0100
0010
0000
0001
0100
1010
0001
0100
1010
0000
0100
0100
0001
0101
0001
1000
,  // measure 48
0100
0010
0000
0010
0001
0101
0000
0010
0010
0100
0001
1000
1000
1001
0000
0001
,  // measure 49
0100
0010
1000
0011
0100
0011
0100
0001
0110
0000
0011
1100
0001
1010
0001
1000
,  // measure 50
0020
0000
0000
0000
0000
0000
0000
0030
,  // measure 51
0110
0000
0100
0000
1001
0000
1000
0100
0000
0100
0010
0000
0011
0000
1000
0100
,  // measure 52
0010
0100
1000
0001
1010
0001
1000
0001
0100
0001
0010
0001
0110
0001
1000
0100
,  // measure 53
0010
0000
0100
0000
0011
0000
0001
0010
0000
0010
0001
0000
0011
0000
0001
1000
,  // measure 54
0100
0010
0001
0010
1100
0001
1000
0001
0010
0001
0100
0001
1010
0001
1000
0010
,  // measure 55
0100
0000
0001
0000
0101
0000
0001
0100
0000
0100
0010
0000
1010
0000
1000
0100
,  // measure 56
0010
0100
1000
0100
0011
0100
1000
0001
0010
0001
0100
0010
1001
0010
0100
0001
,  // measure 57
0010
0000
0001
0000
0110
0000
0100
1000
0000
1000
0010
0000
1010
0000
1000
0010
,  // measure 58
0100
0010
1000
0010
0100
0001
0100
0001
0010
0001
0010
0001
0010
0100
1000
0100
,  // measure 59
0011
0000
0100
0000
1001
0000
1000
0010
0000
0010
0100
0000
0101
0000
0010
0001
,  // measure 60
0100
0010
1000
0001
1100
0001
0010
0100
1000
0100
0010
0100
1001
0100
1000
0001
,  // measure 61
0010
0000
0100
0000
0110
0000
0001
0100
0000
0100
0001
0000
0101
0000
0001
0100
,  // measure 62
0001
0010
0001
1000
0110
0001
0010
0100
1000
0100
1000
0010
1001
0010
0100
0001
,  // measure 63
0010
0000
0001
0000
0110
0000
0010
0100
0000
0100
0010
0000
1010
0000
1000
0100
,  // measure 64
0010
0100
1000
0100
0011
0100
1000
0001
0010
0001
0100
0010
1001
0100
0010
0001
,  // measure 65
0100
0000
0001
0000
0110
0000
0010
0100
0000
0100
1000
0000
1010
0000
1000
0010
,  // measure 66
0100
0001
0010
0001
0110
0001
1000
0100
0010
0100
1000
0100
0011
0100
1000
0100
,  // measure 67
1002
0000
0000
0000
0003
0100
1000
0100
0010
0001
1000
0010
0100
0001
1000
0001
,  // measure 68
0010
0100
1000
0010
0100
0001
1000
0010
0100
0001
1000
0100
0010
0001
1000
0100
,  // measure 69
1000
0001
0100
0001
1000
0001
0010
0100
1000
0010
0100
0001
1000
0010
0100
0001
,  // measure 70
0010
0100
1000
0010
0100
0001
1000
0100
1000
0001
0010
0001
0100
0010
0100
0001
,  // measure 71
0110
0000
0000
0000
;
