#TITLE:A.R.P.Z.;
#SUBTITLE:;
#ARTIST:Xkwizit;
#TITLETRANSLIT:;
#SUBTITLETRANSLIT:;
#ARTISTTRANSLIT:;
#CREDIT:;
#BANNER:arpzBanner.png;
#BACKGROUND:arpzBG.png;
#LYRICSPATH:;
#CDTITLE:!cdtitle.png;
#MUSIC:arpz.mp3;
#OFFSET:-0.060;
#SAMPLESTART:42.857;
#SAMPLELENGTH:11.980;
#SELECTABLE:YES;
#BPMS:0.000=140.020;
#STOPS:;
#BGCHANGES:;
// cache tags:
#FIRSTBEAT:0.000;
#LASTBEAT:178.000;
#SONGFILENAME:Songs/StepmaniaFreak's Favorites/(super-smashman) A.R.P.Z/arpz.sm;
#HASMUSIC:1;
#HASBANNER:1;
#MUSICLENGTH:77.191;
// end cache tags

//---------------dance-single - ----------------
#NOTES:
     dance-single:
     :
     Hard:
     12:
     1.000,1.000,0.751,0.026,1.000,645.000,58.000,2.000,0.000,0.000:
1000
0100
0010
0001
0010
0100
1000
0100
0010
0001
0010
0100
1000
0100
0010
0001
,
0110
0001
0100
0010
1000
0010
0100
0001
0100
0001
0100
0010
1000
0010
0100
0001
,
1010
0100
0001
1000
0010
0100
0001
1000
0010
0100
0001
1000
0010
0100
0001
1000
,
1000
0001
0010
0100
0001
1000
0100
0010
1000
0001
0010
0100
0001
1000
0100
0010
,
1000
0001
0001
1000
0001
0001
1000
0001
0001
1000
0001
0001
1000
0001
0001
1000
,
0001
1000
1000
0001
1000
1000
0001
1000
1000
0001
1000
1000
0001
1000
1000
0001
,
0010
0100
0100
0010
0100
0100
0010
0100
0100
0010
0100
0100
0010
0100
0100
0010
,
0100
0010
0010
0100
0010
0010
0100
0010
0010
0100
0010
0010
0100
0010
1000
0100
,
0001
0000
0001
1000
0000
0010
0100
0000
0001
1000
0000
0010
0100
0000
0001
1000
,
1000
0010
0001
1000
0010
0001
1000
0010
0001
1000
0010
0001
1000
0010
0001
1000
,
0001
0000
0100
0010
0000
1000
0001
0000
0100
0010
0000
1000
0001
0000
0100
0010
,
0001
0100
1000
0001
0100
1000
0001
0100
1000
0001
0100
1000
0001
0100
1000
0001
,
1000
0001
0010
1000
0010
0001
1000
0001
0010
1000
0010
0001
1000
0000
0000
1100
,
0011
1000
0100
0001
0100
1000
0001
1000
0100
0001
0100
1000
0001
0000
0000
0011
,
1100
0001
0010
1000
0010
0001
1000
0001
0010
1000
0010
0001
1000
0000
0000
1100
,
0011
1000
0100
0001
0100
1000
0001
1000
0100
0001
0100
1000
0001
1000
0100
0010
,
1000
0001
0010
0100
1010
0001
0100
0010
0101
1000
0010
0100
1010
0001
0100
1000
,
0110
1000
0010
0100
1010
0001
0100
1000
0101
1000
0010
0100
1010
0001
0100
1000
,
0110
1000
0010
0100
1010
0001
0100
1000
0101
1000
0010
0100
1010
0001
0100
1000
,
0110
0000
0000
0000
0000
0000
0000
0000
1001
0000
0000
0000
0000
0000
0000
0000
0001
1000
0001
1000
0001
1000
0001
1000
0001
1000
0001
1000
0001
1000
0001
0000
,
0110
0000
0100
0110
0000
0010
0110
0000
0100
0110
0000
0010
0110
0000
0000
0110
,
1001
0000
0001
1001
0000
1000
1001
0000
0001
1001
0000
1000
1001
0000
0000
1001
,
0110
0000
0100
0110
0000
0010
0110
0000
0100
0110
0000
0010
0110
0000
0000
0110
,
1001
0000
0100
0010
0000
1000
0001
0000
0100
0010
0000
1000
0001
0000
0100
0010
,
1000
0100
0010
0001
1100
0000
1000
1000
0100
0010
0001
0010
1100
0000
0001
0010
,
1000
0001
1000
0001
1000
0001
1000
0001
,
0001
0010
0100
1000
0011
0000
0001
0001
0010
0100
1000
0100
0011
0000
1000
0100
,
0001
1000
0001
1000
0001
1000
0001
1000
,
1000
0010
1000
0001
1100
0000
1000
1000
0100
0010
0001
0010
1100
0000
0001
0001
,
0010
0100
1000
0100
0011
0000
1000
1000
0100
0010
0001
0010
1100
0000
0001
0001
,
0010
0100
1000
0100
0011
0000
0010
0010
0100
0010
1000
0100
0011
0000
1000
0100
,
0001
0000
0000
0000
1000
0000
0000
0000
0001
0000
0000
0000
1000
0000
0000
0000
0001
1000
0001
1000
0001
1000
0001
1000
0001
1000
0001
1000
0001
1000
0001
0000
,
1000
0001
0010
1000
0010
0001
1000
0001
0010
1000
0010
0001
1000
0000
0000
1100
,
0011
1000
0100
0001
0100
1000
0011
1000
0100
0001
0100
1000
0001
0000
0000
0011
,
1100
0001
0010
1000
0010
0001
1000
0001
0010
1000
0010
0001
1000
0000
0000
1100
,
0011
1000
0100
0001
0100
1000
0001
1000
0100
0001
0100
1000
0001
1000
0100
0010
,
1000
0001
0001
1000
0001
0001
1000
0001
0001
1000
0001
0001
1000
0001
0001
1000
,
0001
1000
1000
0001
1000
1000
0001
1000
1000
0001
1000
1000
0001
1000
1000
0001
,
0010
0100
0100
0010
0100
0100
0010
0100
0100
0010
0100
0100
0010
0100
0100
0010
,
0100
0010
0010
0100
0010
0010
0100
0010
0010
0100
0010
0010
0100
0010
1000
0100
,
0001
0010
0010
0100
0010
0010
0100
0010
0010
0100
0010
0010
0100
0010
1000
0100
,
0001
0010
0001
0100
0010
0001
1000
0010
0001
0100
0010
0001
1000
0010
0001
1000
,
0100
0001
1000
0010
0001
1000
0100
0001
1000
0010
0001
1000
0100
0001
1000
0001
,
1000
0000
0001
0000
1000
0000
0001
0000
1000
0000
0001
0000
1000
0000
0001
0000
1000
0001
1000
0001
1000
0001
1000
0001
1000
0001
1000
0001
1000
0001
1000
0000
,
2002
0000
3003
0000
;

//---------------dance-single - Copied from----------------
#NOTES:
     dance-single:
     Copied from:
     Challenge:
     14:
     1.000,1.000,1.000,0.026,1.000,650.000,232.000,2.000,0.000,0.000:
1000
0100
0010
0001
0010
0100
1000
0100
0010
0001
0010
0100
1000
0100
0010
0001
,
0110
0001
0100
0010
1000
0010
0100
0001
0100
0001
0100
0010
1000
0010
0100
0001
,
1010
0100
0001
1000
0010
0100
0001
1000
0010
0100
0001
1000
0010
0100
0001
1000
,
1100
0011
1100
0011
1100
0011
1100
0011
1100
0011
1100
0011
0110
0110
0110
0000
,
1000
0011
0011
1000
0011
0011
1000
0011
0011
1000
0011
0011
1000
0011
0011
1000
,
0001
1100
1100
0001
1100
1100
0001
1100
1100
0001
1100
1100
0001
1100
1100
0001
,
0010
0101
0101
0010
0101
0101
0010
0101
0101
0010
0101
0101
0010
0101
0101
0010
,
0100
1010
1010
0100
1010
1010
0100
1010
1010
0100
1010
1010
0100
1010
1000
0100
,
0001
0000
0011
1100
0000
0011
1100
0000
0011
1100
0000
0011
1100
0000
0011
1100
,
1000
0010
0001
1000
0010
0001
1000
0010
0001
1000
0010
0001
1000
0010
0001
1000
,
0001
0000
1100
0011
0000
1100
0011
0000
1100
0011
0000
1100
0011
0000
1100
0011
,
0001
0100
1000
0001
0100
1000
0001
0100
1000
0001
0100
1000
0001
0100
1000
0001
,
1100
0001
0010
1100
0010
0001
1100
0001
0010
1100
0010
0001
1100
0001
0010
1100
,
0011
1000
0100
0011
0100
1000
0011
1000
0100
0011
0100
1000
0011
1000
0100
0011
,
1100
0001
0010
1100
0010
0001
1100
0001
0010
1100
0010
0001
1100
0001
0010
1100
,
0011
1000
0100
0011
0100
1000
0011
1000
0100
0011
0100
1000
0011
1000
0100
0011
,
1100
0001
0010
0100
1010
1000
0100
0010
0101
0001
0010
0100
1010
1000
0100
0010
,
0110
0001
0010
0100
1010
1000
0100
0010
0101
0001
0010
0100
1010
1000
0100
0010
,
0110
0001
0010
0100
1010
1000
0100
0010
0101
0001
0010
0100
1010
1000
0100
0010
,
0110
0000
0000
0000
0000
0000
0000
0000
1001
0000
0000
0000
0000
0000
0000
0000
0001
1000
0001
1000
0001
1000
0001
1000
0001
1000
0001
1000
0001
1000
0001
0000
,
0110
0000
0100
0110
0000
0010
0110
0000
0100
0110
0000
0010
0110
0000
0000
0110
,
1001
0000
0001
1001
0000
1000
1001
0000
0001
1001
0000
1000
1001
0000
0000
1001
,
0110
0000
0100
0110
0000
0010
0110
0000
0100
0110
0000
0010
0110
0000
0000
0110
,
1001
0000
1100
0011
0000
1100
0011
0000
1100
0011
0000
1100
0011
0000
1100
0011
,
1000
0100
0010
0001
1100
0000
1000
1000
0100
0010
0001
0010
1100
0000
0001
0010
,
1000
0001
1000
0001
1000
0001
1000
0001
,
0001
0010
0100
1000
0011
0000
0001
0001
0010
0100
1000
0100
0011
0000
1000
0100
,
0001
1000
0001
1000
0001
1000
0001
1000
,
1000
0010
1000
0001
1100
0000
1000
1000
0100
0010
0001
0010
1100
0000
0001
0001
,
0010
0100
1000
0100
0011
0000
1000
1000
0100
0010
0001
0010
1100
0000
0001
0001
,
0010
0100
1000
0100
0011
0000
0010
0010
0100
0010
1000
0100
0011
0000
1000
0100
,
0001
0000
0000
0000
1000
0000
0000
0000
0001
0000
0000
0000
1000
0000
0000
0000
0001
1000
0001
1000
0001
1000
0001
1000
0001
1000
0001
1000
0001
1000
0001
0000
,
1100
0001
0010
1100
0010
0001
1100
0001
0010
1100
0010
0001
1100
0001
0010
1100
,
0001
1000
0100
0011
0100
1000
0011
1000
0100
0011
0100
1000
0011
1000
0100
0011
,
1000
0001
0010
1100
0010
0001
1100
0001
0010
1100
0010
0001
1100
0001
0010
0100
,
1001
0000
1001
0110
0000
0110
1001
0000
1001
0110
0000
0110
1001
0000
0000
0001
,
1000
0011
0011
1000
0011
0011
1000
0011
0011
1000
0011
0011
1000
0011
0011
1000
,
0001
1100
1100
0001
1100
1100
0001
1100
1100
0001
1100
1100
0001
1100
1100
0001
,
0010
0101
0101
0010
0101
0101
0010
0101
0101
0010
0101
0101
0010
0101
0101
0010
,
0100
1010
1010
0100
1010
1010
0100
1010
1010
0100
1010
1010
0100
1010
0001
0100
,
0011
0100
1000
0011
0100
1000
0011
0100
1000
0011
0100
1000
0011
0100
1000
0010
,
1100
0010
0001
1100
0010
0001
1100
0010
0001
1100
0010
0001
1100
0010
0001
1000
,
0110
0001
1000
0110
0001
1000
0110
0001
1000
0110
0001
1000
0110
0001
1000
0001
,
1000
0000
0001
0000
1000
0000
0001
0000
1000
0000
0001
0000
1000
0000
0001
0000
1000
0001
1000
0001
1000
0001
1000
0001
1000
0001
1000
0001
1000
0001
1000
0000
,
2002
0000
3003
0000
;
