#TITLE:Inferno;
#SUBTITLE:The Odyssey (2002);
#ARTIST:Symphony X;
#TITLETRANSLIT:Inferno;
#SUBTITLETRANSLIT:The Odyssey (2002);
#ARTISTTRANSLIT:Symphony X;
#CREDIT:John Bernhard;
#BANNER:SymphonyX-bn.png;
#BACKGROUND:SymphonyX-bg.png;
#LYRICSPATH:;
#CDTITLE:!john-cdtitle.png;
#MUSIC:Symphony X - Inferno.mp3;
#OFFSET:-0.460;
#SAMPLESTART:56.552;
#SAMPLELENGTH:18.320;
#SELECTABLE:YES;
#BPMS:0.000=152.000;
#STOPS:;
#BGCHANGES:;
// cache tags:
#FIRSTBEAT:0.000;
#LASTBEAT:772.000;
#SONGFILENAME:Songs/Astronomic Metal Collection/Inferno (John11)/Inferno.sm;
#HASMUSIC:1;
#HASBANNER:1;
#MUSICLENGTH:332.193;
// end cache tags

//---------------dance-single - ----------------
#NOTES:
     dance-single:
     :
     Challenge:
     13:
     1.000,1.000,1.000,0.337,1.000,2215.000,374.000,112.000,0.000,74.000:
1000
0100
0010
0001
0010
0010
0010
0010
1000
0001
0100
0010
1000
0001
0100
0010
,
1000
0100
0010
0001
0010
0010
0010
0010
1000
0001
0100
0010
1000
0001
0100
0010
,
1000
0001
0100
0010
1000
0010
1000
0010
1000
0001
1000
0010
0100
0010
0001
1000
,
0010
0100
1000
0010
1000
0010
1000
0001
1000
0010
1000
0010
1000
0010
0001
0010
,
1000
0100
0010
0001
0010
0010
0010
0010
1000
0001
0100
0010
1000
0001
0100
0010
,
1000
0100
0010
0001
0010
0010
0010
0010
1000
0001
0100
0010
1000
0100
0010
0001
,
0100
0010
1000
0100
1000
0010
0100
0001
0010
0100
1000
0001
0010
0001
0010
0100
,
1000
0001
1000
0001
0010
0100
1000
0001
1000
0001
1000
0100
0010
0001
1000
0100
,
0010
0100
1000
0001
0010
0010
0010
0010
1000
0001
0010
0100
0010
0100
1000
0001
,
1000
0001
0010
0100
1000
0001
1000
0001
0010
0010
0010
0010
0001
0010
0100
1000
,
0001
0010
0001
0010
0100
0010
0100
0100
0100
0100
0010
1000
0010
1000
0001
0010
,
0100
1000
0001
1000
0100
0010
0100
0010
0001
1000
0100
0100
0100
0100
0001
0010
,
0100
1000
0001
0010
0001
0010
0100
1000
0001
0010
0001
0010
0100
0001
0010
0010
,
0010
0010
0001
0010
0100
0001
1000
0001
0010
0100
0010
0001
1000
0100
1000
0100
,
0010
0001
0010
0010
0010
0010
0001
0010
0100
0001
0010
0100
0010
0100
1000
0010
,
0100
0100
0100
0100
0010
1000
0100
0010
0001
0100
0010
1000
0100
1000
0001
0010
,
0100
1000
0001
0100
1000
1000
1000
1000
0001
0010
0100
1000
0001
0010
0100
1000
,
0001
0010
0100
1000
0001
0010
0100
1000
0001
0010
0100
1000
0001
0010
0100
1000
,
0001
0000
0000
0000
1001
1001
1001
1001
1001
0000
0000
0000
1000
0001
0010
0100
,
0010
0100
1000
0001
0010
0100
0011
0100
1000
0001
0110
1000
0001
0010
1100
0001
,
0010
0000
0000
0100
0000
0000
0010
0000
0000
0100
0000
0000
1000
0000
0000
0100
0000
0000
0010
0000
0000
0100
0000
0000
1000
0000
0000
0100
0000
0000
0010
0000
0000
0100
0000
0000
0011
0000
0000
0000
0101
0000
0000
0000
0110
0000
0000
0000
,
1010
0000
0000
0000
1100
0000
0000
0000
1001
0000
0000
0000
0110
0000
0000
0110
0000
0000
0110
0000
0000
0110
0000
0000
0110
0000
0000
0001
0000
0000
0010
0000
0000
0100
0000
0000
1000
0000
0000
0100
0000
0000
1000
0000
0000
0001
0000
0000
,
0010
0001
1000
0100
0010
0001
1010
0100
1000
0010
0101
0010
0001
0010
1100
0001
,
0010
0000
0100
0000
1000
0000
0010
0000
0101
0000
0000
0000
0000
0000
0010
0000
0000
0000
0000
0100
0000
0000
0000
0000
0010
0000
0000
0000
0010
0000
0100
0000
,
1000
0001
0010
0100
0011
0011
0011
0011
0011
0100
0010
0001
0010
0100
0011
0011
,
0011
0100
1000
0010
0100
1000
0011
0100
1000
0100
1001
0100
0010
0001
0110
0001
,
0010
0000
0000
0100
0000
0000
0010
0000
0000
0100
0000
0010
1000
0000
0000
0001
0000
0000
0010
0000
0000
0100
0000
0000
1000
0000
0000
0010
0000
1000
0100
0000
0000
0001
0000
0000
0010
0000
0000
0100
0000
0000
1000
0000
0000
0010
0000
0000
,
1000
0000
0000
0010
0000
0000
0100
0000
0000
1000
0000
0000
1001
0000
0000
1001
0000
0000
1001
0000
0000
1001
0000
0000
1001
0000
0000
0000
0000
0000
1010
0000
0000
1010
0000
0000
1010
0000
0000
0000
0000
0000
0000
0000
0000
0000
1000
0000
,
0101
0000
0101
1010
0000
0100
1000
0000
0000
0000
1001
0000
0000
0000
1010
0000
0000
0000
0110
0000
0000
0000
1100
0000
,
0000
0000
0000
0000
0000
0000
0000
0000
0000
0000
0000
0000
0000
0000
0000
0000
0101
0000
0000
0000
0000
0000
0000
0000
0000
0000
0000
0000
0000
0000
0000
0000
0000
0000
0000
0000
0000
0000
0000
0000
0000
0000
0000
0000
0000
0000
0000
0000
0012
0000
0000
0000
0000
0000
0000
0000
0000
0000
0000
0000
0000
0000
0000
0000
0000
0000
0000
0000
0000
0000
0000
0000
0000
0000
0000
0000
0000
0000
0000
0000
0000
0000
0000
0000
0000
0000
0000
0000
0000
0000
0000
0000
0000
0000
0000
0000
0000
0000
0000
0000
0000
0000
0000
0000
0000
0000
0000
0000
0000
0000
0000
0000
0000
0000
1010
0000
0000
0000
0000
0000
1010
0000
0000
0000
0000
0000
0000
0000
0000
0000
0000
0000
0000
0000
0000
0000
0000
0000
0000
0000
0000
0000
0000
0000
0000
0000
0000
0000
0000
0000
0000
0000
0000
0000
0000
0000
0000
0000
0000
0000
0000
0000
0000
0000
0000
0000
0000
0000
0000
0000
0000
0000
0000
0000
0000
0000
0000
0000
0000
0000
0000
0000
0000
0000
0000
0000
0000
0000
0000
0000
0000
0000
,
0100
0000
0000
0000
1010
0000
0000
0100
0000
0000
0100
0000
0100
0000
0000
0000
,
0103
0100
0100
0100
1010
0000
0020
0230
0320
0230
1300
0000
0000
0000
0001
0100
,
0001
0100
0001
0100
1000
0000
0020
0230
0320
0230
1300
0000
0000
0000
0101
1010
,
0101
0000
0101
1010
0101
0000
0020
0230
0321
0230
1300
0000
0000
0000
0010
0100
,
0011
0100
0001
0100
1000
0000
0020
0230
0321
0230
1300
0000
0000
0000
0010
0100
,
0011
0000
0010
0100
0010
0000
0020
0230
0321
0230
1300
0000
0000
0000
0010
0100
,
0011
0100
0001
0100
1000
0000
0020
0230
0321
0230
1300
0000
0000
0000
0010
0100
,
0011
0000
0010
0100
0010
0000
0020
0230
0321
0230
1300
0000
0000
0000
0010
0100
,
0011
0100
0001
0100
1000
0000
0020
0230
0321
0230
1300
0000
0000
0000
1001
0110
,
1001
0000
1001
0110
1001
0000
1200
0000
0000
0000
0311
0000
0000
0000
1001
0010
,
0100
1000
0011
0100
0010
0000
2100
0000
0000
0000
3110
0000
0000
0000
0001
0100
,
0001
0000
0001
0100
1001
0000
0102
0000
0000
0000
0113
0000
0000
0000
1001
0010
,
0100
0001
1010
0100
1000
0000
0201
0000
0011
0000
0300
0000
0000
0000
0001
1000
,
0001
0000
0101
1000
0011
0000
0020
0000
1100
0000
0030
0000
1001
0000
0110
1000
,
0101
0010
0100
1000
0100
0000
0021
0000
1001
0000
0030
0000
0101
0000
0100
0001
,
1100
0000
0100
0001
0110
0000
0020
0000
1100
0000
1031
0000
0000
0000
1001
0010
,
0101
0010
0100
0010
0001
0000
0002
0000
0000
0000
0003
0000
0000
0000
0010
0100
,
0010
0000
0010
0100
0010
0000
1002
0000
0000
0000
1013
0000
0110
0000
0010
0100
,
1010
0001
1010
0100
1000
0000
0021
0000
0101
0000
0030
0000
0000
0000
1000
0010
,
1000
0000
1000
0010
1000
0000
0210
0000
0000
0000
1310
0000
1100
0000
0010
0100
,
1001
0100
0011
0100
1000
0000
0021
0000
1100
0000
0030
0000
0000
0000
0001
0100
,
0001
0000
0011
0100
1001
0000
0020
0000
1100
0000
0131
0000
0000
0000
1100
0010
,
0101
0010
0100
0001
0010
0000
1020
0000
1100
0000
0030
0000
0000
0000
0101
0010
,
0100
1001
0100
0010
1100
0000
0002
0000
0110
0000
0113
0000
0000
0000
1100
0010
,
1100
0010
0100
0001
0010
0000
2000
0000
0000
0000
3000
0000
0000
0000
0010
1000
,
0010
0000
0010
1000
0010
0000
0001
0000
0001
0000
1001
0000
0001
0000
0001
0000
,
0011
0100
0001
0100
1010
0000
0101
0000
0010
0100
0001
0100
0010
0000
0001
0000
,
0000
0010
0000
0100
0000
1000
0011
0010
,
0110
0000
0010
0000
0010
0000
0101
0000
0010
0000
0010
0000
1001
0010
0100
1000
,
0001
0000
0001
0010
0100
1000
0001
0000
0000
0000
1000
0000
0000
0000
0100
0000
,
0000
0000
0010
0000
0011
0000
0001
0000
1000
0000
0010
0000
0011
0100
0001
0010
,
0101
0100
0100
0100
0001
0010
0100
0010
0001
0010
0100
1000
0001
0010
0100
0010
,
0001
0100
0010
0100
0010
0010
0010
0010
1000
0100
0010
0001
0010
0001
0010
0001
,
0010
0100
1000
1000
1000
1000
0001
0010
0100
1000
0001
0010
0100
1000
0001
0010
,
0100
1000
0001
0010
0100
0010
0100
0100
0100
0100
1000
0100
0010
0001
1000
0100
,
0010
0100
1000
0100
0010
0100
1000
0100
1000
0100
0010
0010
0010
0010
0001
0100
,
0001
0100
0010
1000
0100
0010
0001
1000
0100
0010
0001
1000
0010
0100
0001
0001
,
0001
0001
0100
0001
1000
0001
0100
0001
1000
0010
0100
0001
0010
0010
0010
0010
,
0001
0010
0100
0010
0001
0010
0100
1000
0001
0010
0100
0010
0100
1000
0001
0010
,
0100
0100
0100
0100
0010
0001
1000
0010
0100
0001
1000
0001
0010
0100
1000
0100
,
1001
1001
1001
1001
1001
0010
0100
0001
1000
0010
1100
1100
1100
0000
0000
0000
,
1001
0000
1001
0010
1100
1100
0000
1001
,
0010
0000
1100
0000
1000
0001
0010
0100
1001
0000
0100
0000
1100
0000
0010
0000
,
1001
0010
0001
1001
0000
0100
0001
0000
,
1001
0000
0100
0000
0000
0000
0001
0000
0000
0100
1001
0000
0010
0000
0000
0000
,
0010
0000
0000
0000
0000
0000
0000
0000
0000
0000
0000
0000
0000
0000
0000
0000
0000
0000
0000
0000
0000
0000
0000
0000
0001
0000
0000
0000
0000
0000
0000
0000
0000
0000
0000
0000
0010
0000
0000
0000
0000
0000
0000
0000
0000
0000
0000
0000
0001
0000
0000
0000
0000
0000
0000
0000
0000
0000
0000
0000
0010
0000
0000
0000
0000
0000
0000
0000
0000
0000
0000
0000
0001
0000
0000
0000
0000
0000
0000
0000
0000
0010
0000
0000
0000
0000
0000
0000
0000
0000
0001
0000
0000
0000
0000
0000
0000
0000
0000
0000
0000
0000
0010
0000
0000
0000
0000
0000
0000
0000
0000
0000
0001
0000
0000
0000
0000
0000
0000
0000
0000
0000
0000
0000
0000
0000
0000
0000
0000
0000
0000
0000
0000
0000
0000
0000
0000
0000
0000
0000
0000
0000
0000
0000
0000
0000
0000
0100
0000
0000
0000
0000
0000
0000
0000
0000
0000
0000
0000
0000
0000
0000
0000
0000
0000
0000
0000
0000
0000
0000
0000
0000
0000
0000
0000
0000
0000
0000
0000
0000
0000
0000
0000
0100
0000
0000
0000
0000
0000
0000
0000
0000
,
0000
0000
0000
0010
0000
0000
0000
0000
0000
0000
0000
0000
0000
0000
0000
1000
0000
0000
0000
0000
0000
0100
0000
0000
0000
0000
0000
0000
0000
0000
0010
0000
0000
0000
0000
0000
0000
0000
0000
0001
0000
0000
0000
0000
0000
0000
0000
0000
0010
0000
0000
0000
0100
0000
1000
0000
0001
0000
0000
0000
0000
0000
0000
0010
0000
0000
0000
0000
0000
0000
0000
0000
0100
0000
0000
0000
0000
0000
0000
0000
0000
0010
0000
0000
0000
0000
0000
0001
0000
0000
0000
0000
0000
0000
0000
0000
1000
0000
0000
0000
0000
0000
0100
0000
0000
0000
0000
0000
0010
0000
0000
0000
0000
0000
0000
0000
0000
0001
0000
0000
0000
0000
0000
0100
0000
0000
0000
0000
0000
0000
0000
0000
0010
0000
0000
0000
0000
0000
1000
0000
0000
0000
0000
0000
0100
0000
0000
0000
0000
0000
0000
0000
0000
0010
0000
0000
0000
0000
0000
0000
0001
0000
0000
0000
0000
0000
0000
0000
1000
0000
0000
0000
0000
0000
0000
0000
0001
0000
0000
0000
0000
0000
0000
0000
1000
0000
0000
0000
0000
0000
0000
0000
,
0001
0010
0100
0010
0001
0010
0100
1000
0010
0100
0001
0010
0001
1000
0100
0010
0001
0010
2002
0000
0000
0000
0000
0000
,
0000
0000
0000
0000
3003
0020
0000
0000
,
0000
0000
0000
0000
,
1030
0100
0010
0001
1001
0000
2010
0000
0000
0000
3101
0000
0000
0000
0110
0001
,
1000
0010
0101
1000
0001
0000
1020
0000
1001
0000
0030
0000
0000
0000
0100
1000
,
0100
0000
0100
1000
0110
0000
0200
0000
1001
0000
1301
0000
0000
0000
0110
0001
,
1000
0100
0011
1000
0010
0000
2100
0000
0101
0000
3000
0000
0000
0000
0100
0010
,
0100
0000
1100
0010
0101
0000
0002
0000
1010
0000
0113
0000
0000
0000
1001
0010
,
1100
0001
1000
0010
1000
0000
0102
0000
0110
0000
0003
0000
1100
0000
1000
0100
,
1000
0000
1000
0100
1001
0000
0002
0000
1010
0000
0113
0000
0000
0000
0110
0001
,
1100
0001
1000
0001
0100
0000
0200
0000
0000
0000
0300
0000
0000
0000
0001
1000
,
0001
0000
0001
1000
0001
0000
0210
0000
0000
0000
0311
0000
1001
0000
0001
1000
,
0011
0100
0011
1000
0010
0000
0102
0000
1100
0000
0003
0000
0000
0000
0010
0001
,
0010
0000
0010
0001
0010
0000
2001
0000
0000
0000
3011
0000
1010
0000
0001
1000
,
0110
1000
0101
1000
0010
0000
0102
0000
1010
0000
0003
0000
0000
0000
0100
1000
,
0100
0000
0101
1000
0110
0000
0002
0000
1010
0000
1103
0000
0000
0000
1010
0001
,
1100
0001
1000
0100
0001
0000
0012
0000
1010
0000
0003
0000
0000
0000
1000
0001
,
1000
0000
1000
0001
1010
0000
0200
0000
1001
0000
1301
0000
0000
0000
1010
0001
,
1010
0001
1000
0100
0001
0000
0020
0100
1000
0100
1030
0100
1000
0100
0001
0010
,
0001
0000
0001
0010
0001
0000
0100
0000
0100
0000
0110
0000
0100
0000
0100
0000
,
0101
1000
0100
1000
0011
0000
1100
0000
0001
1000
0100
1000
0001
0000
0100
0000
,
0000
0001
0000
1000
0000
0010
0101
0001
,
1001
0000
0001
0000
0001
0000
1100
0000
0001
0000
0001
0000
0110
0001
1000
0010
,
0100
0000
0100
0001
1000
0010
0100
0000
0000
0000
0010
0000
0000
0000
1000
0000
,
0000
0000
0001
0000
0000
0000
0100
0000
0000
0000
0001
0000
0000
0000
0100
1000
,
0011
0000
0101
1000
0100
0011
0100
0001
1010
0000
0001
0010
0100
0000
0010
0100
,
1000
0000
0010
0001
0100
0000
0010
0001
0010
0000
0100
0010
1001
0000
0010
0100
,
1010
0000
1010
0100
1000
0000
0011
0100
0010
0000
1001
0010
0100
0000
0100
0010
,
1001
0000
0110
0001
0010
0000
1001
0100
1000
0000
0010
0100
0001
0000
0010
0100
,
1010
0000
1001
0010
0100
1010
0100
1000
0011
0000
0110
0001
1010
0000
0010
0100
,
1000
0000
0010
0001
0100
0000
1000
0010
1001
0000
0001
0100
1010
0000
0001
0010
,
0100
0000
1001
0010
0100
0000
0010
1000
0101
0000
0000
0000
0001
0010
0100
1000
,
0100
1000
0001
0010
0001
0010
0100
1000
0100
1000
0001
0010
0100
0000
0010
1000
,
0110
0000
0110
1000
0100
0011
0100
0010
1001
0000
0010
0001
0010
0000
0100
1000
,
0100
0000
0010
0100
1000
0000
0001
0010
0100
0000
0101
1000
0011
0000
0001
0100
,
1010
0000
0101
0010
0100
0000
1010
0001
0010
0000
1100
0010
0100
0000
0001
1000
,
0110
0000
1010
0100
0010
0000
1001
0010
0100
0000
0001
1000
0001
0000
0010
0100
,
1010
0000
0011
1000
0100
0011
0100
0001
1010
0000
0001
0100
1010
0000
0101
0010
,
0100
0000
0010
1000
0010
0000
0001
0010
0100
0000
1000
0001
0110
0000
0001
0010
,
1100
0000
1001
0100
0001
0000
0010
0100
0011
0000
0001
0100
1010
0000
0001
0100
,
0010
1000
0000
0000
0101
0000
0000
0000
0100
0010
0100
0010
0101
1000
0100
0001
,
1000
1000
1000
1000
0100
0001
1000
0001
0100
0001
1000
0010
0100
0001
1000
0001
,
0100
1000
0001
1000
0001
0001
0001
0001
0010
1000
0001
0100
0001
0100
0001
0100
,
0001
1000
0010
0010
0010
0010
0100
0001
1000
0010
0100
0001
1000
0010
0100
0001
,
1000
0010
0100
0001
1000
0001
1000
1000
1000
1000
0010
1000
0001
0100
0010
1000
,
0001
1000
0010
1000
0001
1000
0010
1000
0010
1000
0001
0001
0001
0001
0100
1000
,
0100
1000
0001
0010
1000
0001
0100
0010
1000
0001
0100
0010
0001
1000
0100
0100
,
0100
0100
1000
0100
0010
0100
1000
0100
0010
0001
1000
0100
0001
0001
0001
0001
,
0100
0001
1000
0001
0100
0001
1000
0010
0100
0001
1000
0001
1000
0010
0100
0001
,
1000
1000
1000
1000
0001
0100
0010
1000
0100
0010
0001
0010
0001
0010
0100
1000
,
0001
0010
0001
0100
0001
0100
0010
0100
0010
0001
0010
0100
1000
0000
0000
0000
,
1001
0000
0000
0001
0010
0100
1000
0000
0000
1000
0000
0000
1001
0000
0000
0010
0000
0000
0120
0000
0000
0000
0000
0000
,
2130
0000
0000
3021
,
0000
1000
0000
0000
0132
0000
0000
0123
,
0000
0000
0231
0000
0000
1320
0000
0100
,
2031
0000
0000
0000
3120
0231
1302
0000
,
0000
2013
0000
0000
3120
0000
0000
0231
,
0000
0000
0000
0000
1302
0010
0000
1000
0100
0000
0100
0000
0100
0000
0100
0000
,
0213
0000
0000
0321
,
0000
1000
0000
0000
1230
0000
0000
2301
,
0000
0000
3012
0000
0000
0213
0001
0001
,
2310
0000
0000
0000
3021
2130
3012
0000
,
0000
0000
1203
0000
0010
0000
0010
1000
0312
0000
0000
0000
0000
0000
0000
0000
,
0000
0000
1023
0000
0000
0000
0000
2130
,
0000
3120
0000
0000
0000
0000
0030
0000
0000
0000
0000
0000
1000
0000
0100
0000
0010
0000
0001
0000
1000
0000
0100
0000
0010
0000
0001
0000
1000
0000
0100
0000
0010
0000
0001
0000
1000
0000
0100
0000
0010
0000
0001
0000
1000
0000
0100
0000
,
0020
0000
0000
0000
0000
0000
1000
0000
0000
0100
0000
0000
0001
0000
0000
0100
0000
0000
1000
0000
0000
0100
0000
0000
0031
0000
0010
0000
0100
0000
1000
0000
0100
0000
0010
0000
0100
0000
1000
0000
0100
0000
0010
0000
0001
0000
1000
0000
,
0001
0000
0000
0000
0000
0000
0000
0000
0000
0010
0000
0000
0000
0000
0000
0000
0000
0000
0100
0000
0000
0000
0000
0000
0000
0000
0000
1000
0000
0000
0000
0000
0000
0000
0000
0000
0001
0000
0000
0000
0000
0000
0000
0000
0000
0010
0000
0000
0000
0000
0000
0000
0000
0000
0100
0000
0000
0000
0000
0000
0000
0000
0000
0010
0000
0000
0000
0000
0000
0000
0000
0000
0001
0000
0000
0000
0000
0000
0000
0000
0000
0010
0000
0000
0000
0000
0000
0000
0000
0000
0000
0000
0100
0000
0000
0000
0000
0000
0000
0000
1000
0000
0000
0000
0000
0000
0000
0000
0100
0000
0000
0000
0000
0000
0000
0000
0000
0000
0000
0000
0010
0000
0000
0000
0000
0000
0001
0000
0000
0000
0000
0000
1000
0000
0000
0000
0000
0000
0000
0000
0000
0100
0000
0000
0000
0000
0000
0000
0000
0000
0010
0000
0000
0000
0000
0000
0000
0000
0000
0001
0000
0000
0000
0000
0000
0000
0000
0000
0100
0000
0000
0000
0000
0000
0010
0000
0000
0000
0000
0000
0000
0000
0000
0000
1000
0000
0000
0000
0000
0000
0000
0000
,
0100
0000
0000
0000
0000
0000
0000
0000
0010
0000
0000
0000
0001
0000
0000
0000
0000
0000
0000
0000
0000
0010
0000
0000
0000
0000
0000
0000
0000
0000
0100
0000
0000
0000
0000
0000
0000
0000
0000
1000
0000
0000
0000
0000
0000
0001
0000
0000
0000
0000
0000
0000
0000
0000
0010
0000
0000
0000
0000
0000
0000
0000
0000
0100
0000
0000
0000
0000
0000
0000
0000
0000
1000
0000
0000
0000
0000
0000
0000
0000
0000
0010
0000
0000
0100
0000
0000
0000
0001
0000
0000
0000
0010
0000
0000
0000
0100
0000
0000
0000
0000
0000
0000
0000
1000
0000
0000
0000
0000
0000
0000
0100
0000
0000
0000
0000
0000
0000
0000
0000
1000
0000
0000
0000
0000
0000
0100
0000
0000
0000
0000
0000
0000
0000
0000
0010
0000
0000
0000
0000
0000
0000
0000
0000
0100
0000
0000
0000
0000
0000
0000
0000
0000
1000
0000
0000
0000
0000
0000
0000
0001
0000
0000
0000
0000
0000
0000
0000
0010
0000
0000
0000
0000
0000
0000
0000
0000
0000
0000
0000
0100
0000
0000
0000
0000
0000
0000
0000
0000
0000
0000
0000
,
1000
0000
0000
0000
0000
0000
0000
0000
0000
0000
0000
0000
0100
0000
0000
0000
0000
0000
0010
0000
0000
0000
0000
0000
0000
0000
0000
0001
0000
0000
0000
0000
0000
1000
0000
0000
0000
0000
0000
0001
0000
0000
0000
0000
0000
0000
0000
0000
0010
0000
0000
0000
0000
0000
0000
0000
0000
0100
0000
0000
0000
0000
0000
0000
0000
0000
1000
0000
0000
0000
0000
0000
0000
0000
0000
0000
0000
0000
0000
0000
0000
0000
0000
0000
0001
0000
0000
0000
0000
0000
0000
0000
0000
0000
0000
0000
0010
0000
0000
0000
0000
0000
0000
0000
0000
0000
0000
0000
0100
0000
0000
0000
0000
0000
0000
0000
0000
0000
0000
0000
1000
0000
0000
0000
0000
0000
0000
0000
0100
0000
0000
0000
0000
0000
0000
0000
0001
0000
0000
0000
0000
0000
0000
0000
0000
0000
0000
0000
0010
0000
0000
0000
0000
0000
0000
0000
0000
0000
0000
0000
0100
0000
0000
0000
0000
0000
0000
0000
0000
0000
0000
0000
1000
0000
0000
0000
0000
0000
0000
0000
0100
0000
0000
0000
0000
0000
0000
0000
0001
0000
0000
0000
,
0000
0000
0010
0000
0000
0100
0000
0000
1000
0000
0100
0000
0002
0000
0000
0000
0000
0000
0000
0000
0000
0000
0000
0000
0000
0000
0000
0000
0000
0000
0003
0000
0000
0000
0000
0000
0000
0000
0000
0000
0000
0000
0020
0000
0000
0000
0000
0000
,
0000
0000
0000
0031
1000
0200
0000
0000
0000
0000
0000
0000
,
0000
2300
3020
0000
,
0000
0000
0000
0000
0000
0000
0000
0000
0000
0000
0000
0000
0130
0000
0000
1000
0000
0000
0001
0000
0010
0000
0000
0000
0200
0000
0000
0000
0000
0000
0000
0000
0000
0000
0000
0000
0310
0000
0000
1000
0000
0000
0001
0000
0010
0000
0000
0000
,
0200
0320
0230
0320
1030
0000
0010
0100
,
0000
0010
0000
0001
0000
0100
0000
0010
,
0000
0000
1000
0100
0010
0001
0010
0100
1000
0001
0010
0001
1000
0001
0010
0100
,
0010
0100
1000
0001
0010
0001
0010
0100
1000
0100
1000
0001
0010
0001
0010
0100
,
1000
0100
0011
0011
0011
1000
0011
0011
0011
0000
0001
0000
0010
0000
0100
0000
,
1000
0100
0010
0100
0010
0001
1000
0100
,
0000
0000
1000
0000
0010
0100
0010
0001
0010
0000
0010
0000
0100
1000
0001
0000
,
0000
0001
0010
0100
0010
0100
1000
0100
1010
0001
0010
0001
1000
0100
0010
0001
,
1010
0100
1000
0100
0010
0001
1000
0100
1020
0000
0000
0000
0000
0000
0000
0000
,
0000
0000
0000
0000
0000
0000
0000
0000
0000
0000
0000
0000
0000
0000
0000
0000
0000
0000
0000
0000
0000
0000
0000
0000
0000
0000
0000
0000
0000
0000
0000
0000
0000
0000
0000
0000
0000
0000
0000
0000
0000
0000
0000
0000
0000
0000
0000
0000
0000
0000
0000
0000
0000
0000
0000
0000
0000
0000
0000
0000
0000
0000
0000
0000
0000
0000
0000
0000
0000
0000
0000
0000
0130
0000
0000
0000
0000
0000
0000
0000
0000
0000
0000
0000
0000
0000
0000
1000
0000
0000
0000
0000
0000
0000
0000
0000
0000
0000
0000
0000
0000
0000
0000
0000
0000
0000
0000
0000
0001
0000
0000
0000
0000
0000
0000
0000
1010
0000
0000
0000
0000
0000
0000
0000
0000
0000
0000
0000
0110
0000
0000
0000
0000
0000
0000
0000
0000
0000
0000
0000
0000
0000
0000
0000
1100
0000
0000
0000
0000
0000
0000
0000
0000
0000
0000
0000
0000
0000
0000
0000
1001
0000
0000
0000
0000
0000
0000
0000
0000
0000
0000
0000
0000
0000
0000
0000
0101
0000
0000
0000
0000
0000
0000
0000
0000
0000
0000
0000
0000
0000
0000
0000
,
0100
0000
0000
0000
0010
0000
0000
0000
0101
0000
0000
0000
1000
0000
0000
0000
0010
0000
0000
0000
0100
0000
0000
0000
0001
0000
0000
0000
0000
0000
0000
0000
0000
0000
0000
0000
0011
0000
0000
0000
0000
0000
0101
0000
0000
1000
0000
0000
,
0100
0011
0100
0001
1010
0000
0001
0010
0100
0000
0010
0100
1000
0000
0010
0001
,
0100
0000
0010
0001
0010
0000
0100
0010
1001
0000
0010
0100
1010
0000
1010
0100
,
1000
0000
0011
0100
0010
0000
1001
0010
0100
0000
0100
0010
1001
0000
0110
0001
,
0010
0000
1001
0100
1000
0000
0010
0100
0001
0000
0010
0100
1010
0000
1001
0010
,
0100
1010
0100
1000
0011
0000
0110
0001
1010
0000
0010
0100
1000
0000
0010
0001
,
0100
0000
1000
0010
1001
0000
0001
0100
1010
0000
0001
0010
0100
0000
1001
0010
,
0100
0000
0010
1000
0101
0000
0000
0000
0001
0010
0100
1000
0100
1000
0001
0010
,
0001
0010
0100
1000
0100
1000
0001
0010
0100
0000
0010
1000
0110
0000
0110
1000
,
0100
0011
0100
0010
1001
0000
0010
0001
0010
0000
0100
1000
0100
0000
0010
0100
,
1000
0000
0001
0010
0100
0000
0101
1000
0011
0000
0001
0100
1010
0000
0101
0010
,
0100
0000
1010
0001
0010
0000
1100
0010
0100
0000
0001
1000
0110
0000
1010
0100
,
0010
0000
1001
0010
0100
0000
0001
1000
0001
0000
0010
0100
1010
0000
0011
1000
,
0100
0011
0100
0001
1010
0000
0001
0100
1010
0000
0101
0010
0100
0000
0010
1000
,
0010
0000
0001
0010
0100
0000
1000
0001
0110
0000
0001
0010
1100
0000
1001
0100
,
0001
0000
0010
0100
0011
0000
0001
0100
1010
0000
0001
0100
0010
1000
0000
0000
,
0101
0000
0000
0000
0100
0010
0100
0010
0101
1000
0100
0001
1000
1000
1000
1000
,
0100
0001
1000
0001
0100
0001
1000
0010
0100
0001
1000
0001
0100
1000
0001
1000
,
0001
0001
0001
0001
0010
1000
0001
0100
0001
0100
0001
0100
0001
1000
0010
0010
,
0010
0010
0100
0001
1000
0010
0100
0001
1000
0010
0100
0001
1000
0010
0100
0001
,
1000
0001
1000
1000
1000
1000
0010
1000
0001
0100
0010
1000
0001
1000
0010
1000
,
0001
1000
0010
1000
0010
1000
0001
0001
0001
0001
0100
1000
0100
1000
0001
0010
,
1000
0001
0100
0010
1000
0001
0100
0010
0001
1000
0100
0100
0100
0100
1000
0100
,
0010
0100
1000
0100
0010
0001
1000
0100
0001
0001
0001
0001
0100
0001
1000
0001
,
0100
0001
1000
0010
0100
0001
1000
0001
1000
0010
0100
0001
1000
1000
1000
1000
,
0001
0010
0100
1000
0001
0010
0001
0010
0100
1000
0001
0010
0001
0010
0100
1000
,
0001
0010
0100
1000
0010
0100
0001
1000
0010
0100
0001
0010
0100
1000
0001
0010
,
0100
1000
0010
0100
0001
1000
0010
0100
0001
0010
0100
1000
0001
0010
0100
1000
,
0001
0010
0100
1000
0001
0010
0100
1000
0001
0010
0100
1000
0001
0010
0100
1000
,
2002
0000
0000
0000
,
0000
0000
0000
0000
,
0000
0000
0000
0000
,
0000
0000
0000
0000
,
3003
0000
0000
0000
;
