#TITLE:The Decisive Battle;
#SUBTITLE:Final Fantasy VI;
#ARTIST:AKHT;
#TITLETRANSLIT:;
#SUBTITLETRANSLIT:;
#ARTISTTRANSLIT:;
#CREDIT:;
#BANNER:The Decisive Battle.png;
#BACKGROUND:The Decisive Battle-bg.png;
#LYRICSPATH:;
#CDTITLE:!torajirou.png;
#MUSIC:The Decisive Battle.mp3;
#OFFSET:-1.216;
#SAMPLESTART:39.000;
#SAMPLELENGTH:12.000;
#SELECTABLE:YES;
#BPMS:0.000=117.000;
#STOPS:;
#BGCHANGES:;
// cache tags:
#FIRSTBEAT:0.000;
#LASTBEAT:170.250;
#SONGFILENAME:Songs/VGMP 2/The Decisive Battle (T0rajirou)/The Decisive Battle.sm;
#HASMUSIC:1;
#HASBANNER:1;
#MUSICLENGTH:91.057;
// end cache tags

//---------------dance-single - ----------------
#NOTES:
     dance-single:
     :
     Hard:
     12:
     1.000,1.000,1.000,1.000,1.000,499.000,214.000,157.000,0.000,36.000:

1010
0000
0000
0000
0000
0000
0000
0000
0000
0000
0000
0000
0000
0000
0000
0000
0000
0000
0000
0000
0000
0000
0000
0000
0000
0000
0000
0000
0000
0000
0000
0000
0000
0000
0000
0000
1001
0000
0000
0000
0000
0000
0000
0000
0000
0000
0000
0000
0000
0000
0000
0000
0000
0000
0000
0000
0000
0000
0000
0000
0000
0000
0000
0000
0000
0000
0000
0000
0000
0000
0000
0000
0011
0000
0000
0000
0000
0000
0000
0000
0000
0000
0000
0000
0000
0000
0000
0000
0000
0000
0000
0000
0000
0000
0000
0000
0000
0000
0000
0000
0000
0000
0000
0000
0000
0000
0000
0000
0101
0000
0000
0000
0000
0000
0000
0000
0000
0000
0000
0000
0010
0000
0000
0000
0000
0000
0100
0000
0000
0000
0000
0000
1000
0000
0000
0000
0000
0000
0000
0000
0000
0000
0000
0000
0000
0000
0000
0000
0000
0000
0000
0000
0000
0000
0000
0000
0000
0000
0000
0000
0000
0000
0000
0000
0000
0000
0000
0000
0000
0000
0000
0000
0000
0000
0000
0000
1000
0000
0000
0000
0000
0000
0000
0000
0100
0000
0000
0000
0000
0000
0000
0000
,
0011
0000
0000
0000
0000
0000
0100
0000
0000
0000
0000
0000
1000
0000
0000
0000
0000
0000
0000
0000
0000
0000
0000
0000
0100
0000
0000
0000
0000
0000
0000
0000
0000
0000
0000
0000
0000
0000
0000
0000
0000
0000
0000
0000
0000
0000
0000
0000
0000
0000
0000
0000
0000
0000
0000
0000
0000
0000
0000
0000
0100
0000
0000
0000
0000
0000
0000
0000
0000
0000
0000
0000
0011
0000
0000
0000
0000
0000
0100
0000
0000
0000
0000
0000
1000
0000
0000
0000
0000
0000
0000
0000
0000
0000
0000
0000
0100
0000
0000
0000
0000
0000
0000
0000
0000
0000
0000
0000
0010
0000
0000
0000
0000
0000
0000
0000
0000
0000
0000
0000
0100
0000
0000
0000
0000
0000
0000
0000
0000
0000
0000
0000
0010
0000
0000
0000
0000
0000
0000
0000
0000
0000
0000
0000
0001
0000
0000
0000
0000
0000
0000
0000
0010
0000
0000
0000
0000
0000
0000
0000
0100
0000
0000
0000
0000
0000
0000
0000
0010
0000
0000
0000
0000
0000
0000
0000
0100
0000
0000
0000
0000
0000
0000
0000
1000
0000
0000
0000
0000
0000
0000
0000
,
0011
0100
1000
0101
0010
0100
0011
0100
1000
0101
0010
0100
0011
0100
1010
0100
,
0011
0100
1000
0101
0010
0100
0011
0100
1000
0101
0010
0100
0011
0100
1010
0100
,
1010
0100
0010
1100
0010
0001
0110
0001
1000
0011
1000
0100
0011
0100
1010
0100
,
1010
0100
0010
1100
0010
0001
1100
0020
0000
0030
0020
2030
3020
0032
0000
0013
,
1100
0010
0100
0011
0100
0010
1001
0010
0001
0110
1000
0001
0110
1000
0101
0010
,
1100
0010
0100
0011
0100
0010
1001
0010
0002
0000
2003
0000
3002
0000
2003
3010
,
1100
0001
0010
0101
1000
0001
1010
0100
1000
0101
0010
0100
1010
0100
1001
0010
,
1100
0001
0010
0101
1000
0001
1100
0020
0000
0030
0020
0230
0302
0023
0000
0031
,
1100
0010
0001
0110
0001
1000
0011
1000
0100
1001
0100
0010
0101
0010
1100
0010
,
1100
0000
0010
0000
0001
0000
0110
0000
0001
0000
1000
0000
0011
0000
1000
0000
0100
0000
0011
0000
0110
0000
1010
0000
1100
0000
0001
0000
1000
0100
0010
0001
,
2000
0000
3002
0000
0023
0230
0000
2300
0000
3200
0320
0000
0230
0000
2300
0000
,
3110
1010
0110
0101
0000
1100
0101
0000
1100
1010
1100
0110
0000
1010
0011
0000
,
0200
0000
0320
0000
2030
0000
3020
0032
0000
0203
0320
0000
0230
0000
2300
0000
,
3011
0101
0101
0011
0000
0101
1100
0000
0110
1010
1010
0110
0000
1010
0011
0000
,
0200
0320
0032
0203
0320
2030
0000
3200
0000
0320
2030
0000
0000
3002
2003
3002
,
0203
0000
0320
0230
0000
2300
3200
0320
0032
0203
0320
2030
3002
0003
0020
0030
,
0200
0320
1032
0203
0320
2030
3021
0230
0000
0320
2031
0000
0000
3002
2103
3002
,
0203
0000
0321
0230
0000
2300
3201
0320
0032
0203
1320
2030
3002
0003
0120
0030
,
1010
0110
0101
0011
0101
1001
0000
1010
0000
0101
1100
0000
0000
0110
1100
0110
,
1001
0000
0101
0110
0000
0101
1010
0110
0101
1010
1100
0110
0101
0000
1001
0000
,
1010
0110
0101
0011
0101
1001
0000
1010
0000
0101
1100
0000
0000
0110
1100
0110
,
1001
0000
0000
0000
0101
0000
0110
0000
0000
0000
0101
0000
1010
0000
0110
0000
0101
0000
1010
0000
1100
0000
0110
0000
0101
0000
0010
0000
1001
0010
0100
1000
,
0120
0000
0000
0000
0000
0000
0230
0000
2300
0000
0000
3200
0000
0000
0320
0000
,
1230
0000
0000
1320
0000
0000
0032
0000
0123
0000
0000
0000
0230
0000
0000
2310
,
0000
0000
0000
3020
0000
0000
0230
0000
0312
0000
0000
0023
0000
0000
0230
0000
,
0320
0000
0000
0000
0200
0302
0003
2000
3130
0000
2000
0000
3200
0000
0321
0000
,
0032
0000
0100
0000
0000
0000
0213
0000
2300
0000
0010
3200
0000
0000
1320
0000
,
1230
0000
1000
0321
0000
0000
0132
0000
0123
0000
1000
0032
0000
0000
2103
0000
,
3002
0000
0100
0000
0000
0000
0100
0000
0003
0002
1023
0230
0320
0230
2301
3200
,
2300
0000
0000
0000
0001
0000
0000
0000
0000
0000
0000
0000
0001
0000
0000
0000
0000
0000
0000
0000
0001
0000
0000
0000
0010
0000
0000
0000
3001
0010
0100
1000
,
0101
0000
0010
0000
1000
0000
0101
0000
0000
0000
0010
0000
1100
0000
0100
0000
1010
0000
0100
0000
1000
0000
0011
0100
1000
0000
0100
0000
0011
0000
0100
0000
,
1001
0000
0000
0000
0000
0000
1010
0000
0000
0000
0000
0000
1100
0010
0001
0000
0000
0000
0011
0000
0101
0000
0110
0000
1010
0000
1100
0000
1001
0000
1100
0000
,
2020
0000
0000
0000
0000
0000
0000
0000
0000
0000
0000
0000
0000
0000
0000
3030
,
1010
0000
0000
2020
0000
0000
0000
0000
0000
0000
0000
0000
3031
0010
0100
0010
,
1100
0010
0001
0100
0010
0001
0100
0010
0001
0100
0010
0001
1100
0110
1100
0101
,
1002
0003
0100
0000
0010
0000
2001
3000
0100
0000
0010
0000
1002
0003
0100
0000
0010
0000
2001
3000
0100
0000
0010
0000
1002
0003
0100
0000
1001
0000
0010
0000
,
2000
0000
3002
0000
0023
0230
0000
2301
0000
3200
0320
0000
0230
0000
2310
3000
,
2100
0000
3200
0001
0321
0000
0032
0100
,
2103
0000
3012
0000
0023
0230
0001
2310
0000
3200
0321
0000
0230
0000
2310
0000
,
3011
0000
0110
0000
0110
0000
0011
0000
0110
0000
0110
0000
0011
0000
0110
0000
0110
0000
0011
0000
0110
0000
0110
0000
0011
0100
1000
0000
1100
0000
0100
0000
,
1010
0000
0011
0000
0011
0000
1010
0000
0011
0100
1000
0000
1100
0000
2002
0000
0000
0000
3003
0000
0000
0000
0000
0000
0000
0000
0000
0000
0000
0000
0000
0000
;
