#TITLE:Namchatapke;
#SUBTITLE:Like A Man;
#ARTIST:Outsider;
#TITLETRANSLIT:Like A Man;
#SUBTITLETRANSLIT:;
#ARTISTTRANSLIT:Outsider;
#CREDIT:;
#BANNER:nachatbn.png;
#BACKGROUND:Namchatapke2.png;
#LYRICSPATH:;
#CDTITLE:;
#MUSIC:Outsider - 05 namchatapke.mp3;
#OFFSET:-0.096;
#SAMPLESTART:114.700;
#SAMPLELENGTH:12.000;
#SELECTABLE:YES;
#BPMS:0.000=180.000,320.000=90.000,324.000=180.000;
#STOPS:;
#BGCHANGES:;
// cache tags:
#FIRSTBEAT:0.000;
#LASTBEAT:519.500;
#SONGFILENAME:Songs/toune 8/Namchatapke/outsider.sm;
#HASMUSIC:1;
#HASBANNER:1;
#MUSICLENGTH:174.811;
// end cache tags

//---------------dance-single - ----------------
#NOTES:
     dance-single:
     :
     Easy:
     3:
     1.000,1.000,1.000,0.572,0.661,1140.000,429.000,100.000,0.000,4.000:
1001
0000
0000
1100
0000
0110
1000
1010
,
0010
0000
0000
0000
0000
0000
0110
0000
0000
0000
1000
0001
1100
0000
0001
0000
,
1001
0000
0000
1100
0000
1000
0110
0010
,
0110
0001
0010
0100
1000
0001
0100
0000
,
0110
0000
0000
1010
0000
1001
0010
0011
,
0001
0000
0000
0000
0000
0000
1001
0000
0000
0000
0010
0000
1010
0001
0100
0000
,
0110
0000
0000
1010
0000
0010
1001
0001
,
1001
0000
0100
0000
0001
0000
1000
0000
0010
0000
0100
0000
1000
0100
0000
0000
,
0001
0010
1100
1100
0010
0001
1100
1100
,
0010
1000
0001
0000
1100
0000
0010
1000
0001
0000
0010
0000
2100
0000
3000
0000
,
0100
0000
0010
0000
1100
0000
0001
0000
0100
0000
0010
0000
1100
0000
1100
0010
,
1100
0000
0001
0000
1100
0000
0010
0100
0010
0000
1000
0000
1200
0000
1300
0000
,
1001
0000
0100
0000
0011
0000
1100
0000
0100
0000
1010
0100
0011
0000
0011
0000
,
1001
0000
0100
0000
0011
0000
1001
0100
0010
0000
1001
0000
0120
1000
0031
0100
,
1001
0000
0010
0000
0011
0000
1100
0000
0001
0000
0110
0000
0011
0000
0011
0100
,
1001
0000
0100
0000
0010
0000
1010
0100
0011
0000
1100
0000
0012
0000
0013
0000
,
2002
0000
0000
3003
0000
0000
2002
0000
0000
3003
0100
0010
1001
0000
0100
0000
,
2020
0000
0000
3030
0000
0000
2020
0000
0000
3030
0001
0100
1010
0000
0001
0000
,
2200
0000
0000
3300
0000
0000
2200
0000
0000
3300
0001
0010
1100
0000
0010
0000
,
1000
0010
0001
0000
2010
0000
3000
0000
0001
0010
1000
0000
0102
0000
0003
0000
,
1001
0100
0110
1000
0010
1000
0110
0110
,
0101
0000
1000
0000
0110
0001
0100
0000
1000
0000
0100
0001
0110
0000
0100
0000
,
1001
0000
0100
1000
0110
0000
0011
0000
1000
0000
0010
1000
0110
1000
0001
0000
,
0100
0000
0010
0000
1000
0000
0110
0000
0001
0000
0010
0000
1000
0000
0000
0001
0000
0000
0110
0000
0000
0001
0000
0000
,
2020
0000
0000
3030
0000
0000
2020
0000
0000
3030
0100
0001
1010
0000
0100
0000
,
0220
0000
0000
0330
0000
0000
0220
0000
0000
0330
1000
0001
0110
0000
0100
0000
,
0022
0000
0000
0033
0000
0000
0022
0000
0000
0033
1000
0100
0011
0000
1000
0000
,
0001
0010
1000
0000
0012
0000
0000
0003
1000
0010
0001
0000
2100
0000
0000
3000
,
0110
1000
1010
0100
0001
0010
1010
1010
,
1001
0000
0010
0000
1010
0100
1000
0000
0010
0000
1000
0001
1010
0000
0001
0000
,
0110
0000
1000
0001
1010
0000
0110
0000
0100
0000
0001
0100
1010
0100
0001
0000
,
0100
0000
0010
0000
0100
0000
1010
0000
0100
0000
0001
0000
1000
0000
0000
0010
0000
0000
1000
0000
0000
0001
0000
0000
,
0011
1000
0100
1000
0011
0000
1000
0000
0010
0100
0010
1000
0001
0100
0010
0000
,
1010
0000
0001
0000
1010
0000
1000
0010
0001
0010
0100
1000
0010
0000
0011
0000
,
1001
0100
0010
0100
1001
0000
0100
1000
0001
1000
0010
0100
0010
0000
1000
0000
,
0101
0000
1000
0000
0101
0000
0010
0100
0010
1000
0010
0000
1100
0000
0000
0000
,
1001
0000
0010
0000
1001
0000
0010
0000
0001
0100
0001
1000
0010
0000
0100
0000
,
0011
0000
1000
0000
0011
0000
1000
0000
0100
0010
1000
0010
0100
0000
0001
0000
,
2200
3300
2200
3300
2002
3003
2200
3300
,
1000
0000
0100
0000
0010
0000
0100
0000
1000
0000
0100
0000
0010
0000
0000
0100
0000
0000
0010
0000
0000
0001
0000
0000
,
1000
0100
1000
0100
0010
0001
0100
0001
,
1100
1100
1100
1100
1100
0110
0101
0000
,
1000
0100
0010
0001
1000
0000
0001
0000
0100
0000
0010
0000
1000
0000
0010
0000
,
0100
0010
0011
0010
0110
0100
1100
0001
,
1001
0100
0010
1000
0001
0010
0001
1000
,
0110
0011
0101
0011
0101
0110
1001
0000
,
1001
0000
0010
0100
0010
0000
1000
0000
0110
0000
0001
1000
0001
0000
0100
0001
,
1000
0000
0001
0000
1010
0000
0100
0000
1001
0000
1001
0000
1000
0001
0100
0010
,
2002
0000
0000
3003
0000
0000
2002
0000
0000
3003
0100
0010
1001
0000
0100
0000
,
0220
0000
0000
0330
0000
0000
0220
0000
0000
0330
1000
0001
0110
0000
0001
0000
,
2020
0000
0000
3030
0000
0000
2020
0000
0000
3030
0001
0100
1010
0000
0100
0000
,
0001
0010
0100
0000
2100
0000
3000
0000
1000
0100
0010
0000
0012
0000
0003
0000
,
1001
0000
0010
0100
0011
0000
1000
0001
1000
0000
0001
0000
0011
0000
0011
0000
,
1001
0000
1000
0100
0011
0000
0001
0100
0001
0000
1000
0000
0011
0000
0100
0000
,
1001
0000
0010
0100
0011
0000
0100
0000
1001
0000
1000
0000
0011
0000
0011
0011
,
1001
0000
1001
0000
0100
0010
0100
0000
1001
0000
1001
0000
1001
0000
0010
0000
,
0220
0000
0000
0330
0000
0000
0220
0000
0000
0330
0001
1000
0110
0000
0001
0000
,
2002
0000
0000
3003
0000
0000
2002
0000
0000
3003
0100
0010
1001
0000
0010
0000
,
2200
0000
0000
3300
0000
0000
2200
0000
0000
3300
0010
0001
1100
0000
0001
0000
,
0010
1000
0001
0000
0201
0000
0300
0000
0100
0001
1000
0000
1020
0000
0030
0000
,
0110
0000
1000
0010
1001
0000
0100
0010
0100
0000
0010
0000
1001
0000
1001
0000
,
0110
0000
0100
0010
1001
0000
0010
0001
0010
0000
0100
0000
1001
0000
0001
0000
,
0110
0000
1000
0010
1001
0000
0001
0000
0110
0000
1000
0000
1001
0000
1001
1001
,
0110
0000
0110
0000
1001
0100
0001
0000
0110
0000
0110
0000
0110
0000
0001
0000
,
1000
0010
0100
0001
1000
0100
0010
0001
1000
0010
0100
0001
1000
0000
0000
0001
,
1000
0000
0010
0000
1000
0000
0010
0000
0100
0000
0010
0000
1000
0000
0001
0000
0010
0000
0000
0202
0000
0000
0303
0000
,
1000
0000
0100
0000
0010
0000
0000
0202
0000
0000
0303
0000
0010
0000
1000
0000
0010
0000
0000
0202
0000
0000
0303
0000
,
1001
0000
0000
0000
0000
0000
0000
0000
0001
0000
0000
0000
0100
0000
0000
0000
1000
0000
0000
0000
0001
0000
0000
0000
0110
0000
0000
0000
0000
0000
0000
0000
0000
0100
0000
0000
0010
0000
0000
1000
0000
0000
0001
0000
0000
0100
0000
0000
,
1001
0000
0100
0100
0110
1000
0010
0100
,
1001
0000
0100
1000
0001
0000
0100
0000
0011
0000
0000
1000
0001
0000
1000
0000
,
0110
0000
1000
0010
1000
0000
0001
0000
1100
0000
0010
1000
0010
0000
0100
0000
,
0101
0000
0010
0000
0101
0000
0010
0000
0101
0000
0110
0000
1100
0001
0010
0100
,
1001
0000
0010
0100
1001
0000
0010
0100
1001
0000
0010
0100
1001
0000
0010
0100
,
1001
0000
0000
0000
0000
0000
0010
0000
0000
0100
0000
0000
1001
0000
0000
0000
0100
0000
0000
0000
0010
0000
0000
0000
0001
0000
0000
0000
0010
0000
0000
0000
0100
0000
0000
0000
1000
0000
0000
0000
0100
0000
0000
0000
0010
0000
0000
0000
,
0001
0000
0110
0000
1000
0000
0110
0000
0001
0000
0110
0000
1000
0000
0001
0010
,
0001
0000
0100
0000
0010
0000
1000
0100
1000
0000
0010
0000
1000
0010
1000
0010
,
1000
0000
0001
1000
0110
0000
0001
1000
0110
0000
0001
1000
0110
0000
0001
1000
,
0110
0000
0001
1000
0110
0000
0001
1000
0110
0000
0001
0100
1000
0000
0110
0000
,
1001
0000
1100
0000
0011
0000
1000
0000
0100
0000
0001
0000
0010
0000
1000
0100
,
1001
0000
1000
0000
0110
0000
0001
1000
0110
0000
1000
0000
0001
1000
0100
0010
,
1001
0000
0000
0000
0001
0000
0000
0000
0010
0000
0000
0000
0100
0000
0000
0000
1000
0000
0000
0000
0001
0000
0000
0000
0100
0000
0000
0000
0001
0000
0000
1000
0000
0000
0000
0000
0010
0000
0000
0000
0100
0000
0000
0001
0000
1000
0000
0001
0000
0000
0000
0000
1000
0000
0000
0000
0001
0000
0000
0000
0000
0000
0000
0000
,
0110
0000
0001
0010
1001
0000
0110
0000
0001
0000
0110
0000
1001
0000
1001
0000
,
0110
0000
1000
0100
1001
0000
0110
0000
0100
0000
0110
0000
1001
0000
0100
0000
,
1010
0000
0001
0010
1001
0000
0110
0000
0001
0000
0110
0000
1001
0000
1001
1001
,
0110
0000
0010
0100
1001
0000
0110
0000
1000
0000
0110
0000
1001
0000
1001
0000
,
0101
0000
0010
1000
0010
0000
0100
0001
0100
0000
1000
0000
0011
0000
0001
0000
,
1100
0000
0100
0001
0100
0000
0010
1000
0010
0000
0100
0000
0011
0000
0001
0000
,
1100
0000
0010
0001
0010
0000
0001
0000
1100
0000
0010
0000
0100
1000
0100
0000
,
1010
0000
1100
0000
0001
0010
0001
0000
1100
0000
1100
0000
1100
0000
0000
0000
,
1001
0000
0100
0001
0110
0000
1001
0000
0100
0000
1001
0000
0110
0000
0110
0000
,
1001
0000
0010
1000
0110
0000
1001
0000
1000
0000
1001
0000
0110
0000
1000
0000
,
0011
0000
0100
0001
0110
0000
1001
0000
0100
0000
1001
0000
0110
0000
0110
0110
,
1001
0000
0001
1000
0110
0000
1001
0000
0010
0000
1001
0000
0110
0000
0110
0000
,
1100
0000
0001
0010
0001
0000
1000
0001
1000
0000
0010
0000
1010
0000
0001
0000
,
1001
0000
0100
0001
1000
0000
1000
0001
0100
0000
1000
0000
0101
0000
1000
0000
,
1100
0000
0010
0100
0001
0000
0100
0000
0101
0000
0010
0000
0100
0001
0010
0000
,
1010
0000
0011
0000
0100
1000
0001
0000
1010
0000
1010
0000
1010
0000
0000
0000
,
0010
0000
0001
1000
0001
0000
0100
0010
0100
0000
0011
0000
0011
0000
0000
0000
,
0110
0000
1100
0000
1100
0000
0001
1000
0010
0000
0001
0000
0011
0000
0000
0000
,
1110
0000
0001
1000
0001
0000
0100
0010
0100
0000
0011
0000
1100
0000
1000
0000
,
1111
0000
1000
0000
0010
0100
0010
0000
0100
0000
0011
0000
1001
0000
0000
0000
,
0010
0000
0010
1000
0010
0000
0010
1000
0010
0000
1010
0000
1010
0000
0010
0000
,
0110
0000
0101
0000
0101
0000
0100
0001
0100
0000
0100
0000
0101
0000
0100
0000
,
1110
0000
1000
0010
1000
0000
1000
0010
1000
0000
1010
0000
1010
0000
1000
0000
,
1111
0000
0001
0100
0001
0100
0001
0010
0001
0000
0101
0000
0011
0000
0001
0000
,
2002
0000
0000
3003
0000
0000
2002
0000
0000
3003
0000
0000
1001
0000
1001
0000
,
2020
0000
0000
3030
0000
0000
2020
0000
0000
3030
0000
0000
1010
0000
0000
0000
,
2200
0000
0000
3300
0000
0000
2200
0000
0000
3300
0000
0000
1100
0000
1100
0001
,
0110
0001
0010
0100
1000
0001
0100
0000
,
1001
0000
0010
0100
0010
0000
0001
0010
0001
0000
0100
0000
0101
0000
0010
0000
,
0011
0000
1000
0010
0001
0000
0001
0010
1000
0000
0001
0000
1010
0000
0001
0000
,
1001
0000
0100
1000
0010
0000
1000
0000
1010
0000
0100
0000
1000
0010
0100
0000
,
0101
0000
0110
0000
1000
0001
0010
0000
0101
0000
0101
0000
0101
0000
0000
0000
,
0220
0000
0000
0330
0000
0000
0220
0000
0000
0330
1000
0001
0110
0000
1000
0000
,
0022
0000
0000
0033
0000
0000
0022
0000
0000
0033
0100
1000
0011
0000
0100
0000
,
2020
0000
0000
3030
0000
0000
2020
0000
0000
3030
0100
0001
1010
0000
0001
0000
,
0010
0001
0100
0000
0021
0000
0030
0000
0100
0001
0010
0000
1200
0000
0300
0000
,
0110
0000
0001
1000
0001
0000
0100
0001
0100
0000
1000
0000
1100
0000
0001
0000
,
0101
0000
0010
0001
0100
0000
0100
0001
0010
0000
0100
0000
0011
0000
0100
0000
,
0110
0000
1000
0010
0001
0000
0010
0000
0011
0000
1000
0000
0010
0001
1000
0000
,
1100
0000
1001
0000
0010
0100
0001
0000
1100
0000
1100
0000
1100
0000
0011
0000
,
1001
0000
0100
0001
0110
0000
1001
0000
0100
0000
1001
0000
0110
0000
0110
0000
,
1001
0000
0010
1000
0110
0000
1001
0000
1000
0000
1001
0000
0110
0000
1000
0000
,
0011
0000
0100
0001
0110
0000
1001
0000
0100
0000
1001
0000
0110
0000
0110
0110
,
1001
0000
0001
1000
0110
0000
1001
0000
0010
0000
1001
0000
0110
0000
0110
0000
,
1010
0000
0001
1000
0101
0000
1010
0000
0001
0000
1010
0000
0101
0000
0101
0000
,
1010
0000
0100
0010
0101
0000
1010
0000
0010
0000
1010
0000
0101
0000
0010
0000
,
1100
0000
0001
1000
0101
0000
1010
0000
0001
0000
1010
0000
0101
0000
0101
0101
,
1010
0000
1000
0010
0101
0000
1010
0000
0100
0000
1010
0000
0101
0000
0101
0000
,
0011
0001
0010
0100
1000
0100
0010
0001
;
