#TITLE:Hold Angel;
#SUBTITLE:;
#ARTIST:you;
#TITLETRANSLIT:;
#SUBTITLETRANSLIT:;
#ARTISTTRANSLIT:;
#CREDIT:;
#BANNER:hold angel bn.png;
#BACKGROUND:hold angel bg.png;
#LYRICSPATH:;
#CDTITLE:;
#MUSIC:Hold Angel.ogg;
#OFFSET:-0.168;
#SAMPLESTART:76.953;
#SAMPLELENGTH:13.210;
#SELECTABLE:YES;
#DISPLAYBPM:300.000;
#BPMS:0.000=300.000,412.000=75.000,413.000=300.000,475.000=150.000,476.000=300.000,537.500=-300.000,545.500=300.000;
#STOPS:;
#BGCHANGES:;
// cache tags:
#FIRSTBEAT:32.000;
#LASTBEAT:660.000;
#SONGFILENAME:Songs/SPEEEDCOOOORE 4/Hold Angel - [Tyler]/Hold Angel.sm;
#HASMUSIC:1;
#HASBANNER:1;
#MUSICLENGTH:133.328;
// end cache tags

//---------------dance-single - 16ths----------------
#NOTES:
     dance-single:
     16ths:
     Edit:
     21:
     1.000,1.000,0.248,0.255,0.739,955.000,33.000,34.000,10.000,0.000:
0000
0000
0000
0000
,
0000
0000
0000
0000
,
0000
0000
0000
0000
,
0000
0000
0000
0000
,
0000
0000
0000
0000
,
0000
0000
0000
0000
,
0000
0000
0000
0000
,
0000
0000
0000
0000
,
2002
0000
0000
0000
,
0000
0000
0000
0000
,
0000
0000
0000
0000
,
3003
0000
0000
0000
,
0000
0000
0000
0000
,
0000
0000
0000
0000
,
0000
0000
0000
0000
,
2002
0000
0000
3003
,
1001
0000
1000
0000
0100
0000
0010
0001
,
1000
0000
0010
0000
0100
0001
0010
0100
,
1000
0100
1000
0010
,
0100
0000
0001
0000
1000
0100
0010
0001
,
1000
0000
0001
0000
0100
0000
0010
1000
,
0001
0000
0010
0000
0100
1000
0010
0100
,
0001
0000
0100
0000
0001
0010
0100
0000
,
1000
0001
1000
0010
0100
0001
0100
0010
1000
0001
1000
0100
0010
0001
1000
0001
,
0100
0000
0001
0000
0010
0000
0100
1000
,
0001
0000
0100
0000
0010
1000
0100
0010
,
0001
0010
0001
0100
,
0010
0000
1000
0000
0001
0010
0100
1000
,
0001
0000
1000
0000
0010
0000
0100
0001
,
1000
0000
0100
0000
0010
0001
0100
0010
,
1000
0000
0010
0000
1000
0100
0010
0000
,
2002
0000
0000
3003
0000
0000
0MM0
0000
,
1000
0100
1000
0001
0010
0100
1000
0001
0010
0001
1000
0010
0100
0010
1000
0001
,
0100
0001
1000
0010
0100
0001
1000
0010
1000
0001
0010
0100
1000
0001
0010
0001
,
1000
0100
0010
0001
1000
0100
1000
0001
0010
0100
0010
0001
1000
0001
0100
0010
,
1000
0001
0100
0001
1000
0010
0100
0001
1000
0100
1000
0001
0010
0001
1000
0100
,
0010
0001
1000
0001
0100
0010
1000
0010
,
0100
0000
0001
0000
1000
0000
0100
0000
1000
0001
1000
0100
0010
0001
1000
0001
,
0100
0001
1000
0010
1000
0100
0010
0001
,
1000
0000
1000
0000
1000
0000
0040
0030
,
1000
0001
0100
0001
1000
0010
0100
0001
1000
0010
1000
0001
1000
0100
0010
0100
,
1000
0001
0010
0001
1000
0100
0010
0001
1000
0100
1000
0001
0100
0010
1000
0001
,
1000
0010
0100
0001
1000
0010
1000
0001
1000
0100
0010
0001
1000
0001
0010
0100
,
1000
0001
0100
0001
1000
0010
1000
0001
0010
0100
1000
0001
0010
0001
1000
0010
,
0100
0000
0000
0000
0001
0000
0000
0000
1000
0000
0000
0000
0100
0010
0100
1000
,
0001
0000
0100
0010
0100
0001
1000
0000
0001
0000
0000
0000
1000
0100
1000
0001
,
0100
0000
0010
0000
1000
0100
0010
0000
,
0012
0003
2000
3000
0020
0030
2000
3000
,
0001
0010
0001
1000
0100
0010
0001
1000
0001
0100
0010
1000
0001
0000
0100
0000
,
0000
0000
0001
1000
0001
0010
0100
1000
0004
0000
0000
0000
0103
0000
0001
0000
,
1000
0001
0010
0100
1000
0001
0100
0001
1000
0000
0010
0000
0100
0001
1000
0001
,
1000
0100
0010
0001
1000
0000
0001
0000
0100
0000
0010
0000
1000
0000
0100
0000
,
0010
0001
1000
0001
0010
0100
1000
0001
1000
0010
1000
0001
0100
0000
0010
0000
,
1000
0000
0010
0100
0001
1000
0001
0100
0010
1000
0001
1000
0001
0010
0100
1000
,
0001
0000
0100
0000
0001
0000
0000
0000
1000
0100
1000
0001
0100
0000
0010
0000
,
1000
0001
1000
0010
0100
0001
1000
0000
0010
0000
1000
0000
0004
0000
0000
0000
,
1003
0000
0010
0000
0100
0000
0001
0000
0000
0000
0000
0000
1000
0001
1000
0000
,
0000
0000
0400
0000
1300
0000
0000
0000
0001
1000
0001
0000
0100
0000
0040
0000
,
0130
0000
0000
0000
0001
0100
0001
0100
0010
0000
1000
0000
0001
1000
0001
1000
,
0100
0010
0100
1000
0001
0000
0010
0000
0001
0000
1000
0000
0001
0100
0001
1000
,
0100
0000
0010
0001
1000
0000
0001
1000
0040
0000
0130
0000
0040
0000
1030
0000
,
0001
0000
0010
0000
0400
0000
0310
0000
0001
0000
1000
0000
0001
0000
0100
0001
,
0100
0000
0001
1000
0100
1000
0001
0100
0040
0000
0130
0001
1000
0000
0001
0000
,
2000
0000
0000
0000
,
3002
0003
0100
0000
0001
0000
1000
0000
,
0100
0010
0100
1000
,
0020
0030
0100
0000
0001
0000
0100
0000
,
0010
1000
0001
1000
,
0200
0300
0010
0000
0001
0000
0010
0000
,
0100
1000
0001
1000
,
0020
0030
0100
0000
0001
0000
0100
0000
,
0010
1000
0001
0010
,
0200
0300
0010
0000
0001
0000
1000
0000
,
0001
0100
0010
1000
,
0200
0300
1000
0000
0001
0000
0100
0000
,
0010
1000
0001
0010
,
0200
0300
0010
0000
0001
0000
1000
0000
,
0010
0100
0001
0010
,
0200
0300
1000
0000
0001
0000
0100
0000
,
0010
1000
0100
0010
,
000M
0000
0000
0000
,
0000
0000
0000
0000
,
0000
0000
0000
0000
,
0000
0000
0000
0000
,
0000
0000
0000
0000
,
0000
0000
0000
0000
,
0000
0000
0000
0000
,
M00M
0000
0000
0000
,
1001
0000
0001
0100
0000
0001
1000
0100
,
0000
0010
0100
1000
0010
0100
0001
1000
,
0100
0000
0010
0100
0000
1000
0001
0100
,
0000
0010
0100
0001
0010
0100
1000
0001
,
0100
0000
0001
1000
0000
0100
0010
0001
,
0000
0100
0010
1000
0001
1000
0010
0100
,
0001
0000
0010
0100
0000
1000
0001
0100
,
0000
0001
0010
0100
1000
0010
0100
0001
,
1001
0000
1000
0010
0000
1000
0001
0010
,
0000
0100
0010
0001
0100
0010
1000
0001
,
1001
0000
1000
0100
0000
1000
0001
0100
,
0000
0010
0100
0001
0010
0100
1000
0001
,
1001
0000
1001
0000
0001
0100
0010
1000
,
1001
0000
1001
0000
1000
0100
0010
0001
,
1000
0001
1000
0100
0010
0001
1000
0001
0100
0010
0100
0001
1000
0100
0010
0001
,
2000
3000
0000
0000
0000
0000
0000
0000
0MM0
0000
0000
0000
0000
0000
0000
0000
0001
0000
0000
0000
0000
0000
0000
0000
0010
0000
0000
0000
0000
0000
0000
0000
0100
0000
0000
0000
0000
0000
0000
0000
0010
0000
0000
0000
0000
0000
0000
0000
0001
0000
0000
0000
0000
0000
0000
0000
1000
0000
0000
0000
0000
0000
0000
0000
,
0001
0000
0100
0000
0001
0000
0010
0000
0100
0000
1000
0000
0001
0100
0001
1000
,
0100
0010
0001
1000
0001
0000
0100
0000
0010
0000
1000
0000
0010
0000
0100
0000
,
0001
0000
0010
0000
0001
1000
0100
1000
0001
0010
0001
1000
0010
0100
0010
1000
,
0001
0100
0010
1000
0001
0000
0100
0000
0010
0000
0100
0000
0001
0000
1000
0000
,
0100
0010
0001
0100
0001
1000
0010
0100
,
0001
0000
0010
0000
0100
1000
0100
0010
0001
1000
0001
0100
0010
1000
0001
1000
,
0010
0100
0001
1000
0100
0010
0100
1000
0001
0100
0001
1000
0020
0000
0000
0000
,
0000
0000
0130
0001
1000
0100
0010
0001
,
1000
0000
0001
0000
0100
0000
0010
0000
0100
0000
0001
0000
0010
0100
0010
0001
,
1000
0100
1000
0001
0100
0000
0010
0000
1000
0000
0010
0000
0100
0000
0001
0000
,
1000
0000
0100
0000
0010
0001
1000
0001
1000
0100
1000
0001
0100
0010
1000
0001
,
1000
0010
0100
0001
1000
0000
0100
0000
0010
0000
0100
0000
1000
0000
0001
0000
,
0100
0001
1000
0010
1000
0001
0010
0100
,
1000
0000
0001
0000
1000
0100
0010
0001
1000
0100
1000
0001
0100
0001
1000
0010
,
0100
0001
1000
0100
0020
0000
0000
0000
0000
0000
0000
0000
003M
0000
M000
0000
,
0001
0100
0010
1000
0100
1000
0010
0100
,
0001
0010
0100
1000
0010
0100
0001
0100
,
0010
1000
0001
1000
0100
0010
0100
1000
,
0001
0100
0010
1000
0100
1000
0010
0100
,
0202
0303
0202
0303
,
1000
0100
0010
0000
2002
0000
3003
0001
,
1000
0010
0100
0001
,
0010
0100
0010
0001
1000
0100
1000
0001
0100
0010
0100
0001
1000
0010
0100
0001
,
1000
0001
0010
0100
1000
0100
0010
0001
,
0100
0010
1000
0001
0100
0001
1000
0010
,
0100
0001
0010
0100
1000
0100
0010
0001
,
0100
0010
1000
0100
0010
0001
0100
0001
,
2002
3003
2002
3003
,
0101
1010
2002
3003
,
1100
0110
0011
1001
,
1000
0001
0100
0001
1000
0100
0010
0000
0000
0000
0000
0000
0000
0000
0000
0000
,
0000
0000
0000
0000
,
0000
0000
0000
0000
,
0000
0000
0000
0000
,
0000
0000
0000
0000
,
1001
0000
0001
0000
0100
0000
0010
1000
,
0001
0000
1000
0000
0100
0010
0100
1000
,
0001
0100
0001
0010
,
0100
0000
1000
0000
0001
0100
0010
1000
,
0001
0000
1000
0000
0010
0000
0100
0001
,
1000
0000
0001
0000
0010
0100
0010
0001
,
1000
0000
0010
0000
1000
0001
0010
0000
,
0100
0010
0001
1000
,
0010
0000
0100
0000
0001
0000
0100
0010
,
1000
0000
0001
0000
1000
0100
0010
0001
,
1000
0001
0100
0010
,
1000
0000
0001
0000
0010
0001
1000
0010
,
0100
0000
0001
0000
1000
0000
0100
0010
,
0001
0000
1000
0000
0001
0100
0010
1000
,
0100
0000
1000
0000
0001
0100
0010
0000
,
1000
0000
0000
0000
,
0001
0000
0000
0000
,
0000
0000
0000
0000
,
0000
0000
0000
0000
,
0000
0000
0000
0000
,
0000
0000
0000
0000
,
0000
0000
0000
0000
,
0000
0000
0000
0000
,
0000
0000
0000
0000
,
0000
0000
0000
0000
,
0000
0000
0000
0000
,
M000
0000
0000
0000
;

//---------------dance-single - T. Moore----------------
#NOTES:
     dance-single:
     T. Moore:
     Challenge:
     13:
     0.980,1.000,0.308,0.255,0.720,840.000,41.000,34.000,17.000,0.000:
0000
0000
0000
0000
,
0000
0000
0000
0000
,
0000
0000
0000
0000
,
0000
0000
0000
0000
,
0000
0000
0000
0000
,
0000
0000
0000
0000
,
0000
0000
0000
0000
,
0000
0000
0000
0000
,
2002
0000
0000
0000
,
0000
0000
0000
0000
,
0000
0000
0000
0000
,
3003
0000
0000
0000
,
0000
0000
0000
0000
,
0000
0000
0000
0000
,
0000
0000
0000
0000
,
2002
0000
0000
3003
,
1001
0000
1000
0000
0100
0000
0010
0001
,
1000
0000
0010
0000
0100
0001
0010
0100
,
1000
0100
1000
0010
,
0100
0000
0001
0000
1000
0100
0010
0001
,
1000
0000
0001
0000
0100
0000
0010
1000
,
0001
0000
0010
0000
0100
1000
0010
0100
,
0001
0000
0100
0000
0001
0010
0100
0000
,
1000
0001
0100
0001
1000
0010
0100
0001
1000
0100
0010
0001
,
1000
0000
0001
0000
0010
0000
0100
1000
,
0001
0000
0100
0000
0010
1000
0100
0010
,
0001
0010
0001
0100
,
0010
0000
1000
0000
0001
0010
0100
1000
,
0001
0000
1000
0000
0010
0000
0100
0001
,
1000
0000
0100
0000
0010
0001
0100
0010
,
1000
0000
0010
0000
1000
0100
0010
0000
,
2002
0000
0000
3003
0000
0000
0MM0
0000
,
1000
0100
1000
0001
0010
0001
1000
0001
0100
0010
1000
0100
,
0010
0001
1000
0100
1000
0001
0010
0001
1000
0001
0010
0100
,
1000
0001
0100
0010
0100
0001
1000
0100
1000
0001
0010
0001
,
0100
0010
1000
0001
1000
0010
0100
0001
1000
0010
1000
0001
,
1000
0100
1000
0001
0100
0010
1000
0010
,
0100
0000
0000
0001
0000
0000
1000
0000
0000
0100
0000
0000
0010
0000
0001
0000
1000
0000
0100
0000
1000
0000
0001
0000
,
0100
0001
1000
0010
1000
0100
0010
0001
,
1000
1000
1000
0040
,
1030
0001
0100
0001
1000
0010
1000
0001
0010
0100
1000
0001
,
0100
0001
1000
0010
0100
0001
0100
0010
1000
0001
0100
0001
,
1000
0100
1000
0001
0010
0001
1000
0010
0100
0001
1000
0100
,
0010
0001
1000
0001
0010
0100
1000
0100
0010
0001
1000
0001
,
0100
0000
0001
0000
1000
0000
0001
0001
,
1000
0000
0000
0001
0000
0000
0100
0000
0010
0000
1000
0000
0001
0000
0000
0000
0000
0000
1000
0000
0100
0000
0010
0000
,
0001
0000
1000
0000
0001
0100
0010
0000
,
1020
0030
2000
3000
0200
0300
2000
3000
,
0001
0000
0010
0000
0100
0000
1000
0000
0001
0000
0010
0000
0001
0000
1000
0000
0010
0000
0100
0000
0000
0001
0000
0000
,
0000
0000
0000
1000
0000
0000
0001
0000
0010
0000
0100
0000
4000
0000
0000
0000
0000
0000
3001
0000
0000
1000
0000
0000
,
0001
0100
0001
1000
0010
1000
0001
0010
0100
1000
0001
1000
,
0040
0000
1030
0001
1000
0100
0010
0001
,
1000
0000
0001
0000
1000
0000
0010
0000
0100
0000
0001
0000
0040
0000
0000
0031
0000
0000
1000
0000
0000
0001
0000
0000
,
1000
0000
0000
0040
0000
0000
0130
0000
0001
0000
0100
0000
0010
0000
1000
0000
0001
0000
1000
0000
0100
0000
0010
0000
,
0001
1000
0001
0000
0400
0000
0301
1000
,
0001
0000
0010
0000
0100
0000
1000
0000
0001
0000
1000
0000
0010
0000
0000
0100
0000
0000
0004
0000
0000
0000
0000
0000
,
1003
0000
0100
0000
0010
0000
0001
0000
0000
0000
0000
0000
1000
0001
1000
0000
,
0000
0040
1030
0000
0040
0000
0130
0040
,
1030
0000
0000
0001
0000
0000
1000
0000
0100
0000
1000
0000
0001
0000
0000
0040
0000
0000
0031
0000
1000
0000
0001
0000
,
0400
0000
0000
0000
0000
0000
0310
0000
0000
1000
0000
0000
0010
0000
0000
0100
0000
0000
0001
0000
1000
0000
0001
0000
,
1000
0100
0010
0100
4000
3001
4000
3100
,
0010
0000
0000
0001
0000
0000
4000
0000
0000
3010
0000
0000
0100
0000
0000
0001
0000
0000
1000
0000
0001
0000
1000
0000
,
0100
0000
0000
0010
0000
0000
0100
0000
1000
0000
0001
0000
0400
0000
0000
0310
0000
0000
0100
0000
0000
0001
0000
0000
,
2000
0000
0000
0000
,
3002
0003
0100
0000
0001
0000
1000
0000
,
0100
0010
0100
1000
,
0020
0030
0100
0000
0001
0000
0100
0000
,
0010
1000
0001
1000
,
0200
0300
0010
0000
0001
0000
0010
0000
,
0100
1000
0001
1000
,
0020
0030
0100
0000
0001
0000
0100
0000
,
0010
1000
0001
0010
,
0200
0300
0010
0000
0001
0000
1000
0000
,
0001
0100
0010
1000
,
0200
0300
1000
0000
0001
0000
0100
0000
,
0010
1000
0001
0010
,
0200
0300
0010
0000
0001
0000
1000
0000
,
0010
0100
0001
0010
,
0200
0300
1000
0000
0001
0000
0100
0000
,
0010
1000
0100
0010
,
000M
0000
0000
0000
,
0000
0000
0000
0000
,
0000
0000
0000
0000
,
0000
0000
0000
0000
,
0000
0000
0000
0000
,
0000
0000
0000
0000
,
0000
0000
0000
0000
,
M00M
0000
0000
0000
,
1001
0000
0001
0100
0000
0001
1000
0100
,
0000
0010
0100
1000
0010
0100
0001
1000
,
0100
0000
0010
0100
0000
1000
0001
0100
,
0000
0010
0100
0001
0010
0100
1000
0001
,
0100
0000
0001
1000
0000
0100
0010
0001
,
0000
0100
0010
1000
0001
1000
0010
0100
,
0001
0000
0010
0100
0000
1000
0001
0100
,
0000
0001
0010
0100
1000
0010
0100
0001
,
1001
0000
1000
0010
0000
1000
0001
0010
,
0000
0100
0010
0001
0100
0010
1000
0001
,
1001
0000
1000
0100
0000
1000
0001
0100
,
0000
0010
0100
0001
0010
0100
1000
0001
,
1001
0000
1001
0000
0001
0100
0010
1000
,
1001
0000
1001
0000
1000
0100
0010
0001
,
1000
0100
0010
0001
1000
0001
0100
0010
1000
0100
0010
0001
,
2000
3000
0000
0000
0000
0000
0000
0000
0MM0
0000
0000
0000
0000
0000
0000
0000
0001
0000
0000
0000
0000
0000
0000
0000
0010
0000
0000
0000
0000
0000
0000
0000
0100
0000
0000
0000
0000
0000
0000
0000
0010
0000
0000
0000
0000
0000
0000
0000
0001
0000
0000
0000
0000
0000
0000
0000
1000
0000
0000
0000
0000
0000
0000
0000
,
0001
0000
0000
0100
0000
0000
0001
0000
0000
0010
0000
0000
0100
0000
0000
1000
0000
0000
0001
0000
0100
0000
0010
0000
,
1000
0000
0100
0000
0010
0000
0001
0000
0000
0100
0000
0000
0010
0000
0000
1000
0000
0000
0010
0000
0000
0100
0000
0000
,
0001
0000
0000
0010
0000
0000
0001
0000
1000
0000
0010
0000
0100
0000
0001
0000
1000
0000
0100
0000
0010
0000
0100
0000
,
1000
0000
0001
0000
0100
0000
0001
0000
0000
1000
0000
0000
0010
0000
0000
1000
0000
0000
0001
0000
0000
0010
0000
0000
,
0100
0010
0001
0100
0001
1000
0010
0100
,
0001
0000
0000
0010
0000
0000
0100
0000
1000
0000
0100
0000
0010
0000
0001
0000
1000
0000
0001
0000
0100
0000
0010
0000
,
1000
0100
1000
0010
0100
0001
0010
0001
0100
0020
0000
0000
,
0000
0000
1030
0001
0010
0100
1000
0001
,
0100
0000
0000
0001
0000
0000
0010
0000
0000
0100
0000
0000
0010
0000
0000
0001
0000
0000
1000
0000
0010
0000
0100
0000
,
0001
0000
0010
0000
0100
0000
1000
0000
0000
0010
0000
0000
0100
0000
0000
0010
0000
0000
1000
0000
0000
0001
0000
0000
,
1000
0000
0000
0100
0000
0000
1000
0000
0001
0000
0100
0000
0001
0000
1000
0000
0010
0000
0100
0000
0001
0000
1000
0000
,
0100
0000
0010
0000
0001
0000
1000
0000
0000
0001
0000
0000
0100
0000
0000
0001
0000
0000
1000
0000
0000
0100
0000
0000
,
0010
0100
1000
0010
0100
0001
1000
0100
,
0010
0000
0000
0001
0000
0000
1000
0000
0001
0000
0100
0000
0001
0000
1000
0000
0010
0000
1000
0000
0001
0000
0010
0000
,
0100
0000
1000
0000
0001
0000
0200
0000
0000
0000
0000
0000
0000
0000
0000
0000
0000
0000
030M
0000
0000
M000
0000
0000
,
0001
0100
0010
1000
0100
1000
0010
0100
,
0001
0010
0100
1000
0010
0100
0001
0100
,
0010
1000
0001
1000
0100
0010
0100
1000
,
0001
0100
0010
1000
0100
1000
0010
0100
,
0202
0303
0202
0303
,
1000
0100
0010
0000
2002
0000
3003
0001
,
1000
0010
0100
0001
,
1000
0100
0010
0001
0100
0010
1000
0010
0100
0001
0010
0100
,
1000
0001
0010
0001
1000
0100
0010
0100
,
1000
0010
0100
0001
0010
0100
0010
0001
,
1000
0010
0100
0010
1000
0001
0100
0001
,
0010
0100
0010
0001
1000
0010
0100
0001
,
2002
3003
2002
3003
,
0101
1010
2002
3003
,
1100
0110
0011
1001
,
1000
0100
0010
0001
1000
0000
0000
0000
0000
0000
0000
0000
,
0000
0000
0000
0000
,
0000
0000
0000
0000
,
0000
0000
0000
0000
,
0000
0000
0000
0000
,
1001
0000
0001
0000
0100
0000
0010
1000
,
0001
0000
1000
0000
0100
0010
0100
1000
,
0001
0100
0001
0010
,
0100
0000
1000
0000
0001
0100
0010
1000
,
0001
0000
1000
0000
0010
0000
0100
0001
,
1000
0000
0001
0000
0010
0100
0010
0001
,
1000
0000
0010
0000
1000
0001
0010
0000
,
0100
0010
0001
1000
,
0010
0000
0100
0000
0001
0000
0100
0010
,
1000
0000
0001
0000
1000
0100
0010
0001
,
1000
0001
0100
0010
,
1000
0000
0001
0000
0010
0001
1000
0010
,
0100
0000
0001
0000
1000
0000
0100
0010
,
0001
0000
1000
0000
0001
0100
0010
1000
,
0100
0000
1000
0000
0001
0100
0010
0000
,
1000
0000
0000
0000
,
0001
0000
0000
0000
,
0000
00M0
0000
0000
0000
0000
0000
0000
0000
0000
0000
0000
0000
0000
0000
0000
,
0000
0M00
0000
0000
0000
0000
0000
0000
0000
0000
0000
0000
0000
0000
0000
0000
,
0000
000M
0000
0000
0000
0000
0000
0000
0000
0000
0000
0000
0000
0000
0000
0000
,
0000
M000
0000
0000
0000
0000
0000
0000
0000
0000
0000
0000
0000
0000
0000
0000
,
0000
00M0
0000
0000
0000
0000
0000
0000
0000
0000
0000
0000
0000
0000
0000
0000
,
0000
0M00
0000
0000
0000
0000
0000
0000
0000
0000
0000
0000
0000
0000
0000
0000
,
0000
000M
0000
0000
0000
0000
0000
0000
0000
0000
0000
0000
0000
0000
0000
0000
,
0000
00M0
0000
0000
0000
0000
0000
0000
0000
0000
0000
0000
0000
0000
0000
0000
;
