#TITLE:AAA;
#SUBTITLE:;
#ARTIST:DJ Amuro vs. DM Ashura;
#TITLETRANSLIT:;
#SUBTITLETRANSLIT:;
#ARTISTTRANSLIT:;
#CREDIT:;
#BANNER:AAA.png;
#BACKGROUND:AAA-bg.PNG;
#LYRICSPATH:;
#CDTITLE:Slig logo.png;
#MUSIC:AAA.mp3;
#OFFSET:-0.020;
#SAMPLESTART:71.974;
#SAMPLELENGTH:12.000;
#SELECTABLE:YES;
#BPMS:0.000=160.000;
#STOPS:;
#BGCHANGES:16.000=Lightning1.avi=1.000=1=0=1,
20.000=Fireworks.avi=1.000=0=0=1,
24.000=Lady2.avi=1.000=0=0=1,
28.000=Text10.avi=1.000=0=0=1,
32.000=Snow.avi=1.000=0=0=1,
48.000=Unicorn1.avi=1.000=0=0=1,
60.000=Unicorn2.avi=1.000=0=0=1,
64.000=Text16s.avi=1.000=0=0=1,
76.000=Fireworks.avi=1.000=0=0=1,
78.000=Lightning1.avi=1.000=0=0=1,
80.000=Snow2.avi=1.000=0=0=1,
92.000=Snow.avi=1.000=0=0=1,
94.000=Snow5.avi=1.000=0=0=1,
96.000=Unicorn1.avi=1.000=0=0=1,
112.000=Text10.avi=1.000=0=0=1,
120.000=Lady2.avi=1.000=0=0=1,
128.000=Text16s.avi=1.000=0=0=1,
144.000=Unicorn2.avi=1.000=0=0=1,
152.000=Snow.avi=1.000=0=0=1,
156.000=Lightning1.avi=1.000=0=0=1,
160.000=Lady2.avi=1.000=0=0=1,
184.000=Fireworks.avi=1.000=0=0=1,
192.000=Text10.avi=1.000=0=0=1,
200.000=Unicorn2.avi=1.000=0=0=1,
216.000=Unicorn1.avi=1.000=0=0=1,
218.000=Fireworks.avi=1.000=0=0=1,
220.000=Snow.avi=1.000=0=0=1,
221.000=Snow5.avi=1.000=0=0=1,
222.000=Snow.avi=1.000=0=0=1,
223.000=Snow2.avi=1.000=0=0=1,
224.000=Text16s.avi=1.000=0=0=1,
240.000=Fireworks.avi=1.000=0=0=1,
248.000=Lady2.avi=1.000=0=0=1,
252.000=Lightning1.avi=1.000=0=0=1,
256.000=Unicorn1.avi=1.000=0=0=1,
257.000=Unicorn2.avi=1.000=0=0=1,
258.000=Text10.avi=1.000=0=0=1,
272.000=Snow.avi=1.000=0=0=1,
288.000=Lightning1.avi=1.000=0=0=1,
290.000=Text10.avi=1.000=0=0=1,
292.000=Lady2.avi=1.000=0=0=1,
294.000=Snow2.avi=1.000=0=0=1,
296.000=Unicorn1.avi=1.000=0=0=1,
298.000=Fireworks.avi=1.000=0=0=1,
300.000=Text16s.avi=1.000=0=0=1,
304.000=Unicorn1.avi=1.000=0=0=1,
312.000=Snow.avi=1.000=0=0=1,
316.000=Unicorn2.avi=1.000=0=0=1,
320.000=Snow2.avi=1.000=0=0=1,
336.000=Unicorn2.avi=1.000=0=0=1,
352.000=Text16s.avi=1.000=0=0=1,
356.000=Lady2.avi=1.000=0=0=1,
360.000=Snow5.avi=1.000=0=0=1,
364.000=Text10.avi=1.000=0=0=1,
368.000=Snow.avi=1.000=0=0=1,
372.000=Unicorn1.avi=1.000=0=0=1,
376.000=Lightning1.avi=1.000=0=0=1,
377.000=Unicorn2.avi=1.000=0=0=1,
378.000=Lady2.avi=1.000=0=0=1,
379.000=Fireworks.avi=1.000=0=0=1,
380.000=Text10.avi=1.000=0=0=1,
381.000=Snow2.avi=1.000=0=0=1,
382.000=Text16s.avi=1.000=0=0=1,
383.000=Lightning1.avi=1.000=0=0=1,
384.000=Unicorn1.avi=1.000=0=0=1,
400.000=Text10.avi=1.000=0=0=1,
408.000=Snow.avi=1.000=0=0=1,
410.000=Snow5.avi=1.000=0=0=1,
412.000=Fireworks.avi=1.000=0=0=1,
416.000=Snow2.avi=1.000=0=0=1,
424.000=Lady2.avi=1.000=0=0=1,
432.000=Text16s.avi=1.000=0=0=1,
434.000=Text10.avi=1.000=0=0=1,
436.000=Snow5.avi=1.000=0=0=1,
438.000=Unicorn2.avi=1.000=0=0=1,
440.000=Fireworks.avi=1.000=0=0=1,
448.000=Lady2.avi=1.000=0=0=1,
464.000=Text10.avi=1.000=0=0=1,
472.000=Snow2.avi=1.000=0=0=1,
480.000=Lightning1.avi=1.000=0=0=1,
484.000=Unicorn1.avi=1.000=0=0=1,
488.000=Lady2.avi=1.000=0=0=1,
492.000=Unicorn2.avi=1.000=0=0=1,
496.000=Snow.avi=1.000=0=0=1,
504.000=Lady2.avi=1.000=0=0=1,
508.000=Fireworks.avi=1.000=0=0=1,
510.000=Unicorn2.avi=1.000=0=0=1,
512.000=AAA-bg.PNG=1.000=0=0=1,
99999=-nosongbg-=1.000=0=0=0 // don't automatically add -songbackground-
;
// cache tags:
#FIRSTBEAT:16.000;
#LASTBEAT:512.000;
#SONGFILENAME:Songs/aaa cant/AAA/AAA.sm;
#HASMUSIC:1;
#HASBANNER:1;
#MUSICLENGTH:195.061;
// end cache tags

//---------------dance-single - ----------------
#NOTES:
     dance-single:
     :
     Easy:
     6:
     0.361,0.558,0.333,0.000,0.000,428.000,65.000,0.000,0.000,0.000:
0000
0000
0000
0000
,
0000
0000
0000
0000
,
0000
0000
0000
0000
,
0000
0000
0000
0000
,
1000
0000
0001
0000
,
0100
0000
1000
0000
,
0010
0000
0100
0000
,
0001
0000
1000
0000
,
0001
0011
0010
1010
,
1000
1100
0100
0101
,
0001
0011
0010
1010
,
1000
1100
0100
0101
,
0001
0011
0010
1010
,
1000
1001
0001
0101
,
0100
0010
0100
0010
,
1000
1000
0001
0001
,
0110
1000
0001
1000
,
0001
1000
0001
1000
,
0010
0100
0010
0100
,
0001
0010
1000
0100
,
0010
0100
1000
0001
,
0100
1000
0001
0010
,
0100
1000
0100
1000
,
0011
0101
0011
0101
,
0100
1001
0100
1001
,
0100
1001
0100
1001
,
0010
0100
0010
0100
,
1000
0001
0100
0010
,
1000
0011
1000
0011
,
1000
0011
1000
0011
,
0100
1000
0001
0010
,
0100
0100
0100
0100
,
0010
1100
0010
1100
,
0010
1100
0010
1100
,
0010
0010
0001
0001
,
0100
0100
1000
1000
,
0010
0100
0010
1000
,
0010
0100
0010
1000
,
0010
0001
0010
0100
,
0010
0001
0010
0100
,
0010
1001
0100
1001
,
0010
1001
0100
1001
,
0010
0100
0010
0001
,
0010
0100
0010
0001
,
0100
1000
0001
0010
,
1000
0100
0010
0001
,
0010
0001
0100
1000
,
0001
0100
1000
0010
,
1100
0000
0000
0000
,
0011
0000
0000
0000
,
0101
0000
0000
0000
,
1100
0000
0000
0000
,
1010
0000
0011
0000
,
1010
0000
0011
0000
,
0101
0000
1100
0000
,
0101
0000
1100
0000
,
0100
0010
0100
0010
,
1000
0001
1000
0001
,
1000
0010
1000
0010
,
0001
0100
0001
0100
,
0010
0010
1000
1000
,
0001
0001
0100
0100
,
1000
1000
0001
0001
,
0010
0010
0010
0010
,
1000
0001
0100
0100
,
0100
0100
0100
0100
,
1000
0100
0010
0001
,
1000
0010
0001
0100
,
0010
0001
0010
0001
,
0010
0001
0010
0001
,
1100
1100
1100
1100
,
1100
1100
1100
1100
,
0010
0010
0001
0001
,
0010
0010
0001
0001
,
0100
0010
1000
0001
,
0110
0000
1000
0001
,
0100
0100
0010
0010
,
1000
1000
0001
0001
,
0100
1000
0010
0001
,
1000
0100
0010
0001
,
1000
0000
0000
0000
,
0010
0000
0000
0000
,
0100
0000
0000
0000
,
0010
0000
0000
0000
,
0010
0000
0000
0000
,
0100
0000
0000
0000
,
1001
0000
0000
0000
,
1001
0000
0000
0000
,
0100
0000
0010
0000
,
0100
0000
1000
0000
,
0100
0000
0001
0000
,
0010
0000
1000
0000
,
0001
0000
0100
0000
,
1000
0000
0100
0000
,
0001
0000
1000
0000
,
0010
0000
0100
0000
,
0001
0100
0001
0100
,
1000
0100
1000
0100
,
0001
0100
0001
0100
,
1000
0100
1000
0100
,
0010
1000
0010
1000
,
0100
0100
0001
0001
,
0010
0010
1000
1000
,
0001
0100
0001
0100
,
0001
0001
0001
0001
,
1000
1000
1000
1000
,
0010
0010
0010
0010
,
0100
0100
0100
0100
,
0010
1100
0010
1100
,
0010
1100
0010
1100
,
0100
0011
0100
0011
,
0100
0011
0100
0011
,
1000
0001
1000
0001
,
0100
0010
0100
0010
,
1000
0100
1000
0100
,
0001
0010
0001
0010
,
0100
1000
0010
0001
,
0010
1000
0001
0100
,
1000
0100
0010
0001
,
0010
0001
0100
1000
,
0010
0010
0010
0010
,
0100
0100
0100
0100
,
1000
0001
0100
0010
,
1000
0001
0100
1000
,
0001
0001
0010
0010
,
0001
0001
1000
1000
,
0001
0001
0100
0100
,
0010
0100
0010
0100
,
1001
0000
0000
0000
;

//---------------dance-single - Copied from----------------
#NOTES:
     dance-single:
     Copied from:
     Medium:
     8:
     0.481,0.591,0.600,0.000,0.000,540.000,117.000,0.000,0.000,0.000:
0000
0000
0000
0000
,
0000
0000
0000
0000
,
0000
0000
0000
0000
,
0000
0000
0000
0000
,
1000
1000
1000
1000
,
0010
0010
0010
0010
,
0001
0001
0001
0001
,
0100
0100
0100
0100
,
0010
1000
0010
0001
,
0010
1000
0010
0001
,
0100
1100
0100
1100
,
0100
1100
0100
1100
,
0010
0011
0010
0011
,
0010
0011
0010
0011
,
0100
1000
0100
0000
0010
0001
0010
0000
,
0100
0010
0100
0000
1000
0001
1000
0000
,
1001
0100
1001
0100
,
1001
0100
1001
0100
,
1001
0010
1001
0010
,
1001
0010
1001
0010
,
0100
1000
0100
0000
0100
0000
0100
0000
,
0010
0001
0010
0000
0010
0000
0010
0000
,
0100
0010
0100
0000
0100
0000
0100
0000
,
1000
0001
1000
0000
1000
0000
1000
0000
,
0110
0011
0110
0011
,
0110
0000
0011
0000
0110
0000
0100
1000
,
0010
0001
0010
0001
,
0100
1000
0100
1000
,
0011
1100
0011
1100
,
0011
1100
0011
1100
,
0010
0001
0100
0000
1000
0010
0100
0000
,
0001
0001
1000
1000
,
0011
0100
0100
0100
,
1000
1000
1000
1000
,
0010
0001
0010
0001
,
0100
0100
0100
0000
1000
1000
1000
0000
,
0010
0101
0010
0101
,
0010
0101
0010
0101
,
0010
1001
0010
1001
,
0010
1001
0010
1001
,
0100
1000
0100
0000
0010
0001
0010
0000
,
0100
0010
0100
0000
1000
0001
1000
0000
,
0100
1100
1000
1010
,
0010
0011
0001
0101
,
0100
1000
0100
0000
0010
0010
0010
0000
,
0001
0100
0001
0000
1000
1000
1000
0000
,
0010
0110
0100
0110
,
0010
1000
0010
0000
1000
0001
1000
0000
,
0110
0000
0001
0000
,
1000
0000
0001
0000
,
0110
0000
1000
0000
,
0100
0000
1000
0000
,
0011
0000
0100
0000
,
0001
0000
0001
0000
,
1001
0000
0100
0000
,
1000
0000
0001
0000
,
0100
1001
0100
1010
,
0100
0011
0100
0110
,
0100
1001
0100
1010
,
0100
0011
0100
0101
,
1000
0001
1000
0001
,
0100
0010
0100
0010
,
1000
0100
0100
0000
0010
0001
0001
0000
,
0100
0010
0100
0010
1000
0000
0001
0000
,
0100
1001
0010
0010
,
0010
0010
0010
0010
,
1000
1000
1000
1000
,
1000
1000
1000
1000
,
0001
0010
0001
0000
0001
1000
0001
0000
,
0001
0010
0001
0000
0001
1000
0001
0000
,
1000
0010
1000
0000
1000
0001
1000
0000
,
1000
0100
1000
0000
1000
0010
1000
0000
,
0001
0100
0001
0010
,
0001
0100
0001
0010
,
0001
0100
0001
0010
,
1001
0000
0110
0110
,
1000
1000
0001
0001
,
0100
0100
0010
0010
,
1000
0100
0001
0010
,
1000
0100
0001
0010
,
1100
0011
1100
0011
,
0110
1001
0110
1001
,
0100
0000
0100
0000
,
0100
0000
0100
0000
,
0010
0100
0011
0011
,
0010
0100
0011
0011
,
1000
1000
0001
0001
,
0110
1100
0110
0011
,
0100
1000
0100
0000
0000
0000
0010
0000
,
0001
0100
0001
0000
0000
0000
0000
0000
,
0010
0010
0010
0000
0100
0100
0100
0000
,
1000
0001
1000
0001
1000
0000
0010
0000
,
0100
0000
0000
0001
0100
0000
0000
1000
,
0010
0000
0000
0100
0010
0000
0000
0001
,
1000
0000
0000
0100
1000
0000
0000
0001
,
0010
0010
1000
0001
,
1100
1100
1100
1100
,
0011
0011
0011
0011
,
0110
0110
0110
0110
,
1001
1001
1001
1001
,
0011
0100
0011
0100
,
1010
0100
1010
0100
,
0010
0001
0010
0001
,
0100
0100
0100
0100
,
1000
0010
1000
0000
0010
0001
0010
0000
,
0001
0100
0001
0000
0100
0010
0100
0000
,
0010
1000
0010
0000
1000
0001
1000
0000
,
0001
0100
0001
0000
0100
0010
0100
0000
,
0010
1000
0010
0000
1000
0001
1000
0000
,
0001
0010
0001
0000
0010
1000
0010
0000
,
1000
0001
1000
0000
0001
0100
0001
0000
,
0100
0010
0110
0000
0100
0010
0110
0000
,
1000
0100
1000
0100
,
0001
0010
0001
0010
,
0100
0010
0100
0010
,
1000
0001
1000
0001
,
1100
1100
1100
1100
,
1100
1100
1100
1100
,
0110
0110
0110
0110
,
0110
0110
0110
0110
,
0001
0010
0001
0000
0010
0001
0010
0000
,
1000
0010
1000
0000
0010
1000
0010
0000
,
0100
0010
0100
0000
0010
0100
0010
0000
,
1000
0001
1000
0000
0001
1000
0001
0000
,
0100
1000
0010
0001
,
0100
1000
0010
0001
,
0100
0100
0010
0010
,
0100
0010
0100
0010
0100
0000
0010
0000
,
1001
0000
0000
0000
;

//---------------dance-single - Copied from----------------
#NOTES:
     dance-single:
     Copied from:
     Hard:
     9:
     0.588,0.623,0.338,0.000,0.038,737.000,66.000,0.000,0.000,0.000:
0000
0000
0000
0000
,
0000
0000
0000
0000
,
0000
0000
0000
0000
,
0000
0000
0000
0000
,
1000
0000
0000
0001
0100
0000
0000
0010
,
1000
0000
0000
0001
0010
0000
0000
0100
,
0100
0000
0000
1000
0001
0000
0000
0100
,
0100
0000
0000
0001
0010
0000
0000
0000
,
0000
1001
0000
1010
0000
1001
0000
1010
,
0000
1001
0000
0101
0000
1001
0000
0101
,
0000
0110
0000
1100
0000
0110
0000
1100
,
0000
0110
0000
0011
0000
0110
0000
0011
,
0000
1001
0000
1100
0000
1001
0000
1100
,
0000
1001
0000
0101
0000
1001
0000
0101
,
0000
0110
0000
1100
0000
0110
0000
0011
,
1001
0110
0110
0110
,
1000
0100
0010
0001
1000
0100
0010
0001
,
1000
0100
0010
0001
1000
0100
0010
0001
,
0100
0010
1000
0001
0100
0010
1000
0001
,
0100
0010
1000
0001
0100
0010
1000
0001
,
0100
0100
1000
1000
0010
0010
0001
0001
,
0100
0100
0010
0010
1000
1000
0001
0001
,
0100
1000
0100
0001
0100
1000
0100
0001
,
0100
0010
0100
1000
0100
0010
0100
1000
,
0100
0100
0010
0010
,
1000
0000
0000
0000
1000
0000
0000
0000
0001
0000
0000
0000
0001
0000
0000
0001
,
0100
1000
0010
0001
,
0100
0100
1000
1000
,
0010
0001
0100
1000
,
0010
0000
0000
0000
0100
0000
0000
0000
0010
0000
0000
0000
0100
0000
0000
0100
,
0001
1000
0110
0110
,
1000
0010
1000
0010
1000
0010
1000
0010
,
1000
0001
0100
0000
1000
0001
0100
0000
,
1000
0001
0100
0000
1000
0001
0100
0000
,
0001
0100
0010
0000
0001
0100
0010
0000
,
0001
0100
0010
0000
0001
0100
0010
0000
,
1000
0100
0010
0000
1000
0100
0010
0000
,
1000
0100
0010
0000
1000
0100
0010
0000
,
0100
0100
0001
0001
1000
1000
0010
0010
,
0100
0010
0100
0010
0100
0010
0100
0010
,
0100
1000
0100
1000
,
0010
0001
0010
0001
,
0100
0010
0100
0010
,
1000
0001
1000
0001
,
0110
1100
0110
0011
,
0110
1100
0110
0011
,
0100
1000
0010
0001
0100
0010
1000
0100
,
0100
1000
0010
0100
0001
0010
0001
0100
,
1001
0010
0000
0100
0000
0001
0000
0001
,
0000
0100
0000
0010
0000
1000
0001
1000
,
0000
0010
0000
0010
0000
0001
0000
0100
,
0000
1000
0000
0010
0000
0100
0001
0100
,
0010
0100
0000
1000
0000
0001
0000
0100
,
0000
0010
0000
0010
0000
1000
0001
1000
,
0100
1000
0000
0010
0000
0010
0000
0001
,
0100
1001
0100
1001
,
0000
0100
0000
0010
0000
0010
0000
0010
,
0000
0100
0000
1000
0000
0001
0010
0100
,
1000
0100
0000
0010
0000
0010
0000
0010
,
0000
0001
0000
1000
0000
0010
0100
1000
,
0001
0010
0000
0001
0000
0100
0000
1000
,
0000
0010
0000
0100
0000
0001
0010
0001
,
1000
1000
0000
0010
0000
0100
0000
0001
,
0110
1000
0110
0001
,
0100
0000
1000
0000
0100
0000
0000
0000
0010
0001
0010
0000
0100
0000
0001
0000
,
1000
0000
0010
0000
0100
0000
0010
0000
0001
0100
0001
0000
0100
0000
1000
0000
,
0010
0100
0001
0010
0001
0010
0001
0010
,
0100
0100
1000
0010
0001
0100
0010
0010
,
0100
1000
0100
0010
0100
1000
0100
0001
,
0100
1000
0100
0010
0100
1000
0100
0001
,
0100
1000
0100
0000
0010
0000
0001
0000
0001
0000
0100
0000
0010
0000
1000
0000
,
0001
0100
0001
0000
0100
0000
0010
0000
1000
0000
0001
0000
1000
0000
0001
0000
,
0100
1000
0010
0001
0100
1000
0010
0001
,
0100
1000
0010
0001
0100
1000
0010
0001
,
0100
0010
1000
1000
0100
0010
0001
0001
,
1100
0000
1100
0000
0010
0100
0010
0100
,
0001
0001
1000
1000
0010
0010
0100
0100
,
0001
0001
1000
1000
0010
0010
0100
0100
,
1000
0100
1000
0100
0001
0010
0001
0010
,
0100
0010
0100
0010
1000
0001
1000
0001
,
1000
1100
0100
0101
,
0001
0101
0100
1100
,
1000
1100
0100
0101
,
0001
0101
0100
1100
,
1000
0000
1000
1000
0000
1000
1000
0000
,
0001
0000
0001
0001
0000
0001
0001
0000
,
0100
0000
0100
0100
0000
0100
0100
0000
,
0010
0000
0000
0000
0110
0000
0000
0000
0100
0000
0000
0000
1100
0000
0000
0100
,
0001
0000
0000
0000
1000
0000
1000
0000
1000
0000
0000
0000
0010
0000
0000
0010
,
0001
0000
0000
0000
0100
0000
0010
0000
0100
0000
0000
0000
1000
0000
0000
1000
,
0010
0000
0000
0000
0001
0000
0000
0001
0100
0000
0000
0000
0010
0000
0000
0010
,
0100
0000
0000
0000
1000
0000
0000
1000
0001
0000
1000
0000
0010
0000
0100
0010
,
0100
0000
0000
0000
0000
0000
1000
0010
1000
0000
0000
0000
0000
0000
0001
0010
,
0001
0000
0100
0100
,
1000
0100
0010
0001
1000
0100
0010
0001
,
1000
0100
0010
0001
1000
0100
0010
0001
,
0100
1000
0100
0001
0100
1000
0100
0001
,
0100
1000
0100
0001
0100
1000
0100
0001
,
0010
1000
0010
0001
0010
1000
0010
0001
,
0010
1000
0010
0001
0010
1000
0010
0001
,
0100
1000
0010
0001
1000
0100
0010
0001
,
0010
1000
0001
0100
0010
0001
1000
0100
,
0001
0010
0001
0000
1000
0100
1000
0000
,
0010
0010
0110
0000
0100
0100
0101
0000
,
1000
0100
0001
0010
0100
1000
0001
0100
,
0010
0010
1000
0001
1000
0100
1000
0100
,
0001
0010
1000
0100
0010
0100
1000
0001
,
1000
0100
0010
0001
0100
0010
1000
0001
,
0100
1000
0100
0000
0010
0100
0010
0000
,
0001
0001
0001
0100
1000
1000
1000
1000
,
0010
0000
0010
0000
0100
0001
0100
0001
,
0100
0000
1000
0010
0100
0001
0010
0010
,
0010
1000
0000
0001
0000
0100
0000
0100
,
0000
0010
0000
1000
0000
0001
0010
0001
,
0100
0001
0000
1000
0000
0010
0000
0100
,
0000
0100
0000
1000
0000
0001
0010
0100
,
0010
1000
0000
0001
0000
0100
0000
0100
,
0000
1000
0000
0001
0000
0010
0010
1000
,
1000
0001
0000
0100
0000
1000
0000
0010
,
0000
0100
0000
0001
0000
1000
0100
0001
,
0010
0010
0000
1000
0000
0010
0000
0001
,
0000
0010
0000
0100
0000
0001
0001
1000
,
0010
0100
0000
0001
0000
0100
0000
1000
,
0000
0010
0000
0010
0000
0100
0001
0100
,
0001
1001
1000
1010
,
0010
0110
0100
0101
,
0001
0100
1000
0010
0001
0100
0010
1000
,
0010
0100
0010
0001
0010
0100
0010
0100
,
1001
0000
0000
0000
;

//---------------dance-single - Copied from----------------
#NOTES:
     dance-single:
     Copied from:
     Beginner:
     2:
     0.167,0.230,0.062,0.000,0.000,216.000,12.000,0.000,0.000,0.000:
0000
0000
0000
0000
,
0000
0000
0000
0000
,
0000
0000
0000
0000
,
0000
0000
0000
0000
,
1000
0000
0000
0000
,
0001
0000
0000
0000
,
0100
0000
0000
0000
,
1000
0000
0000
0000
,
0001
0000
0001
0000
,
1000
0000
1000
0000
,
0010
0000
0100
0000
,
1000
0000
0100
0000
,
1000
0000
0000
0000
,
0001
0000
0000
0000
,
0100
0000
0000
0000
,
1000
0000
1000
0000
,
0010
0000
0000
0000
,
0100
0000
0000
0000
,
1000
0000
0000
0000
,
0010
0010
0010
0000
,
0100
0000
0000
0000
,
1000
0000
0001
0000
,
0100
0000
0010
0000
,
0100
0100
0100
0000
,
0000
1000
0000
0001
,
0000
1000
0000
0010
,
0010
0000
0000
0000
,
0100
0000
0100
0000
,
0000
1000
0000
0010
,
0000
1000
0000
0001
,
0001
0000
0100
0000
,
1000
0000
0000
0000
,
0010
0000
0010
0000
,
0100
0000
1000
0000
,
0001
0000
0100
0000
,
1000
0000
0010
0000
,
0100
0000
0000
0000
,
1000
0000
0000
0000
,
0001
0000
0000
0000
,
0010
0000
0000
0000
,
0100
0000
0010
0000
,
0100
0000
0010
0000
,
0100
0000
1000
0000
,
0100
0000
1000
0000
,
0100
0000
0010
0000
,
0100
0000
0010
0000
,
0100
0000
0001
0000
,
0100
0000
0001
0000
,
1001
0000
0000
0000
,
0000
0000
0000
1001
,
1001
0000
0000
0000
,
0000
0000
0000
1001
,
1001
0000
0000
0000
,
0000
0000
0000
0110
,
0110
0000
0000
0000
,
1000
1000
1000
1000
,
1000
0000
0000
0000
,
0010
0000
0000
0000
,
0100
0000
0000
0000
,
1000
0000
0000
0000
,
0001
0000
0000
0000
,
0100
0000
0000
0000
,
1000
0000
0000
0000
,
0010
0000
0010
0010
,
0010
0000
1000
0000
,
0100
0000
0100
0000
,
1000
0000
0100
0000
,
0001
0000
0001
0000
,
0001
0000
0010
0000
,
1000
0000
0001
0000
,
0100
0000
1000
0000
,
0010
0010
0010
0010
,
0010
0000
0100
0100
,
0100
0000
1000
1000
,
1000
0000
0001
0001
,
0001
0000
0100
0000
,
0010
0000
0000
0000
,
1000
0000
0000
0000
,
0010
0000
0000
0000
,
0001
0000
0000
0000
,
0110
0000
0000
0000
,
0100
0000
0000
0000
,
0110
0000
0000
0000
,
0100
0000
0000
0000
,
0110
0000
0000
0000
,
0010
0000
0000
0000
,
1001
0000
0000
0000
,
1000
0000
0000
0010
,
0010
0000
0000
0100
,
0100
0000
0000
1000
,
1000
0000
0000
0000
,
0001
0000
0100
0100
,
0100
0000
0000
1000
,
1000
0000
0001
0000
,
0100
0000
0100
0000
,
0100
0000
0100
0000
,
0100
0000
1000
0000
,
0001
0000
0010
0000
,
0010
0000
0010
0000
,
0010
0000
0010
0000
,
0100
0000
1000
0000
,
0001
0000
1000
0000
,
0100
0000
1000
0000
,
0010
0010
0010
0000
,
0000
1000
0000
0001
,
0000
1000
0000
0010
,
0000
0100
0000
1000
,
0000
0001
0000
0100
,
0000
0010
0000
0010
,
0000
1000
0000
0001
,
0000
0100
0000
1000
,
0000
0010
0000
0100
,
0100
0000
1000
0000
,
0001
0000
0100
0000
,
1000
0000
0001
0000
,
0010
0010
0010
0010
,
0010
0000
0000
0000
,
1000
0000
0000
0000
,
0001
0000
0000
0000
,
0100
0000
0000
0000
,
1000
0000
1000
0000
,
0010
0000
0010
0000
,
1000
0000
1000
0000
,
0010
0000
0010
0000
,
0100
0000
0100
0000
,
1000
0000
1000
0000
,
0001
0000
0010
0000
,
0100
0000
0010
0000
,
1001
0000
0000
0000
;

//---------------dance-single - Copied from----------------
#NOTES:
     dance-single:
     Copied from:
     Challenge:
     10:
     0.891,1.000,0.497,0.021,0.561,1115.000,97.000,4.000,0.000,0.000:
0000
0000
0000
0000
,
0000
0000
0000
0000
,
0000
0000
0000
0000
,
0000
0000
0000
0000
,
1000
0010
0001
0100
1000
0010
0010
0010
,
0001
0100
1000
0010
0001
0100
1000
0100
,
0010
1000
0010
0001
0010
0100
0001
0001
,
1000
1000
1000
1000
0100
0100
0100
0100
,
0010
1000
0000
0001
0000
0100
0100
0100
,
0100
0100
0000
1000
0000
0010
0010
0010
,
0010
0010
0000
0100
0000
0001
1000
0001
,
0100
0010
0000
1000
1000
0001
0100
0010
,
0010
1000
0000
0001
0000
0100
1000
0010
,
0100
0010
0000
0001
0000
1000
0100
0010
,
0001
0100
0000
1000
0000
0010
0001
0100
,
0010
1000
0001
0000
0100
0100
1000
1000
,
0010
0100
0010
0100
0010
0000
1000
0000
0001
0100
0001
0100
0001
0000
0010
0000
,
1000
0100
1000
0100
1000
0000
0001
0000
0010
0001
0010
0001
0010
0000
0100
0000
,
1000
0100
1000
0010
1000
0000
0001
0000
0100
0010
0100
0001
0100
0000
0010
0000
,
0001
1000
0001
0010
0001
0000
0100
0000
0010
1000
0010
0100
0010
0000
0001
0000
,
1000
0010
0001
0100
0010
0000
1000
0000
0001
0100
1000
0100
0010
0000
0001
0000
,
0100
1000
0010
0001
0010
0000
0100
0000
0010
1000
0010
0100
1000
0000
0001
0000
,
0100
1000
0100
0010
0001
0000
0010
0000
0100
1000
0010
0100
1000
0000
0001
0000
,
0010
0100
0010
1000
0001
0000
0100
0000
0010
1000
0100
0010
0001
0100
0010
0000
,
1100
1100
1100
0000
0011
0011
0011
0000
,
0110
0000
0110
0000
0110
0000
0000
0000
1001
0000
1001
0000
1001
0000
0100
0010
,
0110
1100
0110
0000
0101
0011
0101
0000
,
1100
1010
0011
0000
0101
1100
1010
0000
,
0011
0101
1100
0000
1010
1010
0011
0000
,
0110
0000
0110
0000
1100
0000
0000
0000
1001
0000
0011
0000
0101
0000
1000
0100
,
1100
0011
0110
0000
1001
0110
1100
0000
,
0011
0101
1010
0000
1100
1010
0101
0000
,
1000
0010
0001
0010
1000
0010
0001
0010
,
1000
0010
0001
0010
1000
0010
0010
0010
,
1000
0100
0001
0100
1000
0100
0001
0100
,
1000
0100
0001
0100
1000
0100
0001
0100
,
0100
0100
0010
1000
0010
0001
0010
1000
,
0010
0001
0010
1000
0010
0001
1000
0001
,
1000
0001
0100
1000
0100
0001
0100
1000
,
0100
0001
0100
1000
0100
0001
0100
1000
,
0001
0010
0001
0000
0100
0000
1000
0000
0010
0100
0010
0000
1000
0000
0001
0000
,
0100
1000
0010
0000
0100
0000
0001
0000
0010
0001
0100
0000
1000
0000
0010
0000
,
1000
0100
0010
0000
0001
0000
0100
0000
0001
0010
0100
0000
1000
0000
0010
0000
,
0100
0010
1000
0000
0001
0000
0100
0000
1000
0100
1000
0000
0100
0010
0001
0000
,
0010
1000
0100
0001
1000
0100
0010
0010
,
1000
0001
0100
1000
0010
0010
0001
0100
,
1000
0100
1000
0100
0100
0001
0010
0010
,
0010
1000
0010
0001
0100
1000
0100
0001
,
0001
0000
0010
1000
0000
0000
1000
0010
0000
0000
0010
0001
0000
0000
0001
0010
,
0000
0000
0010
0100
0000
0000
0100
0001
0000
0000
0001
1000
0001
1000
0001
0000
,
0100
0000
0010
1000
0000
0000
1000
0001
0000
0000
0001
0100
0000
0000
0100
1000
,
0000
0000
1000
0010
0000
0000
0010
0001
0000
0000
0001
0100
0001
0010
0001
0000
,
1000
0000
0010
0100
0000
0000
0100
1000
0000
0000
1000
0100
0000
0000
0100
0001
,
0000
0000
0001
0010
0000
0000
0010
0001
0000
0000
0001
0100
1000
0100
0001
0000
,
1000
0000
0010
0100
0000
0000
0100
0010
0000
0000
0010
1000
0000
0000
1000
0001
,
0000
0000
0001
0100
0000
0000
0100
1000
0000
0000
1000
0100
0001
0010
0001
0000
,
0100
0000
1000
0010
0100
0000
0000
0000
0001
0000
0100
0010
1000
0000
0000
0000
,
0100
0000
1000
0010
0001
0000
0000
0000
0010
0000
0010
0100
1000
0000
0000
0000
,
0001
0000
0001
0100
1000
0000
0000
0000
0010
0000
0100
1000
0100
0000
0000
0000
,
0001
0000
0010
0100
0001
0000
0000
0000
1000
0000
0010
0001
0100
0000
0000
0000
,
1000
0000
0010
0001
0010
0000
1000
0000
1000
0000
0010
0001
0010
0000
1000
0000
,
1000
0000
0100
0010
0100
0000
1000
0000
1000
0000
0010
0001
0010
0000
1000
0000
,
0001
0000
0100
0010
0100
0000
0001
0000
0001
0000
1000
0100
1000
0000
0001
0000
,
0110
0000
0000
0000
0110
0000
0000
0000
1000
0001
0100
0010
1000
0100
0010
0001
,
0100
0000
1001
0000
0010
0000
0000
0000
0100
1000
0100
0001
0100
0000
0010
0000
,
1000
0100
0010
0001
0010
0000
0100
0000
0001
1000
0010
0100
1000
0000
0001
0000
,
0100
1000
0010
0001
0100
0000
0010
0000
1000
0100
1000
0100
0001
0000
0010
0000
,
1000
0001
0100
1000
0010
0000
0001
0000
0100
1000
0010
0100
1000
0000
0001
0000
,
0100
1100
1000
1001
0001
0101
0100
0110
,
0010
0011
0001
0101
0100
1100
1000
1010
,
0010
0001
0010
0001
0010
0001
0010
0001
,
0100
1000
1000
0010
0001
0100
0010
1000
,
0100
0001
0100
1000
0100
0000
0001
0000
0010
1000
0010
0001
0010
0000
0100
0000
,
1000
0100
1000
0010
1000
0000
0001
0000
0010
0100
0010
0001
0010
0000
1000
0000
,
0001
0100
0001
0010
0001
0000
1000
0000
0010
0100
0010
1000
0001
0000
0100
0000
,
2002
0000
3003
0000
0220
0000
0330
0000
1000
0100
0010
0001
0100
0010
1000
0001
,
0100
1000
0100
1000
0100
0000
0010
0000
0100
0001
0100
0001
0100
0000
1000
0000
,
0001
0010
0001
0010
0001
0000
0100
0000
1000
0100
1000
0100
1000
0000
0010
0000
,
0100
1000
0100
0001
0100
0010
0100
0001
,
0100
1000
0100
0001
0100
1000
0100
0010
,
0100
0000
1000
0010
0000
1000
0010
0000
1000
0010
0000
1000
0010
0000
0001
0000
,
0100
0000
0010
0100
0000
0010
0100
0000
0010
0100
0000
0010
0100
0000
0001
0000
,
1000
0000
0010
1000
0000
0010
1000
0000
0010
1000
0000
0010
1000
0000
0001
0000
,
0100
0000
0010
0001
0000
0010
0001
0000
0010
0001
0000
0010
0001
0000
0100
0000
,
0010
0000
1000
0100
0000
0001
0010
0000
0100
0010
0000
1000
0001
0000
0100
0000
,
1000
0000
0010
0001
0000
0010
0100
0000
0010
1000
0000
0100
0001
0000
0010
0000
,
1000
0000
0100
0001
0000
0010
0100
0000
1000
0100
0000
0001
0010
0000
0100
0000
,
1000
0000
0001
0010
0000
0001
0010
0000
0100
1000
0000
0010
0100
0000
0000
0100
,
1000
0000
0010
0000
0001
0000
0000
0000
0100
0000
0000
0100
0010
0000
0000
0010
,
1000
0000
0001
0000
0100
0000
1000
0000
0010
0000
0001
0000
0001
0000
0000
0001
,
0100
0000
0000
0100
0010
0000
0000
0010
1000
0000
0000
1000
0001
0000
0000
0001
,
0100
0000
1000
0000
0000
0000
1010
0000
0000
0000
0011
0000
0000
0000
0100
0010
,
0100
1000
0001
0010
1000
1000
0000
1001
,
0001
0110
0000
1100
0000
0110
0000
0011
,
0010
1000
0100
0010
0010
1000
0001
0100
,
1000
0000
1000
0000
0010
0000
0100
0000
1000
0100
0010
0001
0010
0100
1000
0010
,
0100
1000
0100
0001
0010
0010
1000
0001
,
0100
1000
0010
0001
0010
0100
0100
1000
,
1000
0001
0100
1000
0010
0010
0001
0010
,
0100
0100
1000
0100
0010
0001
1000
0100
,
1000
0010
0010
1000
0010
0010
0100
0001
,
0010
1000
0100
1000
0001
0100
0010
1000
,
0001
0100
0001
0100
0001
0010
0001
0010
,
0001
0100
0001
0100
0001
0010
0001
0010
,
1000
0000
0001
0100
0010
0000
1000
0000
0001
0000
0100
1000
0010
0000
0100
0000
,
0001
0000
1000
0100
0010
0000
0001
0000
0001
0000
0010
0100
1000
0000
0001
0000
,
0100
0000
0001
0010
0100
0000
1000
0000
0001
0000
0100
0010
1000
0000
0001
0000
,
0100
0000
1000
0100
0001
0000
0010
0000
1000
0100
1000
0000
0010
0001
0010
0000
,
1000
0100
0010
0001
0100
0000
0010
0000
1000
0001
0100
1000
0010
0000
0100
0000
,
1000
0001
1000
0010
0001
0000
0100
0000
0010
0001
0010
0100
1000
0000
0001
0000
,
0010
0001
0010
0100
1000
0000
0001
0000
0100
1000
0010
0000
0100
0001
0010
0001
,
0100
1000
0100
0000
0100
0001
0100
0000
0100
1000
0100
0000
0100
0001
0100
0000
,
1000
0010
0001
0010
1000
0100
1000
0001
,
1000
0010
0010
0100
0001
1100
1100
1100
,
0010
0001
0100
1000
0010
0010
0100
0100
,
0100
1000
0001
0100
0010
1001
1001
1001
,
0100
1000
0100
0001
0100
0010
0100
0001
,
1000
1000
0010
0001
0100
0011
0011
0011
,
0100
1000
0010
0001
0010
0100
0100
0100
,
1000
1000
0001
0100
0010
0110
0110
0110
,
1000
0100
0010
0001
0010
0000
0001
0000
0100
0000
1000
0000
0010
0000
0100
0000
,
0001
0010
1000
0010
0001
0000
0100
0000
1000
0000
1000
0000
0010
0000
0010
0000
,
0100
1000
0001
0010
0001
0000
0100
0000
0010
0000
0010
0000
1000
0000
1000
0000
,
0001
0100
0010
1000
0001
0100
1000
0010
0100
0000
0001
0000
0100
0000
1000
0000
,
0110
0011
0110
1100
0110
0011
0110
1100
,
1010
0011
1010
0011
1010
0011
1010
0011
,
0100
1000
0100
0010
0001
0100
0010
0010
,
0100
1000
0001
0010
0100
0000
0010
0000
0100
0010
0100
0010
0100
0010
0100
0010
,
1001
0000
0000
0000
;
