#TITLE:My-Pace Daiou (Full Version);
#SUBTITLE:- Genshiken Opening;
#ARTIST:Manzo;
#TITLETRANSLIT:;
#SUBTITLETRANSLIT:;
#ARTISTTRANSLIT:;
#CREDIT:;
#BANNER:My-Pace Daiou (Full Version).png;
#BACKGROUND:My-Pace Daiou (Full Version)-bg.png;
#LYRICSPATH:;
#CDTITLE:Dj DMA Otaku Original.png;
#MUSIC:My-Pace Daiou (Full Version).mp3;
#OFFSET:0.000;
#SAMPLESTART:54.573;
#SAMPLELENGTH:12.000;
#SELECTABLE:YES;
#BPMS:0.000=180.000,284.000=153.200,290.500=180.000,483.000=90.000,493.500=180.000,639.000=130.000;
#STOPS:493.500=0.580
;
#BGCHANGES:0.000=My-Pace Daiou (Full Version).avi=1.000=1=1=0,
99999=-nosongbg-=1.000=0=0=0 // don't automatically add -songbackground-
;
// cache tags:
#FIRSTBEAT:13.000;
#LASTBEAT:654.000;
#SONGFILENAME:Songs/Otaku's Dream 1st Anime Mix/DJ DMAxel - My-Pace Daiou (Full Version)/My-Pace Daiou (Full Version).sm;
#HASMUSIC:1;
#HASBANNER:1;
#MUSICLENGTH:232.259;
// end cache tags

//---------------dance-single - ----------------
#NOTES:
     dance-single:
     :
     Hard:
     7:
     0.515,0.598,0.387,0.129,0.000,717.000,90.000,30.000,0.000,0.000:
0000
0000
0000
0000
,
0000
0000
0000
0000
,
0000
0000
0000
0000
,
0000
1001
0000
0000
,
0000
0000
0000
0000
,
0000
0000
0000
0000
,
0000
0000
0000
0000
,
0110
1000
0000
0000
,
1001
0000
0000
0000
,
0110
0000
0000
0000
,
1001
0010
1000
0010
,
0110
0010
0001
1000
,
1010
0100
0110
0010
,
0010
0001
0001
0000
1000
0010
1000
0000
,
0100
0010
0100
0010
0001
0000
0000
0000
,
0001
0100
0010
0010
,
0100
0010
1000
0010
,
0100
0100
0001
0010
,
1000
0010
0100
0010
,
0002
0000
0000
0003
2000
0000
0000
3000
,
0020
0000
0000
0030
0200
0000
0000
0300
,
0002
0000
0000
0003
1000
0000
0010
0000
,
1000
1100
0010
0110
,
0001
0100
1000
0010
1000
0010
1000
0010
,
0100
0010
0010
0000
0001
0100
1000
0010
,
0001
0010
0001
0010
0100
0010
0010
0001
,
0000
0000
0100
0001
,
0100
0101
1000
0010
,
0100
0110
0010
0011
,
0001
0100
0010
0001
,
0001
0100
0101
1000
,
0010
0100
0100
0001
1000
0010
1000
0010
,
0100
0010
0100
0001
0100
0000
0101
0000
,
0010
1000
0010
1000
0010
0100
0010
0100
,
0001
0100
1000
0010
0000
0000
0101
0000
,
1010
0000
0000
2000
0000
0000
3000
0000
,
0010
0010
0010
0200
0000
0000
0000
0300
,
0002
0103
2000
3010
,
0200
0310
0002
0013
,
2000
3100
0010
0010
,
0100
0110
1001
1010
,
0010
1000
0010
0100
,
0010
0001
0010
0001
,
0001
0100
1000
0000
1000
0010
1000
0000
,
0010
1000
0010
0100
0010
0000
0010
0000
,
0011
0001
0100
0001
,
0010
1000
0010
1000
,
1000
0010
1000
0000
0100
0010
0100
0000
,
0001
0100
1000
0010
0001
0000
0010
0000
,
0010
0011
0001
0101
,
1000
1100
0010
0110
,
1000
0010
1000
0000
0100
0001
0100
0000
,
0001
0100
1000
0000
0010
0001
0100
0000
,
0010
0001
0010
0001
,
0101
0010
0110
1000
,
0010
1000
0010
0000
0100
0001
1000
0100
,
0010
0001
0010
0100
1000
0000
0001
2000
,
0000
0000
0000
0000
,
3001
0010
1000
0010
,
0100
0110
1000
1010
,
0100
0101
0010
0011
,
0001
0100
0100
0000
0010
1000
0010
0000
,
0100
0001
0101
0000
0020
0000
0030
0000
,
0001
1000
0010
1000
0010
1000
0010
0100
,
0010
0100
0001
0000
0010
0100
0010
0000
,
0011
0000
0001
0100
1000
0010
0100
0010
,
0000
0001
0100
1000
,
1010
0100
0110
0010
,
0011
0100
0101
0010
,
1010
0100
0101
0010
,
1010
0110
0101
0101
,
1010
0000
0000
0000
0000
0000
0000
0101
,
0000
0000
0000
0000
0000
0000
1000
0010
,
1000
0010
0100
0010
0001
0100
2000
0000
,
0000
3000
0010
0000
0100
0000
0110
0000
,
0010
0011
0100
0101
,
0010
1010
0100
0010
,
0001
0000
0010
0000
0001
0000
0001
0100
,
1000
0010
1000
0010
0100
0000
0010
0100
,
0010
1000
0010
0000
0100
0010
0001
0010
,
0100
0010
0001
0000
0110
0000
1000
0010
,
1000
0010
0100
0010
0100
0001
0100
1000
,
0010
0001
0100
0000
0010
0000
0001
0010
,
0000
0020
0000
0000
0030
0000
1000
0100
,
0001
0001
0000
0000
1000
0000
0010
0000
,
1010
0100
0110
0001
,
0101
0010
1010
0010
,
0110
0010
1010
0001
,
0202
0000
0303
1010
,
0100
0010
1000
0010
,
1000
0000
0010
0000
0100
0000
1000
0010
,
1000
0000
0100
0001
0100
0000
0001
0010
,
1000
0100
1000
0000
0010
0000
1100
0000
,
0010
0000
0011
0000
0001
0100
0001
0000
,
0010
0110
0001
0011
,
1000
0000
1010
0000
1000
0001
0100
1000
,
0010
0001
0010
0000
1000
0000
0010
0000
,
0110
0010
0011
0100
,
1000
0000
0100
0000
1000
0000
1000
0010
,
1000
0000
0100
0010
0100
0000
0010
0001
,
0010
0100
0010
0000
0001
0000
0010
0000
,
0011
0100
1000
1010
,
0100
0000
0110
0000
0001
0000
0001
1000
,
0010
0000
1000
0001
0010
0000
0001
0100
,
0010
0100
0001
0000
1000
0020
0000
0030
,
1000
0001
0100
1000
0010
1000
0010
1000
,
0010
0100
0010
0100
0001
0010
0000
0000
,
1000
0000
1000
0001
0000
1000
0100
1000
,
0010
0001
0010
0100
0001
0100
0000
0010
,
0000
0000
1000
0010
1000
0010
0100
0010
,
0001
0100
0000
1000
0010
0002
0000
0003
,
0010
0000
1000
0010
1000
0010
0100
0010
,
0100
0010
0001
0000
0110
2000
0000
0000
,
3000
0000
0010
0100
0010
0100
0001
0100
,
1000
0010
0100
0010
0100
0002
0000
0000
,
0003
0010
0010
1000
0000
0020
0000
0030
,
0100
0100
0001
0100
0000
1000
0010
0000
,
1000
0010
1000
0010
0100
0010
0100
0010
,
0001
0010
0100
1000
0010
1000
0110
0000
,
0000
0101
0000
1010
,
0000
0110
0000
1001
,
1000
0100
0001
1000
,
0200
0000
0000
0000
,
0000
0000
0000
0300
1001
0000
0000
1000
,
0000
0010
0000
0100
0000
0010
0000
0000
,
0001
0000
0010
0000
1000
0010
1000
0000
,
0100
0010
0100
0000
0001
0010
1000
0010
,
0002
0000
0003
1000
0000
0010
0000
0000
,
1000
0010
0100
0001
,
0001
0000
0100
0000
0001
0100
1000
0000
,
0010
1000
0010
0000
0200
0000
0000
0000
,
0000
0300
0000
0000
0101
0000
0010
0000
,
1000
0000
0010
0000
0010
0000
0001
0001
,
0010
0001
0000
0000
0001
0100
1000
0000
,
1000
0010
1000
0000
0100
0010
0010
0100
,
1000
0000
0010
0010
,
1000
0000
0100
0010
0100
0000
0001
0100
,
0001
0000
0010
0000
0010
1000
0010
0000
,
0001
0100
0010
1000
0100
0000
0001
0000
,
1000
0000
0001
0000
1000
0100
1000
0010
,
1000
0010
0100
0010
0100
0010
0001
0010
,
0001
0010
0010
0100
0010
1000
0010
0010
,
0000
0100
0110
0000
0010
0001
0010
0100
,
1000
0010
0000
1000
0010
0000
0100
0010
,
0100
0010
0001
0010
0100
0010
0110
0000
,
1000
0010
0100
0001
0010
0011
0000
1010
,
0000
0001
0100
1000
0100
1000
0010
0100
,
0010
0000
0110
2002
0000
0000
0000
0000
,
0000
0000
0000
0000
,
0000
3003
0000
0110
0000
0000
1000
0000
,
0010
1000
0010
0010
,
0001
1000
0010
0100
,
0010
0000
0100
0000
0100
0010
0100
0010
,
0001
0100
0000
1000
0000
0001
0000
0010
,
0000
1000
0000
0010
0000
0100
0000
0001
,
0000
0010
1001
0100
,
0010
0000
0000
1000
0010
0000
1000
0000
,
0001
0000
1000
1001
0000
0000
0000
0110
,
0000
0000
1001
0000
,
0000
0110
0000
0000
0000
0000
2002
0000
,
0000
0000
0000
0000
,
0000
0000
0000
0000
,
0000
0000
0000
3003
,
0000
0000
1001
0000
;

//---------------dance-single - ----------------
#NOTES:
     dance-single:
     :
     Medium:
     6:
     0.424,0.458,0.168,0.026,0.000,644.000,39.000,6.000,0.000,0.000:
0000
0000
0000
0000
,
0000
0000
0000
0000
,
0000
0000
0000
0000
,
0000
0000
0000
0000
,
0000
0000
0000
0000
,
0000
0000
0000
0000
,
0000
0000
0000
0000
,
1000
0000
0000
0000
,
0010
0000
0000
0000
,
0100
0000
0000
0000
,
0001
0010
0100
0001
,
1000
0000
1000
0000
0010
0100
0000
0010
,
0001
0000
0000
1000
0100
1000
0010
0000
,
0001
0100
0000
0001
1000
0010
1000
0000
,
0100
0010
0100
0000
1000
0000
0000
0000
,
1000
0100
0010
0001
,
0011
0100
1000
0010
,
0110
1000
0010
1000
,
0001
0100
0001
0010
,
0011
0000
0100
0000
,
0001
0000
1000
0000
,
0010
0000
0000
0100
0000
0010
0000
1000
,
0000
0001
0100
0000
0000
1000
0010
0000
,
0001
0100
1000
0010
1000
0010
0100
0010
,
1000
0010
0100
0000
0010
0000
1000
0000
,
1000
0001
1000
0000
1000
0100
1000
0000
,
0010
0100
0010
0001
,
0010
0001
0010
0000
1000
0010
1000
0000
,
1000
0100
1000
0000
0100
0000
0001
0000
,
0010
1000
0010
1000
,
1000
0010
1000
0000
0100
0010
0100
0000
,
0001
0100
1000
0010
,
1000
0010
0100
0101
,
0010
1000
0010
1000
,
0010
0100
0010
0110
,
1000
0000
0000
1100
0000
0000
0000
0000
,
0100
0000
0000
0101
0000
0000
0000
0000
,
0010
1000
0010
1000
,
0010
0100
0001
0010
,
1000
0100
0010
0001
,
0001
0010
0000
0000
0100
0000
0000
0000
,
0000
0100
0000
0001
0010
0000
1000
0000
,
0010
1000
0010
1000
,
1000
0100
1000
0000
0000
0101
0100
0000
,
0010
0100
0010
1000
0010
0000
0001
0000
,
0100
0010
1000
0010
,
1000
0010
0100
0010
,
0001
0100
0001
0000
1000
0010
1000
0000
,
0010
0100
0001
0000
,
1000
0001
1000
0010
,
0100
0010
0001
0010
,
1000
0010
1000
0000
0100
0010
0100
0000
,
0000
0010
1000
0010
1000
0000
0000
0001
,
0000
0100
0010
0000
0001
0000
0010
0000
,
1000
0000
0010
0000
0000
0100
0000
0001
,
0100
0001
0000
1000
0010
1000
0000
0100
,
0010
0100
0000
0010
1000
0010
0000
0000
,
0100
0000
0000
0000
0000
0000
0000
0001
,
0000
1000
0000
0000
0010
0000
1000
0000
,
0100
0010
1000
0001
,
1000
0010
1000
0100
,
0000
0001
1000
0001
0000
1000
0010
1000
,
0000
0110
0000
0100
0001
0000
0000
0000
,
1000
0100
1000
0000
1000
0010
1000
0000
,
0010
0000
0100
0000
0001
0000
0000
0010
,
1000
0010
0100
0010
,
0000
0001
0000
0010
1000
0010
1000
0000
,
0010
1000
0100
0000
0100
0010
0000
0100
,
0100
0001
0010
0000
0010
1000
0100
0000
,
0100
0010
0001
0000
0010
0000
0001
0000
,
0101
1010
0101
0010
,
1000
0000
0000
0000
0000
0000
0000
0001
,
0000
0000
0000
1000
,
0010
0100
0010
0001
,
0010
1000
0010
1010
,
0100
0110
0001
0101
,
0010
1000
0100
0010
,
0001
0010
1000
1010
,
0100
0000
0101
0000
0010
0000
0001
0010
,
0001
0000
1000
0010
1000
0000
0100
0010
,
1000
0010
0100
0000
0001
0000
0010
1000
,
0010
0000
0010
0001
0010
0000
0001
0100
,
1000
0010
0001
0000
0000
0000
0010
0000
,
0000
0100
0000
0000
0000
0000
0010
0000
,
0000
0001
0000
0000
0000
0000
1000
0000
,
0010
1000
0010
0100
,
0010
0001
0010
1000
,
0010
0000
1000
0000
0010
0100
0000
0110
,
0000
0001
0000
0001
0100
0000
0010
0000
,
1000
0010
0001
0010
,
1000
0000
0010
0000
0001
0000
0010
0001
,
0010
0000
1000
0010
1000
0000
1000
0100
,
0001
0100
1000
0000
0010
0000
1000
0000
,
0010
1000
0010
0100
,
0010
0000
1000
0000
0001
0000
0100
0001
,
0100
0000
0010
0001
0010
0000
0001
0100
,
1000
0010
0001
0000
1000
0000
0010
0000
,
1000
0010
0100
0010
,
1000
0000
0010
0000
1000
0000
1000
0010
,
1000
0000
0100
0010
0100
0000
0010
0001
,
0010
0001
0010
0000
1000
0000
0010
0000
,
1000
0000
0010
0000
1000
0000
1000
0100
,
1000
0000
0001
0100
0001
0000
0010
0100
,
0010
0000
1000
0010
1000
0000
0000
1010
,
0010
0000
1001
0000
0000
0100
0001
0100
,
0000
0000
0000
0100
0000
0010
0000
1000
,
1010
0000
1000
0001
1000
0001
0010
0000
,
1000
0000
0001
0000
1000
0000
1000
0010
,
1000
0000
0100
0010
0100
0010
0000
0000
,
0001
0010
1000
0010
,
0100
0000
0100
0001
0100
0010
0000
0000
,
1000
0010
0100
0010
,
1000
0000
1000
0001
1000
0010
0000
0000
,
0100
0000
0010
0000
1000
0010
1000
0010
,
0100
0000
0001
0000
0000
0010
0000
0000
,
0001
0000
0100
0000
0000
0101
0000
0000
,
1000
0000
0010
0000
0000
1010
0000
0000
,
0100
0010
0010
0110
,
1000
0001
1000
1001
,
0000
1010
0000
0110
,
0000
0101
0000
0002
,
0000
0000
0000
0003
2000
0000
0000
3000
,
0010
0000
0000
0000
,
0000
0000
0000
0000
0000
1000
0010
0000
,
1000
0001
0100
0010
,
1000
0000
0001
0001
0100
1000
0000
1000
,
0010
1000
0000
0100
0010
0100
0010
0001
,
0000
0000
0000
1000
0000
0010
0000
1000
,
0000
0001
0000
0100
0000
1000
0000
0010
,
0000
1000
0000
0000
0010
0010
0010
0000
,
0100
0100
0100
0000
1001
0000
0000
0000
,
0000
0000
0000
0010
0000
0000
1000
0001
,
0000
0010
0000
1000
0000
0010
0000
0100
,
0000
0001
0000
1000
0010
1000
0000
0001
,
0000
1100
0000
0000
0011
0010
0000
0100
,
0010
0001
0000
0000
0010
0010
0001
0000
,
0001
0101
0010
1010
,
0100
0000
0110
0000
1000
0001
1000
0000
,
0010
1000
0001
0100
0000
1000
0010
1000
,
0001
1000
0000
0000
0001
0000
1000
0000
,
0001
0000
0010
0000
0100
0010
0000
0100
,
0000
0000
0001
0000
1000
0010
1000
0100
,
0001
0100
0001
0010
,
0011
0000
0001
0100
,
0001
0000
0100
1000
0000
0000
0010
0000
,
1000
0000
0010
0000
1000
0010
1000
0000
,
0100
0010
0100
0000
0010
0001
0010
0001
,
0010
0000
0100
0002
0000
0000
0000
0000
,
0000
0000
1000
1000
,
1000
1003
1000
0010
,
1000
0010
0100
0010
,
0001
0000
0100
0001
0100
1000
0000
0010
,
0000
0000
1000
0000
1000
1000
0000
0010
,
0100
0001
0100
1000
0000
0010
0000
0100
,
0000
0010
0000
0001
0000
0010
0000
0001
,
0000
1000
0020
0000
,
1000
0030
0000
0100
0001
0000
1000
0000
,
0010
1000
0010
0000
0000
0000
0000
1010
,
0000
0000
0101
0000
,
0000
0110
0000
0000
0000
0002
2000
0000
,
0000
0000
0000
0000
,
0000
0000
0000
0000
,
0000
0000
0000
0000
0000
3003
0000
0000
,
0000
0000
0110
0000
;

//---------------dance-single - ----------------
#NOTES:
     dance-single:
     :
     Easy:
     4:
     0.319,0.422,0.125,0.009,0.000,487.000,29.000,2.000,0.000,0.000:
0000
0000
0000
0000
,
0000
0000
0000
0000
,
0000
0000
0000
0000
,
0000
0000
0000
0000
,
0000
0000
0000
0000
,
0000
0000
0000
0000
,
0000
0000
0000
0000
,
0100
0010
0000
0000
0000
0000
0000
0000
,
1000
0000
0000
0000
,
0001
0000
0000
0000
,
0010
0100
0010
0001
,
1000
0000
0000
0000
,
0010
0000
0000
0000
,
0100
0000
0001
0000
,
1000
0010
0100
0000
,
0001
0001
0001
1000
,
1000
0010
0010
0100
,
0100
0001
0001
0010
,
1000
0010
0100
0001
,
0101
0000
0010
0000
,
1000
0000
0100
0000
,
0010
0000
0000
1000
0000
0000
0000
0000
,
0010
1000
0010
0100
,
0001
0010
1000
0010
,
1000
0010
0100
0001
,
0010
0001
0010
0001
,
1000
0010
1000
0010
,
0010
0000
0010
0000
0000
0100
0100
0000
,
0000
0010
0001
0000
0010
0000
1000
0000
,
1000
0000
0010
0000
0000
0100
0000
0010
,
0000
0010
0010
0000
1000
0000
0100
0000
,
0001
0100
1000
0010
,
1000
0001
0100
0101
,
0010
1000
0010
0100
,
0010
0100
0010
0110
,
1000
0000
0000
1001
0000
0000
0000
0000
,
0100
0000
0000
0100
0001
0000
0000
0000
,
0010
0000
0001
0010
0000
0010
0000
0010
,
0000
1000
0010
0000
0000
0100
0010
0000
,
0110
1000
0010
1000
,
0001
0000
0000
0000
,
1000
0010
0100
0010
,
1000
0001
0100
0010
,
1000
0010
1000
0100
,
0001
0010
1010
0000
,
0100
0010
0001
0010
,
1000
0010
0100
0010
,
1000
0000
0000
0000
0001
0000
0000
1000
,
0000
0010
0100
0000
,
0010
0001
0010
1000
,
0100
0010
0001
0010
,
0100
0000
0001
0000
,
1000
0010
0100
0000
,
1000
0010
1000
0001
,
1000
0010
1000
0010
,
1000
0000
0100
0000
,
0010
0000
0001
0000
0010
0000
0100
0200
,
0000
0000
0000
0000
,
0000
0001
0000
0000
0000
0001
0000
0300
,
0001
1000
0010
1000
,
0010
1000
0001
0100
,
0010
0000
0100
0000
,
0010
0000
0100
0000
0100
0001
0000
0000
,
1000
0001
1000
0010
,
1000
0010
1000
0010
,
0100
0010
1000
0001
,
0100
0010
1000
0010
,
1010
0000
0100
0000
0100
0010
0100
0000
,
0100
0001
0010
0000
0001
0010
0000
0100
,
1000
0010
1000
0010
,
0110
1000
1010
0100
,
0101
0000
0000
0000
0000
0000
0000
0100
,
0000
0000
0000
1000
,
0010
1000
0010
0100
,
0001
0010
1000
0010
,
0100
0010
0001
0010
,
1000
0010
1000
0010
,
1000
0100
0001
0010
,
0000
0001
0000
1000
,
0010
1000
0010
0100
,
0010
0100
0110
1000
,
0010
1000
0001
1000
,
0010
1000
1001
0010
,
0000
0000
0000
0100
,
0000
0001
0000
0000
0000
0000
1000
0000
,
0000
0010
0000
0100
,
0000
0001
0000
1000
,
0010
1000
0010
0100
,
0000
0000
0000
0001
,
1000
0010
1000
0100
,
0001
0010
1000
1010
,
0000
0100
0000
0001
,
0010
1000
0000
0010
,
0100
0001
0010
1000
,
0010
1000
0010
1010
,
0000
0100
0000
0001
,
0100
1000
0000
1000
,
0010
1000
0001
0100
,
0010
1000
0010
1010
,
0000
0101
0000
0010
,
1000
0010
0000
0100
,
0001
0010
1000
0001
,
1000
0010
1000
1010
,
0000
0100
0000
0001
,
0010
0000
1000
0000
0000
1001
0000
0000
,
1000
0001
1000
0010
,
1000
0000
0100
0000
0000
0110
0000
0000
,
0001
0100
1000
0010
,
1000
0000
0010
0000
1000
1100
0000
0010
,
0000
0001
0010
0100
,
0010
0000
0001
0000
0010
0001
0010
0000
,
0000
0000
0000
0001
0000
0100
0000
0000
,
1000
0000
0010
0000
1000
0010
1000
0000
,
0100
0010
1000
0010
,
0100
0001
0010
0011
,
0100
0000
0001
0000
0000
0101
0000
0000
,
1000
0000
0010
0000
0010
1000
0000
0000
,
1000
0010
1000
1010
,
0100
0001
0010
0011
,
0000
0101
0000
1010
,
0000
0101
0000
1000
,
0000
0000
0000
0001
0000
0000
0000
0000
,
0100
0000
0000
0000
,
0000
0000
0000
0000
0000
0000
0000
0010
,
0000
0000
0100
0000
,
0001
0000
0000
1000
0000
0000
0000
0000
,
0010
0000
0100
0000
,
0000
0000
0000
0001
0000
0000
0000
0000
,
1000
0000
0000
0010
0000
0000
0000
0000
,
0100
0000
0001
0000
,
0010
0000
0010
0000
,
0000
0000
0000
0001
1000
0010
0000
1000
,
0000
0010
1000
0010
,
1000
0000
0001
0000
1010
0000
0000
0100
,
0001
0000
0100
0010
,
1000
0000
1000
0001
,
1000
0010
1000
0001
,
0100
0000
0010
0000
0011
0000
0000
0100
,
1000
0000
0000
1000
0000
0010
0000
1000
,
0000
0000
1000
0010
,
1000
0100
0010
0001
,
1000
0000
0010
0000
1000
0000
0000
0100
,
0000
0000
0010
0001
,
0010
0000
1000
0100
,
0010
0001
0010
0100
,
0010
0000
0001
0010
0000
0000
0010
0000
,
0100
0100
1000
0010
,
1000
0000
1000
0020
0000
0000
0000
0000
,
0000
0000
0000
0001
0000
0000
0000
0000
,
0001
0030
0000
1000
0000
0010
0000
1000
,
0000
0001
0000
0000
1000
0000
0010
0000
,
1000
0010
0001
0100
,
1000
0000
0010
0000
1000
0000
0000
0010
,
0000
0000
0000
0000
0100
0001
0000
0000
,
0010
0000
1000
0010
0000
0100
0000
0001
,
0000
0010
0000
0001
0010
0000
0000
0000
,
0001
0000
0000
1000
0000
0000
0000
0000
,
0010
0000
0000
0100
0000
0000
0000
0001
,
0000
0000
1000
0000
,
0000
0010
0000
0000
0000
0000
0001
0000
,
0000
0000
0000
0000
,
0000
0000
0000
0000
,
0000
0000
0000
0000
,
0000
0000
1000
0000
;

//---------------dance-single - ----------------
#NOTES:
     dance-single:
     :
     Challenge:
     9:
     0.603,0.634,0.693,0.121,0.013,792.000,161.000,28.000,0.000,0.000:
0000
0000
0000
0000
,
0000
0000
0000
0000
,
0000
0000
0000
0000
,
0000
2002
0000
0000
,
0000
0000
0000
0000
,
0000
0000
0000
0000
,
3003
0010
0000
0010
0000
0010
0000
0010
,
0001
0110
1000
0010
,
0010
1100
0010
0001
,
0011
0001
0100
0001
,
0100
0001
0010
0000
1010
0000
0100
0000
,
0110
0000
0001
0000
1000
0010
1000
0000
,
0010
0000
1000
0010
0100
0010
0001
0000
,
0001
0100
1000
0000
1000
0010
0100
0000
,
0010
1000
0010
1000
0110
0000
0000
0000
,
0101
0010
1000
0010
1000
0010
1000
0010
,
0100
0000
0010
0000
0110
0010
1000
0001
,
1000
0001
0000
1001
0000
0100
1000
0010
,
0000
0000
0011
0100
,
0101
0010
1010
0100
,
0110
1000
1010
0100
,
0101
0010
0011
0101
,
1010
0101
0110
1001
,
0001
1000
0001
1000
0010
1000
0010
0100
,
0010
0001
0010
0000
1000
0100
1000
0010
,
1000
0001
1000
0001
1000
0010
1000
0010
,
0100
0000
0010
0000
0001
1000
0100
0000
,
0101
0010
1010
0100
,
0110
1000
1010
0100
,
0101
0010
0011
0001
,
0001
0100
1000
0010
0001
0100
1000
0010
,
1000
0010
0100
0010
0100
0001
0010
0100
,
0010
1000
0010
1000
0010
1000
0110
0000
,
0010
1000
0010
0100
0010
1000
0010
0100
,
0010
0100
0001
1000
0101
0000
0010
0000
,
1010
0000
0000
1010
0000
0000
0000
0000
,
0100
0010
0100
0110
0000
0000
0000
0000
,
0011
0100
1100
0100
,
0101
0010
1010
0100
,
0101
0011
0001
0101
,
0010
1000
0010
1001
,
0100
0011
0100
0101
,
0010
0110
1010
0101
,
1000
0010
1000
0000
1000
0010
1000
0000
,
0100
0001
0100
1000
0010
0001
0000
0000
,
0010
0001
0010
0000
0100
1000
0100
0000
,
1000
0010
0100
0000
0010
0100
0001
0000
,
0001
0100
1000
0000
1000
0010
1000
0010
,
1000
0001
0100
1000
0010
0000
0001
0000
,
0101
0010
1010
0100
,
0110
0010
1010
0101
,
0010
1000
0001
0000
0010
0001
0010
0000
,
0001
0100
1000
0010
0001
0000
0011
0000
,
0001
0101
0010
0011
,
0001
0101
0100
1100
,
1000
0010
1000
0000
1000
0010
0100
0000
,
0010
0001
0100
1000
0010
0000
0001
0020
,
0000
0000
0000
0000
,
0001
0000
1000
0000
0001
0000
1000
0030
,
0100
0101
0010
1100
,
0010
0000
1000
0001
0001
0000
0100
0000
,
0001
0100
1000
0000
0010
1000
0010
0000
,
0100
0010
1000
0100
0000
1010
0000
0000
,
0100
0001
0100
1000
0010
1000
0010
1000
,
0000
0010
1000
0010
0100
0010
0100
0001
,
0100
0001
0100
1000
0010
1000
0010
0100
,
0010
0100
0100
0010
,
1010
0100
0101
0010
,
1010
0100
0101
0010
,
0011
0100
1000
0010
,
1010
0101
1001
1010
,
0202
0000
0000
0000
0000
0000
0303
2020
,
0000
0000
0000
0000
0000
3030
0001
0100
,
1000
0010
0001
0100
1000
0010
0001
0000
,
0101
0010
1010
0100
,
0110
0010
1010
0100
,
0101
0000
0010
0000
0001
0100
0000
0000
,
1000
0010
1010
0100
,
0101
0000
0010
0000
0011
0000
0001
0100
,
1000
0010
0001
0100
1000
0010
0001
0100
,
1000
0010
0001
0000
0011
0000
1000
0100
,
0010
0001
0010
0100
0010
0001
0010
0100
,
1000
0010
1000
0000
1010
0000
1000
0010
,
1000
1010
0000
0000
0000
0000
0101
0010
,
1000
0010
0000
1010
0000
0000
0010
0000
,
0110
1000
0101
0001
,
0101
0100
1000
1010
,
0010
0011
0001
0101
,
0010
0001
0011
0101
,
0010
1010
0100
0110
,
1000
0000
1010
0000
0100
0000
0101
0001
,
0100
0000
1000
0010
1000
0000
1000
0010
,
0100
0010
0001
0000
0010
0000
0011
0000
,
0001
0101
0100
1100
,
0010
0000
1010
0000
0100
0000
0100
0010
,
0100
0000
0100
0001
0100
0000
0001
0100
,
1000
0010
0001
0000
0010
0000
0011
0000
,
0001
0100
0001
0100
0000
0000
1100
0000
,
0010
0000
1010
0000
1010
0000
1000
0010
,
1000
0000
0100
0010
0100
0000
0001
0100
,
1000
0010
0001
0000
0011
0000
0001
0000
,
0101
0010
0011
0001
,
0101
0000
0010
0000
1010
0000
0100
0010
,
0100
0000
0110
0010
1000
0000
1010
0001
,
0100
1000
0010
0000
0011
0001
0000
0001
,
0100
1000
0010
0001
0010
1000
0010
1000
,
0010
0100
0010
0100
0010
0110
0000
0000
,
0001
0100
1000
0010
0001
0010
0001
0010
,
0100
0000
1000
0010
1000
1010
0000
0000
,
0100
0001
0100
1000
0010
0001
0010
0001
,
0010
0100
0010
0100
0010
0110
0000
0000
,
0010
1000
0001
0100
1000
0010
0001
0100
,
1000
0100
1000
0100
1000
1100
0000
0001
,
0100
0010
0000
0001
0010
0001
0010
0100
,
0010
0100
0010
1000
0010
1010
0000
0000
,
0100
0010
0001
0010
0001
0011
0000
0100
,
1000
0001
0100
1000
0100
1100
0000
0010
,
0100
0010
1000
0010
0100
0110
0010
1000
,
0001
0100
0000
0001
0010
0001
0011
0000
,
0000
0101
0000
1010
,
0000
0000
0000
0000
0202
0000
0000
0000
0000
0000
0000
0000
0303
1000
0000
0000
,
0010
0000
1000
0000
0000
0100
0000
0001
0000
0000
0010
0000
1000
0000
0000
0002
,
0000
0000
0000
0000
0000
0000
1000
0000
0000
0010
0000
1000
0000
0000
0200
0000
,
0000
0000
0000
0303
1010
0000
0100
0000
,
0101
0000
0010
0100
0010
0010
1000
0000
,
0100
0001
0100
1000
0010
1000
0000
1000
,
0010
0010
0010
0000
0010
0010
0100
0001
,
0001
0000
0000
0001
0010
0100
0000
0100
,
0001
0010
0000
0001
0010
0100
0000
0100
,
1000
0010
0000
0100
1000
0010
0000
1000
,
0010
0100
0000
0220
0000
0000
0000
0000
,
0000
0330
0000
0001
0000
0101
0000
0010
,
0000
0010
1000
0100
0000
0101
0000
0010
,
0000
0001
0010
0001
0100
1000
0000
1000
,
0010
1000
0000
0000
0010
1000
0001
0100
,
0000
0001
0000
0001
0010
0001
0000
0101
,
0000
0010
0000
1010
0000
0100
0000
0100
,
0010
1000
0010
0000
0010
1000
0010
0000
,
0100
0001
0100
0010
0001
0100
1000
0010
,
0001
0100
0001
0100
0001
0010
1000
0100
,
0001
0100
0010
1000
0001
0100
1000
0000
,
0110
1000
0010
0000
0101
0000
1010
0000
,
0101
0000
0110
0000
1001
0100
1000
0001
,
0100
1000
0000
0000
1010
0100
0010
0100
,
0001
1010
0101
0010
,
0011
1000
0100
0000
0010
1000
0010
0000
,
0011
0000
0001
0000
0011
0100
1000
0010
,
0001
0000
1100
0202
0000
0000
0000
0000
,
0000
0000
0000
0300
0010
0000
1000
0000
,
0010
1000
0013
0110
,
1000
1010
0100
0110
,
0101
0000
0100
1000
0001
0000
0100
0000
,
1000
0000
0010
0000
1000
0010
1000
0001
,
0000
0100
0011
0000
0011
0000
0100
0000
,
1100
0010
1010
0100
,
0101
0000
0010
0000
0220
0000
0000
0330
,
0002
0000
0003
1000
0010
0000
1000
0000
,
0010
0000
1001
0202
0000
0000
0303
2020
,
0000
0000
0000
3030
0202
0000
0000
0303
,
0000
2020
0000
0000
0000
3030
0202
0000
,
0000
0000
0000
0000
,
0000
0000
0000
0000
,
0000
0000
0000
0000
,
0000
0303
0000
0000
1010
0000
0000
0000
;
