#TITLE:Furtive Monologue;
#SUBTITLE:;
#ARTIST:Despised Icon;
#TITLETRANSLIT:;
#SUBTITLETRANSLIT:;
#ARTISTTRANSLIT:;
#CREDIT:;
#BANNER:../Beast - bn.png;
#BACKGROUND:../Beast - bg.png;
#LYRICSPATH:;
#CDTITLE:;
#MUSIC:Furtive Monologue.ogg;
#OFFSET:0.000;
#SAMPLESTART:33.774;
#SAMPLELENGTH:12.000;
#SELECTABLE:YES;
#DISPLAYBPM:216.000;
#BPMS:0.000=144.000,83.000=216.000,323.000=144.000;
#STOPS:;
#BGCHANGES:;
// cache tags:
#FIRSTBEAT:6.000;
#LASTBEAT:417.750;
#SONGFILENAME:Songs/Beast Aoreo BEAST! 2/Furtive Monologue - [Aoreo]/Furtive Monologue.sm;
#HASMUSIC:1;
#HASBANNER:1;
#MUSICLENGTH:142.916;
// end cache tags

//---------------dance-single - J. Nero----------------
#NOTES:
     dance-single:
     J. Nero:
     Challenge:
     16:
     1.000,1.000,0.161,0.553,1.000,1171.000,23.000,79.000,0.000,0.000:
0000
0000
0000
0000
,
0000
0000
0000
0000
1001
0000
0000
0101
,
0000
1010
0000
0000
,
1001
0000
0000
0000
,
0011
0000
0000
0110
0000
0000
1100
1000
,
0001
0100
0001
1000
0100
0010
0100
1000
,
0001
0000
0100
0000
0010
0100
0010
1000
0001
1000
0100
0010
0100
1000
0001
0100
,
0001
1000
0100
1000
0001
0100
0010
0100
0001
0000
1000
0010
0100
0000
0001
0100
,
0010
0000
1000
0100
0010
0100
1000
0001
2000
0000
3001
0000
0001
0000
0020
0000
,
0130
0100
2000
3001
0001
0100
0010
0100
,
0001
1000
0001
0100
0010
0000
0100
0000
0001
0000
2000
0000
0000
0000
3010
0000
,
0020
0030
0000
0000
0200
0300
0000
0000
0002
0003
0000
0000
2000
3000
0000
0000
,
0200
0300
0000
0000
1100
0000
1000
0000
0001
0000
0200
0000
0000
0000
0310
0000
,
0040
0030
0000
0000
2000
3000
0000
0000
0002
0003
0000
0000
0020
0030
0000
0000
,
0200
0300
0000
0000
1000
0000
0001
0000
0100
0000
0002
0000
0000
0000
1003
0000
,
4000
3000
0000
0000
0200
0300
0000
0000
0020
0030
0000
0000
0011
0000
0001
0000
,
1000
0010
0110
0100
0001
2000
0000
3100
,
0200
2300
3002
0203
,
0320
0000
0130
0001
0010
0200
0000
1300
,
2000
0000
3000
0000
0000
0000
0000
0000
0002
0000
0003
0000
0000
0000
0000
0000
0200
0000
0300
0000
0000
0000
0001
1000
0001
0000
0000
0000
1000
0000
0000
0000
,
0000
0000
0000
0000
1001
0000
0001
0000
0100
0000
0010
0000
0100
0001
0100
0000
,
0001
0000
1000
0000
0100
1000
0100
0000
1000
0001
1000
0000
0001
0100
0001
0100
,
0010
1000
0010
1000
0001
0010
0100
1000
0001
1000
0100
0010
0001
1000
0001
0000
,
1000
0000
0010
0000
0100
0001
0100
0000
0010
1000
0010
0000
1000
0100
0010
0100
,
1000
0001
1000
0010
0100
0001
1000
0001
0100
0010
1000
0001
0100
0010
0100
0000
,
0001
0000
0100
0000
0010
1000
0010
0000
1000
0001
1000
0000
0001
0010
0100
1000
,
0001
1000
0100
0010
0001
1000
0001
1000
0010
0100
0010
0100
0001
1000
0001
0000
,
1000
0000
0100
0000
1000
0001
1000
0000
0001
0010
0001
0000
0010
0100
0010
0100
,
1000
0001
1000
0010
0100
0001
1000
0001
0100
0010
1000
0001
1000
0100
1000
0010
,
0100
0001
0010
0001
0100
0010
1000
0100
1000
0010
0100
0001
0010
0001
0100
0010
,
1000
0001
0010
0100
1000
0010
0100
0001
0010
0100
1000
0001
0100
0010
0100
0000
,
0001
0000
1000
0000
0100
1000
0100
0000
1000
0001
1000
0000
0001
0100
0001
0100
,
0010
1000
0010
1000
0001
1000
0100
0010
0001
0010
0100
1000
0001
0100
0001
0000
,
0100
0000
0010
0000
1000
0001
1000
0000
0001
0100
0001
0000
1000
0100
1000
0001
,
0010
0001
1000
0100
1000
0001
0100
0001
1000
0010
0100
0001
1000
0100
1000
0000
,
0001
0000
0100
0000
0010
0100
0010
0000
1000
0001
1000
0000
0001
0010
0100
0010
,
0100
1000
0001
1000
0010
0100
0001
1000
0001
1000
0010
0100
0001
1000
0100
0010
,
0001
1000
0001
0100
0010
0100
0001
1000
0100
1000
0001
0100
0010
1000
0010
0000
,
0100
0000
0001
0000
1000
0001
1000
0000
0001
0100
0001
0000
0100
0001
0100
0010
,
1000
0001
1000
0100
0010
0100
1000
0001
1000
0010
0100
0001
0100
0010
1000
0100
,
0010
0100
1000
0001
0100
0010
0100
0001
1000
0001
0010
0100
1000
0001
1000
0100
,
0010
0001
1000
0001
0100
0010
0100
0001
1000
0010
0100
0001
0010
0100
1000
0001
,
1000
0010
0100
0001
1000
0100
1000
0000
0001
1000
0001
0000
1000
0100
1000
0010
,
0100
0001
0010
0001
0100
0010
1000
0100
1000
0010
0100
0001
0010
0100
1000
0010
,
0100
0001
0010
0100
1000
0001
1000
0010
0100
0001
1000
0010
1000
0100
0010
0001
,
0100
0001
1000
0010
0100
0001
0010
0100
1000
0001
1000
0010
0100
0001
0010
0001
,
1000
0100
1000
0010
0100
0001
0100
0000
0001
1000
0001
0000
1000
0100
1000
0010
,
0100
0001
0010
0001
0100
0010
1000
0100
1000
0001
0010
0100
1000
0010
0100
0001
,
0100
0010
1000
0100
1000
0001
0010
0100
0010
0001
0100
0010
1000
0100
1000
0010
,
0100
0001
0010
0001
1000
0100
0010
0001
0100
0010
1000
0001
0010
0100
1000
0010
,
0100
0001
0100
0010
1000
0001
1000
0000
0001
0100
0001
0000
1000
0100
0010
0100
,
0010
0001
1000
0001
0010
0100
1000
0010
0100
0001
0010
0001
1000
0100
1000
0010
,
0100
0001
0010
0001
0100
0010
1000
0100
1000
0001
0010
0100
1000
0010
0100
0001
,
0010
0100
1000
0010
0100
0001
0010
0001
0100
0010
1000
0100
1000
0010
0100
0001
,
0010
0001
0100
0001
1000
0100
1000
0000
0010
0100
0010
0000
0100
0001
0100
0001
,
1000
0100
0010
0100
0010
0001
1000
0001
1000
0100
1000
0001
0100
0001
0010
0100
,
1000
0010
0100
0001
0010
0001
0100
0010
1000
0100
1000
0010
0100
0001
1000
0100
,
0010
0001
1000
0001
1000
0010
1000
0001
0100
0010
0100
0001
1000
0010
0100
0001
,
0010
0100
1000
0010
0100
0001
1000
0100
1000
0010
0100
0001
1000
0100
1000
0001
,
0100
0001
1000
0010
1000
0100
0010
0001
1000
0010
0100
0010
1000
0100
1000
0010
,
0100
0001
0010
0001
0100
0010
1000
0100
1000
0001
0010
0100
1000
0010
0100
0001
,
1000
0010
1000
0100
0010
0001
0100
0001
1000
0010
0100
0010
1000
0001
1000
0000
,
0001
0000
0100
0000
0001
1000
0001
0000
1000
0100
1000
0000
0001
0100
0001
0100
,
0010
1000
0010
1000
0001
0100
0010
0100
0001
1000
0100
1000
0001
1000
0010
0100
,
0001
1000
0100
1000
0001
0010
0100
1000
0001
1000
0001
0100
0002
0000
0000
0000
,
0000
0000
0000
0000
2000
3000
0000
0000
0000
0000
0000
0000
2000
3000
0000
0000
,
0000
0000
0000
0000
2000
3000
0000
0000
0000
0000
0000
0000
2000
3000
0000
0000
,
0000
0000
0000
0000
2000
3000
0000
0000
0000
0000
0000
0000
1003
0000
0010
0000
,
0200
0000
0000
0000
0301
1000
0001
1000
0400
0000
0000
0300
1000
0000
0010
0000
,
0000
0000
0000
0000
2000
3000
0000
0000
0000
0000
0000
0000
1001
0000
0000
0000
,
0001
0100
0010
0100
0001
0000
0000
0000
1000
0100
0010
0100
1000
0000
0001
0000
,
0000
0000
0000
0000
2000
3000
0000
0000
0000
0000
0000
0000
1001
0000
0001
0000
,
0200
0000
0300
0000
0001
0100
0001
0100
0040
0000
0000
0030
1000
0000
0001
0000
,
0000
0000
0000
0000
2000
3000
0000
0000
0000
0000
0000
0000
1100
0000
0000
0000
,
0100
1000
0001
1000
0010
0000
0000
0000
0100
0010
0100
0001
1000
0000
0001
0000
,
0000
0000
0000
0000
0200
0300
0000
0000
0000
0000
0000
0000
0101
0000
0001
0000
,
0020
0000
0000
0000
0130
1000
0100
1000
0004
0000
0000
0003
1000
0000
0010
0000
,
0000
0000
0000
0000
0200
0300
0000
0000
0000
0000
0000
0000
0110
0000
0000
0000
,
0010
1000
0001
1000
0001
0000
0000
0000
0100
0001
1000
0001
1000
0000
0100
0000
,
0000
0000
0000
0000
2000
3000
0000
0000
0000
0000
0000
0000
0101
0000
0001
0000
,
0200
0000
0000
0000
0301
1000
0001
1000
0400
0000
0000
0300
2000
0000
3000
0000
,
0020
0000
0000
0000
0030
0000
0000
0000
0200
0000
0000
0000
0300
0000
0000
0000
0004
0000
0000
0000
0003
0000
1000
0100
2000
0000
0000
0000
3000
0000
0000
0000
,
0002
0003
2000
3020
0230
0300
0002
0003
,
0020
0000
0000
0000
0030
0000
0000
0000
0200
0000
0000
0000
0300
0000
0000
0000
2000
0000
0000
0000
3000
0000
0001
0100
0001
0000
0000
0000
0100
0000
0000
0000
,
0010
0000
0000
0000
0000
0000
1010
0000
0000
0110
0000
0000
0101
0000
0000
0000
0000
0000
0001
0100
0001
1000
0100
1000
,
0001
0100
0010
0100
0001
1000
0001
0010
0100
1000
0001
1000
0100
0010
0001
1000
0001
1000
0010
0100
0001
0100
0010
1000
,
0010
1000
0001
0100
0010
0100
0001
1000
0100
0010
0001
1000
0001
0100
0001
1000
0010
0100
0001
0100
0010
1000
0001
1000
,
0100
0010
0001
1000
0001
1000
0010
0100
0010
0100
0001
1000
0001
0010
0100
0010
0100
1000
0001
1000
0100
0010
0100
0010
,
0001
1000
0001
0100
0001
1000
0100
1000
0001
0100
0010
0100
0001
0010
0100
1000
0001
1000
0010
0100
0001
1000
0100
1000
,
0001
0100
0010
0100
0001
1000
0001
0010
0100
1000
0001
1000
0100
0010
0001
1000
0001
1000
0010
0100
0001
0100
0010
1000
,
0001
1000
0100
0010
0100
1000
0001
0100
0010
0100
0001
1000
0001
0010
0100
0010
0001
1000
0001
0100
0010
0100
0001
1000
,
0001
1000
0100
0010
0100
1000
0001
1000
0010
0100
0001
0100
0010
1000
0001
0010
0100
1000
0001
1000
0100
0010
0001
1000
,
0002
0000
0000
0003
0000
0000
1000
0000
0000
0010
0000
0000
0200
0000
0000
0300
0000
0000
0001
0100
0001
1000
0100
0010
,
0100
0010
0001
1000
0001
1000
0010
0100
0001
1000
0001
0010
0100
1000
0001
1000
0100
0010
0001
1000
0001
1000
0010
0100
,
0001
0100
0010
1000
0010
0100
0001
1000
0001
1000
0100
0010
0001
1000
0001
0010
0100
1000
0001
1000
0010
0100
0001
0100
,
0010
1000
0001
1000
0100
0010
0100
1000
0001
1000
0010
0100
0002
0000
0000
0000
0000
0000
1003
0000
0000
0100
0000
0000
,
2000
3000
0010
0100
0002
0003
1001
1000
,
0100
0000
2000
0000
0000
0000
3001
0000
0004
0003
0000
0000
0200
0300
0000
0000
,
0020
0030
0000
0000
0200
0000
0000
0000
0301
0000
0000
0000
1000
0000
0100
0000
,
0010
0000
0002
0000
0000
0000
0103
0000
0400
0300
0000
0000
0020
0030
0000
0000
,
2000
3000
0000
0000
1001
0000
0001
0000
0010
0000
0100
0000
1100
0000
1000
0000
,
0001
0200
0000
0310
0020
0000
2030
0000
,
3002
0000
0023
0000
0230
0000
1300
0001
,
1000
0000
0000
0000
0020
0000
0000
0000
0000
0000
0000
0000
0130
0000
0000
0000
0200
0000
0300
0000
0000
0000
0000
0000
0002
0000
0003
0000
0000
0000
1000
0100
,
2000
3000
0000
0000
0002
0003
0200
0300
0000
0000
0000
0000
0000
0000
0000
0000
;
