#TITLE:Are You Dead Yet?;
#SUBTITLE:Are You Dead Yet? (2005);
#ARTIST:Children of Bodom;
#TITLETRANSLIT:;
#SUBTITLETRANSLIT:;
#ARTISTTRANSLIT:;
#CREDIT:;
#BANNER:AYDY - Banner.jpg;
#BACKGROUND:AYDY - Background.jpg;
#LYRICSPATH:;
#CDTITLE:cdtitle.gif;
#MUSIC:Children Of Bodom - Are You Dead Yet.mp3;
#OFFSET:0.000;
#SAMPLESTART:100.000;
#SAMPLELENGTH:12.000;
#SELECTABLE:YES;
#BPMS:0.000=191.460,101.000=191.580,148.500=191.800,180.500=192.000,195.500=192.100,201.500=192.180,361.000=191.920,385.500=191.780,389.000=191.680,396.500=191.580,433.500=191.640,453.000=192.240,484.000=192.360,585.000=192.100;
#STOPS:;
#BGCHANGES:;
// cache tags:
#FIRSTBEAT:1.000;
#LASTBEAT:745.500;
#SONGFILENAME:Songs/Astronomic Metal Collection/Are You Dead Yet (N.T.M.)/Children Of Bodom - Are You Dead Yet.sm;
#HASMUSIC:1;
#HASBANNER:1;
#MUSICLENGTH:236.042;
// end cache tags

//---------------dance-single - Copied from----------------
#NOTES:
     dance-single:
     Copied from:
     Hard:
     12:
     0.959,1.000,1.000,0.466,0.250,1207.000,267.000,110.000,30.000,34.000:
0000
0000
1010
0101
1000
0000
0001
0001
,
0020
0000
1030
0100
1000
0000
0001
0002
,
0000
0000
1013
0101
1000
0000
1000
0001
,
0100
0000
0001
0000
1000
0100
0010
0001
1000
0010
0100
0001
1000
0100
0010
0001
,
1000
0010
0100
0001
1010
0000
0101
0000
1000
0000
0000
0000
0001
0000
0001
0000
,
0020
0000
1030
0100
1000
0000
0001
0002
,
0000
0000
1013
0101
1000
0000
0100
0010
,
0100
0001
1100
0000
0000
0011
0000
0000
,
1100
1001
1001
0200
,
0020
0000
0331
0100
0001
0000
1000
1000
,
0020
0000
0130
0001
0100
0000
1000
2000
,
0000
0000
3001
0100
0001
0000
0010
0100
,
1000
1000
0100
0010
0001
0001
0010
0100
,
1000
1000
0001
0100
0001
0000
1000
1000
,
0020
0000
0130
0001
0100
0000
1000
2000
,
0000
0000
3001
0100
0001
1000
0100
1000
,
0010
0000
0100
0000
0001
0010
0100
1000
0001
1000
0010
0100
0001
0010
0100
1000
,
0001
1000
0010
0100
0001
0000
0010
0000
0001
0000
0000
0000
1000
0000
1000
0000
,
0002
0000
0103
0010
0100
0000
1000
2000
,
0000
0000
3001
0010
0001
0000
0010
0100
,
1000
0000
1000
0000
0100
0000
0010
0000
0001
1000
0001
1000
0011
0000
0100
0000
,
1000
1000
0001
0010
0001
0000
1000
1000
,
0002
0000
0103
0010
0100
0000
1000
2000
,
0000
0000
3001
0010
0001
0000
1010
0100
,
1000
1000
0101
0010
0001
0101
0010
0100
,
1010
1000
0011
0011
1000
1000
0011
0011
,
1000
1000
0011
0011
1000
1000
0100
1000
,
0200
0000
0311
0011
1000
1000
0011
0011
,
1000
1000
0011
0011
1000
1000
0100
2000
,
0000
3220
0000
1001
,
0000
0330
2002
0000
0000
0000
0110
0000
,
0000
3003
0220
0000
0000
0000
1001
0000
,
0000
0000
0330
0000
2002
0000
0000
0000
0000
0000
0000
0000
3103
0010
1000
0010
,
0100
0001
0010
0001
0220
0000
0000
0000
0000
0000
0000
0000
1001
0000
0000
0000
,
0000
0330
0202
0000
0000
0000
1010
0000
,
0000
0303
2020
0000
0000
0000
0101
0000
,
0000
0000
3030
0000
2200
0000
0000
0000
0000
0000
0000
0000
3301
0010
0100
1000
,
0011
0011
1000
1000
0001
0001
1000
1000
,
0001
0001
1000
1000
0000
0000
1MM1
0000
,
0000
0000
0100
0010
0100
0000
0001
1000
,
0001
0000
0100
0010
0100
0000
1MM1
0000
,
0000
0000
1010
1010
0101
0101
1010
1010
,
0101
0101
1010
1010
0000
0000
1MM1
0000
,
2000
3020
0230
0302
,
0203
2300
3022
0000
,
0000
0033
1100
1100
0001
0001
1100
1100
,
0001
0001
1100
1100
0001
0001
0010
0001
,
0020
0000
1130
1100
0001
0001
1100
1100
,
0001
0000
0001
0000
1100
0000
1100
0000
0001
1000
0001
1000
0011
0000
0100
0000
,
0011
0000
0100
0100
0010
0010
0100
0100
,
0010
0010
0100
0100
0000
0000
1MM1
0000
,
0000
0000
0000
0000
0001
0010
0001
0010
0001
0000
0000
0000
1000
0100
1000
0100
,
1000
0000
0000
0000
0001
0010
0001
0010
0001
0000
0000
0000
1MM1
0000
0000
0000
,
0000
0000
1100
1100
0011
0011
1100
1100
,
0011
0011
1100
1100
0000
0000
1MM1
0000
,
0000
0000
0000
0000
0001
0010
0001
0010
0001
0000
0000
0000
0001
0100
0001
0100
,
0001
0000
0000
0000
1000
0010
1000
0010
1000
0000
0000
0000
1000
0100
1000
0100
,
1000
0110
0110
0002
,
2000
0000
3103
0010
0100
0000
0010
0010
,
2000
0000
3001
0100
0001
0000
0010
0020
,
0000
0000
0130
0010
0100
0000
0010
0100
,
1000
1000
0100
0010
0001
0001
0010
0100
,
1000
1000
0100
0010
0100
0000
0010
0010
,
2000
0000
3001
0100
0001
0000
0010
0020
,
0000
0000
0000
0000
0130
0000
0010
0000
0100
0000
0000
0000
0010
0100
0001
0100
,
0010
0100
2000
0000
0200
0000
0020
0000
,
0002
3333
1001
0100
0010
1000
0001
0100
,
0010
1000
0011
1000
0100
1000
0011
0100
,
1000
0100
1001
0010
0100
0001
1000
0010
,
0100
0001
1100
0001
0010
0001
1100
0010
,
0001
0010
1001
0010
0001
0100
1000
0010
,
0001
0100
0110
0001
1000
0001
0110
1000
,
0001
1000
1001
0100
1000
0010
0001
0100
,
1000
0010
0002
0000
0113
0110
1001
1001
,
0110
0110
1001
0000
0011
0000
1010
0000
,
1001
0000
0110
0000
1100
0000
0010
0100
,
0000
0000
0101
0000
0000
0000
1000
0010
0000
0100
0000
0010
0000
0000
0000
0000
,
0110
0000
1100
0000
1001
0000
0100
0010
,
0000
1010
0000
0000
0000
0000
0011
0000
,
1100
0000
0101
0000
0100
1000
0000
1000
,
0000
1001
0000
0000
1010
0000
1010
0011
,
0000
0000
1100
0011
0000
0000
0011
1100
,
0011
0000
0000
0000
0010
0001
0100
0000
,
0000
1010
0110
0101
,
0010
1000
0000
0000
0001
0100
0010
0100
,
0000
1100
0000
0010
0100
0001
1000
0010
,
0100
0010
0000
0000
0000
0000
0001
1000
,
0010
1000
0000
0000
0011
0000
1010
0000
,
1100
0101
0000
2020
,
3031
0220
1330
2002
,
3103
0000
MM11
0011
1000
1000
0011
0011
,
1000
1000
0001
0100
0001
0010
0001
0100
,
0001
0010
0001
0100
0000
0000
1MM1
0000
,
0000
0000
1000
0100
1000
0000
0001
0010
,
0001
0000
1000
0100
1000
0000
1MM1
0000
,
0000
0000
1100
1100
0011
0011
1100
1100
,
0011
0011
1100
1100
0000
0000
1MM1
0000
,
0000
2000
3020
0230
,
0301
1000
0100
0010
1000
0010
0100
1000
0001
1000
0100
0010
1000
0010
0100
1000
,
0001
0000
1100
1100
0001
0001
1100
1100
,
0001
0001
1100
1100
0001
0001
0010
0001
,
0020
0000
1130
1100
0001
0001
1100
1100
,
0001
0000
0001
0000
1000
0100
0010
0001
1000
0001
0100
0010
1000
0001
1000
0100
,
0010
0001
0100
0010
1000
0000
0010
0000
1000
0000
0100
0000
1000
0000
0010
0000
,
1000
0100
1000
0010
0000
0000
1MM1
0000
,
0000
0000
0000
0000
1000
0010
1000
0010
1000
0000
0000
0000
0001
0100
0001
0100
,
0001
0000
0000
0000
1000
0010
1000
0010
1000
0000
0000
0000
1MM1
0000
0000
0000
,
0000
0000
0001
0001
1000
1000
0001
0001
,
1000
1000
0001
0001
0000
0000
1MM1
0000
,
0000
0000
0000
0000
1000
0100
1000
0100
1000
0000
0000
0000
0010
1000
0010
1000
,
0010
0000
0000
0000
0100
0001
0100
0001
0100
0000
0000
0000
0001
0010
0001
0010
,
0001
0000
0000
0000
0010
1000
0010
1000
0001
1000
0001
1000
0010
1000
0010
1000
,
0001
1000
0001
1000
0010
1000
0010
1000
0001
1000
0001
1000
0200
0000
0000
0000
,
0020
0000
0330
0100
1001
0100
0010
0001
,
0110
0001
1000
0010
0101
1000
0010
0100
,
1010
0100
0001
1000
0110
0001
0010
0100
,
1100
0001
0010
1000
0101
0010
1000
0001
,
0110
1000
0100
1000
0011
0100
0001
0010
,
1100
0001
0010
0100
1001
0010
0100
1000
,
0110
0001
0010
1000
0101
0010
1000
0100
,
0011
0100
1010
0101
0000
0000
0101
1010
,
0101
0010
1000
0010
0101
0010
0001
0100
,
1010
0100
0001
0010
1001
0100
1000
0001
,
0110
0001
1000
0100
0011
0100
0010
0001
,
1100
0010
0001
1000
0110
1000
0001
0010
,
1001
0100
0010
1000
0011
0100
0001
0100
,
1010
0001
1000
0010
0101
0010
0001
1000
,
0110
0001
1000
0100
1001
0010
2200
0000
,
3301
0202
0313
2002
,
3103
0000
11MM
0001
1010
0001
0100
1010
,
0100
1010
1001
0100
0010
1000
0001
0100
,
0010
1000
0011
1000
0100
1000
0011
0100
,
1000
0100
1001
0010
0100
0001
1000
0010
,
0100
0001
1100
0001
0010
0001
1100
0010
,
0001
0010
1001
0010
0001
0100
1000
0010
,
0001
0100
0110
0001
1000
0001
0110
1000
,
0001
1000
1001
0100
1000
0010
0001
0100
,
1000
0010
0002
0000
1003
0100
0010
0001
,
0100
0010
1100
0000
2200
0000
0000
0000
,
0000
3300
0020
0000
0000
0000
0200
0000
,
0000
0330
1010
0000
2020
0000
0000
0000
,
0000
3030
0002
0000
0000
0000
0020
0000
,
0000
0033
1000
0100
0100
0001
0010
0001
,
0001
0100
0010
1000
1000
0100
0010
0100
,
0100
0000
0010
0000
1000
0100
0010
0001
0010
0100
0010
1000
0100
0001
0010
0001
,
0100
0010
1000
0010
0100
0001
0010
0100
1000
0100
0010
0001
0100
0010
1000
0010
,
0100
0001
0010
0001
0200
0000
0000
0000
0000
0000
0000
0300
0200
0000
0000
0000
,
0000
0000
0301
0002
0000
0000
0023
0000
,
0000
0000
1030
0100
1000
0100
0001
0010
,
0001
0010
0100
1000
0100
1000
0001
0100
,
0001
0100
2000
3002
2003
3002
2003
3000
,
0020
0230
0320
0230
0320
0030
0000
0000
,
0001
0010
1100
1100
0001
0100
1010
1010
,
0100
0001
0110
0110
1000
0010
0101
0101
,
1000
0100
0012
0000
1100
0000
1010
0000
,
0110
0000
1100
0000
1013
0000
0010
0100
,
0000
0000
0101
0000
0000
0000
0010
1000
0000
0100
0000
1000
0000
0000
0000
0000
,
0011
0000
1100
0000
1001
0000
0100
0010
,
0000
1010
0000
0000
0000
0000
1100
0000
,
1001
0000
0110
0000
0010
0001
0000
0001
,
0000
0011
0000
0000
0110
0000
0110
1010
,
0000
0000
1001
0110
0000
0000
0110
1001
,
0110
0000
0000
0000
1000
0010
0100
0000
,
0000
0011
1100
0101
,
0010
1000
0000
0000
0001
0010
1000
0010
,
0000
1010
0000
0100
0010
1000
0100
0001
,
0010
0001
0000
0000
0000
0000
0001
0100
,
0010
1000
0000
0000
0101
0000
0110
0000
,
1001
1010
0000
0022
,
1033
2020
3031
2200
,
3310
0000
1MM1
0010
0100
0000
1000
1000
,
0002
0000
0103
0010
0001
0000
1000
2000
,
0000
0000
3001
0010
0100
0000
0010
0100
,
1000
1000
0100
0010
0001
0001
0010
0100
,
1000
1000
0001
0010
0100
0000
1000
1000
,
0002
0000
0103
0010
0001
0000
1000
2000
,
0000
0000
0000
0000
3001
0000
0010
0000
0100
0000
0000
0000
1000
0001
1000
0001
,
1000
0010
0100
0001
1000
0100
0010
0001
1000
0001
0010
0100
1000
0100
0010
0001
,
1000
0001
0010
0100
1000
0000
0001
0000
1000
0000
0000
0000
0010
0000
0010
0000
,
0200
0000
0301
1000
0001
0000
0010
0020
,
0000
0000
1030
0001
1000
0000
0100
0010
,
0001
0001
0010
0100
1000
1000
0100
0010
,
0001
0001
1000
0001
1000
0000
0010
0010
,
0200
0000
0301
1000
0001
0000
0010
0020
,
0000
0000
1030
0001
1000
0000
0100
0010
,
0001
0001
0010
0100
1000
1000
0100
0010
,
0101
2020
0000
3030
0000
0000
0000
0000
;

//---------------dance-single - Copied from Copied f----------------
#NOTES:
     dance-single:
     Copied from Copied f:
     Challenge:
     13:
     1.000,1.000,1.000,0.466,0.360,1283.000,259.000,110.000,30.000,34.000:
0000
0000
1010
0101
1000
0000
0001
0001
,
0020
0000
1030
0100
1000
0000
0001
0002
,
0000
0000
1013
0101
1000
0000
1000
0001
,
0100
0000
0001
0000
1000
0100
0010
0001
1000
0010
0100
0001
1000
0100
0010
0001
,
1000
0010
0100
0001
1010
0000
0101
0000
1000
0000
0000
0000
0001
0000
0001
0000
,
0020
0000
1030
0100
1000
0000
0001
0002
,
0000
0000
1013
0101
1000
0000
0100
0010
,
0100
0001
1100
0000
0000
0011
0000
0000
,
1100
1001
1001
0200
,
0020
0000
0331
0100
0001
0000
1000
1000
,
0020
0000
0130
0001
0100
0000
1000
2000
,
0000
0000
3001
0100
0001
0000
0010
0100
,
1000
1000
0100
0010
0001
0001
0010
0100
,
1000
1000
0001
0100
0001
0000
1000
1000
,
0020
0000
0130
0001
0100
0000
1000
2000
,
0000
0000
3001
0100
0001
1000
0100
1000
,
0010
0000
0100
0000
0001
0010
0100
1000
0001
1000
0010
0100
0001
0010
0100
1000
,
0001
1000
0010
0100
0001
0000
0010
0000
0001
0000
0000
0000
1000
0000
1000
0000
,
0002
0000
0103
0010
0100
0000
1000
2000
,
0000
0000
3001
0010
0001
0000
0010
0100
,
1000
0000
1000
0000
0100
0000
0010
0000
0001
1000
0001
1000
0011
0000
0100
0000
,
1000
1000
0001
0010
0001
0000
1000
1000
,
0002
0000
0103
0010
0100
0000
1000
2000
,
0000
0000
3001
0010
0001
0000
1010
0100
,
1000
1000
0101
0010
0001
0101
0010
0100
,
1010
1000
0011
0011
1000
1000
0011
0011
,
1000
1000
0011
0011
1000
1000
0100
1000
,
0200
0000
0311
0011
1000
1000
0011
0011
,
1000
1000
0011
0011
1000
1000
0100
2000
,
0000
3220
0000
1001
,
0000
0330
2002
0000
0000
0000
0110
0000
,
0000
3003
0220
0000
0000
0000
1001
0000
,
0000
0000
0330
0000
2002
0000
0000
0000
0000
0000
0000
0000
3103
0010
1000
0010
,
0100
0001
0010
0001
0220
0000
0000
0000
0000
0000
0000
0000
1001
0000
0000
0000
,
0000
0330
0202
0000
0000
0000
1010
0000
,
0000
0303
2020
0000
0000
0000
0101
0000
,
0000
0000
3030
0000
2200
0000
0000
0000
0000
0000
0000
0000
3301
0010
0100
1000
,
0011
0011
1000
1000
0001
0001
1000
1000
,
0001
0001
1000
1000
0000
0000
1MM1
0000
,
0000
0000
0100
0010
0100
0000
0001
1000
,
0001
0000
0100
0010
0100
0000
1MM1
0000
,
0000
0000
1010
1010
0101
0101
1010
1010
,
0101
0101
1010
1010
0000
0000
1MM1
0000
,
2000
3020
0230
0302
,
0203
2300
3022
0000
,
0000
0033
1100
1100
0001
0001
1100
1100
,
0001
0001
1100
1100
0001
0001
0010
0001
,
0020
0000
1130
1100
0001
0001
1100
1100
,
0001
0000
0001
0000
1100
0000
1100
0000
0001
1000
0001
1000
0011
0000
0100
0000
,
0011
0000
0100
0100
0010
0010
0100
0100
,
0010
0010
0100
0100
0000
0000
1MM1
0000
,
0000
0000
0000
0000
0001
0010
0001
0010
0001
0000
0000
0000
1000
0100
1000
0100
,
1000
0000
0000
0000
0001
0010
0001
0010
0001
0000
0000
0000
1MM1
0000
0000
0000
,
0000
0000
1100
1100
0011
0011
1100
1100
,
0011
0011
1100
1100
0000
0000
1MM1
0000
,
0000
0000
0000
0000
0001
0010
0001
0010
0001
0000
0000
0000
0001
0100
0001
0100
,
0001
0000
0000
0000
1000
0010
1000
0010
1000
0000
0000
0000
1000
0100
1000
0100
,
1000
0110
0110
0002
,
2000
0000
3103
0010
0100
0000
0010
0010
,
2000
0000
3001
0100
0001
0000
0010
0020
,
0000
0000
0130
0010
0100
0000
0010
0100
,
1000
1000
0100
0010
0001
0001
0010
0100
,
1000
1000
0100
0010
0100
0000
0010
0010
,
2000
0000
3001
0100
0001
0000
0010
0020
,
0000
0000
0000
0000
0130
0000
0010
0000
0100
0000
0000
0000
0010
0100
0001
0100
,
0010
0100
2000
0000
0200
0000
0020
0000
,
0002
3333
1001
0100
0010
1000
0001
0100
,
0010
1000
0011
1000
0100
1000
0011
0100
,
1000
0100
1001
0010
0100
0001
1000
0010
,
0100
0001
1100
0001
0010
0001
1100
0010
,
0001
0010
1001
0010
0001
0100
1000
0010
,
0001
0100
0110
0001
1000
0001
0110
1000
,
0001
1000
1001
0100
1000
0010
0001
0100
,
1000
0010
0002
0000
0113
0110
1001
1001
,
0110
0110
1001
0000
0011
0000
1010
0000
,
1001
0000
0110
0000
1100
0000
0010
0100
,
0000
0000
0101
0000
0000
0000
1000
0010
0000
0100
0000
0010
0000
0000
0000
0000
,
0110
0000
1100
0000
1001
0000
0100
0010
,
0000
1010
0000
0000
0000
0000
0011
0000
,
1100
0000
0101
0000
0100
1000
0000
1000
,
0000
1001
0000
0000
1010
0000
1010
0011
,
0000
0000
1100
0011
0000
0000
0011
1100
,
0011
0000
0000
0000
0010
0001
0100
0000
,
0000
1010
0110
0101
,
0010
1000
0000
0000
0001
0100
0010
0100
,
0000
1100
0000
0010
0100
0001
1000
0010
,
0100
0010
0000
0000
0000
0000
0001
1000
,
0010
1000
0000
0000
0011
0000
1010
0000
,
1100
0101
0000
2020
,
3031
0220
1330
2002
,
3103
0000
MM11
0011
1000
1000
0011
0011
,
1000
1000
0001
0100
0001
0010
0001
0100
,
0001
0010
0001
0100
0000
0000
1MM1
0000
,
0000
0000
1000
0100
1000
0000
0001
0010
,
0001
0000
1000
0100
1000
0000
1MM1
0000
,
0000
0000
1100
1100
0011
0011
1100
1100
,
0011
0011
1100
1100
0000
0000
1MM1
0000
,
0000
2000
3020
0230
,
0301
1000
0100
0010
1000
0010
0100
1000
0001
1000
0100
0010
1000
0010
0100
1000
,
0001
0000
1100
1100
0001
0001
1100
1100
,
0001
0001
1100
1100
0001
0001
0010
0001
,
0020
0000
1130
1100
0001
0001
1100
1100
,
0001
0000
0001
0000
1000
0100
0010
0001
1000
0001
0100
0010
1000
0001
1000
0100
,
0010
0001
0100
0010
1000
0000
0010
0000
1000
0000
0100
0000
1000
0000
0010
0000
,
1000
0100
1000
0010
0000
0000
1MM1
0000
,
0000
0000
0000
0000
1000
0010
1000
0010
1000
0000
0000
0000
0001
0100
0001
0100
,
0001
0000
0000
0000
1000
0010
1000
0010
1000
0000
0000
0000
1MM1
0000
0000
0000
,
0000
0000
0001
0001
1000
1000
0001
0001
,
1000
1000
0001
0001
0000
0000
1MM1
0000
,
0000
0000
0000
0000
1000
0100
1000
0100
1000
0000
0000
0000
0010
1000
0010
1000
,
0010
0000
0000
0000
0100
0001
0100
0001
0100
0000
0000
0000
0001
0010
0001
0010
,
0001
0000
0000
0000
0010
1000
0010
1000
0001
1000
0001
1000
0010
1000
0010
1000
,
0001
1000
0001
1000
0010
1000
0010
1000
0001
1000
0001
1000
0200
0000
0000
0000
,
0020
0000
0330
0100
1001
0100
0010
0001
,
0110
0001
1000
0010
0101
1000
0010
0100
,
1010
0100
0001
1000
0110
0001
0010
0100
,
1100
0001
0010
1000
0101
0010
1000
0001
,
0110
1000
0100
1000
0011
0100
0001
0010
,
1100
0001
0010
0100
1001
0010
0100
1000
,
0110
0001
0010
1000
0101
0010
1000
0100
,
0011
0100
1010
0101
0000
0000
0101
1010
,
0101
0010
1000
0010
0101
0010
0001
0100
,
1010
0100
0001
0010
1001
0100
1000
0001
,
0110
0001
1000
0100
0011
0100
0010
0001
,
1100
0010
0001
1000
0110
1000
0001
0010
,
1001
0100
0010
1000
0011
0100
0001
0100
,
1010
0001
1000
0010
0101
0010
0001
1000
,
0110
0001
1000
0100
1001
0010
2200
0000
,
3301
0202
0313
2002
,
3103
0000
11MM
0001
1010
0001
0100
1010
,
0100
1010
1001
0100
0010
1000
0001
0100
,
0010
1000
0011
1000
0100
1000
0011
0100
,
1000
0100
1001
0010
0100
0001
1000
0010
,
0100
0001
1100
0001
0010
0001
1100
0010
,
0001
0010
1001
0010
0001
0100
1000
0010
,
0001
0100
0110
0001
1000
0001
0110
1000
,
0001
1000
1001
0100
1000
0010
0001
0100
,
1000
0010
0002
0000
1003
0100
0010
0001
,
0100
0010
1100
0000
2200
0000
0000
0000
,
0000
3300
0020
0000
0000
0000
0200
0000
,
0000
0330
1010
0000
2020
0000
0000
0000
,
0000
3030
0002
0000
0000
0000
0020
0000
,
0000
0033
1000
0100
0100
0001
0010
0001
,
0001
0100
0010
1000
1000
0100
0010
0100
,
0100
0000
0010
0000
1000
0100
0010
0001
0010
0100
0010
1000
0100
0001
0010
0001
,
0100
0010
1000
0010
0100
0001
0010
0100
1000
0100
0010
0001
0100
0010
1000
0010
,
0100
0001
0010
0001
0200
0000
0000
0000
0000
0000
0000
0300
0200
0000
0000
0000
,
0000
0000
0301
0002
0000
0000
0023
0000
,
0000
0000
1030
0100
1000
0100
0001
0010
,
0001
0010
0100
1000
0100
1000
0001
0100
,
0001
0100
2000
3002
2003
3002
2003
3000
,
0020
0230
0320
0230
0320
0030
0000
0000
,
0001
0010
1100
1100
0001
0100
1010
1010
,
0100
0001
0110
0110
1000
0010
0101
0101
,
1000
0100
0012
0000
1100
0000
1010
0000
,
0110
0000
1100
0000
1013
0000
0010
0100
,
0000
0000
0101
0000
0000
0000
0010
1000
0000
0100
0000
1000
0000
0000
0000
0000
,
0011
0000
1100
0000
1001
0000
0100
0010
,
0000
1010
0000
0000
0000
0000
1100
0000
,
1001
0000
0110
0000
0010
0001
0000
0001
,
0000
0011
0000
0000
0110
0000
0110
1010
,
0000
0000
1001
0110
0000
0000
0110
1001
,
0110
0000
0000
0000
1000
0100
0010
0100
0010
0001
0100
1000
0100
1000
0010
0100
,
0001
0010
0100
1000
0010
0100
0010
0001
0010
0100
1000
0010
0001
0100
1000
0100
,
0010
0001
0010
0001
0100
0010
1000
0100
0010
0100
1000
0010
0001
0100
0010
0100
,
1000
0001
0010
0001
0100
0010
0100
1000
0010
0001
0100
0010
0100
1000
0100
0001
,
0010
0100
0010
0100
1000
0010
0001
0010
0100
1000
0100
0010
1000
0001
0010
0100
,
0010
1000
0100
1000
0010
0100
0001
0010
0100
1000
0100
1000
0010
1000
0100
0010
,
0001
0010
0100
0001
0010
1000
0100
0010
0100
0001
1000
0100
0022
0000
0000
0000
,
1033
2020
3031
2200
,
3310
0000
1MM1
0010
0100
0000
1000
1000
,
0002
0000
0103
0010
0001
0000
1000
2000
,
0000
0000
3001
0010
0100
0000
0010
0100
,
1000
1000
0100
0010
0001
0001
0010
0100
,
1000
1000
0001
0010
0100
0000
1000
1000
,
0002
0000
0103
0010
0001
0000
1000
2000
,
0000
0000
0000
0000
3001
0000
0010
0000
0100
0000
0000
0000
1000
0001
1000
0001
,
1000
0010
0100
0001
1000
0100
0010
0001
1000
0001
0010
0100
1000
0100
0010
0001
,
1000
0001
0010
0100
1000
0000
0001
0000
1000
0000
0000
0000
0010
0000
0010
0000
,
0200
0000
0301
1000
0001
0000
0010
0020
,
0000
0000
1030
0001
1000
0000
0100
0010
,
0001
0001
0010
0100
1000
1000
0100
0010
,
0001
0001
1000
0001
1000
0000
0010
0010
,
0200
0000
0301
1000
0001
0000
0010
0020
,
0000
0000
1030
0001
1000
0000
0100
0010
,
0001
0001
0010
0100
1000
1000
0100
0010
,
0101
2020
0000
3030
0000
0000
0000
0000
;

//---------------dance-single - Copied from Copied f----------------
#NOTES:
     dance-single:
     Copied from Copied f:
     Edit:
     13:
     1.000,1.000,1.000,0.466,0.360,1283.000,259.000,110.000,30.000,34.000:
0000
0000
1010
0101
1000
0000
0001
0001
,
0020
0000
1030
0100
1000
0000
0001
0002
,
0000
0000
1013
0101
1000
0000
1000
0001
,
0100
0000
0001
0000
1000
0100
0010
0001
1000
0010
0100
0001
1000
0100
0010
0001
,
1000
0010
0100
0001
1010
0000
0101
0000
1000
0000
0000
0000
0001
0000
0001
0000
,
0020
0000
1030
0100
1000
0000
0001
0002
,
0000
0000
1013
0101
1000
0000
0100
0010
,
0100
0001
1100
0000
0000
0011
0000
0000
,
1100
1001
1001
0200
,
0020
0000
0331
0100
0001
0000
1000
1000
,
0020
0000
0130
0001
0100
0000
1000
2000
,
0000
0000
3001
0100
0001
0000
0010
0100
,
1000
1000
0100
0010
0001
0001
0010
0100
,
1000
1000
0001
0100
0001
0000
1000
1000
,
0020
0000
0130
0001
0100
0000
1000
2000
,
0000
0000
3001
0100
0001
1000
0100
1000
,
0010
0000
0100
0000
0001
0010
0100
1000
0001
1000
0010
0100
0001
0010
0100
1000
,
0001
1000
0010
0100
0001
0000
0010
0000
0001
0000
0000
0000
1000
0000
1000
0000
,
0002
0000
0103
0010
0100
0000
1000
2000
,
0000
0000
3001
0010
0001
0000
0010
0100
,
1000
0000
1000
0000
0100
0000
0010
0000
0001
1000
0001
1000
0011
0000
0100
0000
,
1000
1000
0001
0010
0001
0000
1000
1000
,
0002
0000
0103
0010
0100
0000
1000
2000
,
0000
0000
3001
0010
0001
0000
1010
0100
,
1000
1000
0101
0010
0001
0101
0010
0100
,
1010
1000
0011
0011
1000
1000
0011
0011
,
1000
1000
0011
0011
1000
1000
0100
1000
,
0200
0000
0311
0011
1000
1000
0011
0011
,
1000
1000
0011
0011
1000
1000
0100
2000
,
0000
3220
0000
1001
,
0000
0330
2002
0000
0000
0000
0110
0000
,
0000
3003
0220
0000
0000
0000
1001
0000
,
0000
0000
0330
0000
2002
0000
0000
0000
0000
0000
0000
0000
3103
0010
1000
0010
,
0100
0001
0010
0001
0220
0000
0000
0000
0000
0000
0000
0000
1001
0000
0000
0000
,
0000
0330
0202
0000
0000
0000
1010
0000
,
0000
0303
2020
0000
0000
0000
0101
0000
,
0000
0000
3030
0000
2200
0000
0000
0000
0000
0000
0000
0000
3301
0010
0100
1000
,
0011
0011
1000
1000
0001
0001
1000
1000
,
0001
0001
1000
1000
0000
0000
1MM1
0000
,
0000
0000
0100
0010
0100
0000
0001
1000
,
0001
0000
0100
0010
0100
0000
1MM1
0000
,
0000
0000
1010
1010
0101
0101
1010
1010
,
0101
0101
1010
1010
0000
0000
1MM1
0000
,
2000
3020
0230
0302
,
0203
2300
3022
0000
,
0000
0033
1100
1100
0001
0001
1100
1100
,
0001
0001
1100
1100
0001
0001
0010
0001
,
0020
0000
1130
1100
0001
0001
1100
1100
,
0001
0000
0001
0000
1100
0000
1100
0000
0001
1000
0001
1000
0011
0000
0100
0000
,
0011
0000
0100
0100
0010
0010
0100
0100
,
0010
0010
0100
0100
0000
0000
1MM1
0000
,
0000
0000
0000
0000
0001
0010
0001
0010
0001
0000
0000
0000
1000
0100
1000
0100
,
1000
0000
0000
0000
0001
0010
0001
0010
0001
0000
0000
0000
1MM1
0000
0000
0000
,
0000
0000
1100
1100
0011
0011
1100
1100
,
0011
0011
1100
1100
0000
0000
1MM1
0000
,
0000
0000
0000
0000
0001
0010
0001
0010
0001
0000
0000
0000
0001
0100
0001
0100
,
0001
0000
0000
0000
1000
0010
1000
0010
1000
0000
0000
0000
1000
0100
1000
0100
,
1000
0110
0110
0002
,
2000
0000
3103
0010
0100
0000
0010
0010
,
2000
0000
3001
0100
0001
0000
0010
0020
,
0000
0000
0130
0010
0100
0000
0010
0100
,
1000
1000
0100
0010
0001
0001
0010
0100
,
1000
1000
0100
0010
0100
0000
0010
0010
,
2000
0000
3001
0100
0001
0000
0010
0020
,
0000
0000
0000
0000
0130
0000
0010
0000
0100
0000
0000
0000
0010
0100
0001
0100
,
0010
0100
2000
0000
0200
0000
0020
0000
,
0002
3333
1001
0100
0010
1000
0001
0100
,
0010
1000
0011
1000
0100
1000
0011
0100
,
1000
0100
1001
0010
0100
0001
1000
0010
,
0100
0001
1100
0001
0010
0001
1100
0010
,
0001
0010
1001
0010
0001
0100
1000
0010
,
0001
0100
0110
0001
1000
0001
0110
1000
,
0001
1000
1001
0100
1000
0010
0001
0100
,
1000
0010
0002
0000
0113
0110
1001
1001
,
0110
0110
1001
0000
0011
0000
1010
0000
,
1001
0000
0110
0000
1100
0000
0010
0100
,
0000
0000
0101
0000
0000
0000
1000
0010
0000
0100
0000
0010
0000
0000
0000
0000
,
0110
0000
1100
0000
1001
0000
0100
0010
,
0000
1010
0000
0000
0000
0000
0011
0000
,
1100
0000
0101
0000
0100
1000
0000
1000
,
0000
1001
0000
0000
1010
0000
1010
0011
,
0000
0000
1100
0011
0000
0000
0011
1100
,
0011
0000
0000
0000
0010
0001
0100
0000
,
0000
1010
0110
0101
,
0010
1000
0000
0000
0001
0100
0010
0100
,
0000
1100
0000
0010
0100
0001
1000
0010
,
0100
0010
0000
0000
0000
0000
0001
1000
,
0010
1000
0000
0000
0011
0000
1010
0000
,
1100
0101
0000
2020
,
3031
0220
1330
2002
,
3103
0000
MM11
0011
1000
1000
0011
0011
,
1000
1000
0001
0100
0001
0010
0001
0100
,
0001
0010
0001
0100
0000
0000
1MM1
0000
,
0000
0000
1000
0100
1000
0000
0001
0010
,
0001
0000
1000
0100
1000
0000
1MM1
0000
,
0000
0000
1100
1100
0011
0011
1100
1100
,
0011
0011
1100
1100
0000
0000
1MM1
0000
,
0000
2000
3020
0230
,
0301
1000
0100
0010
1000
0010
0100
1000
0001
1000
0100
0010
1000
0010
0100
1000
,
0001
0000
1100
1100
0001
0001
1100
1100
,
0001
0001
1100
1100
0001
0001
0010
0001
,
0020
0000
1130
1100
0001
0001
1100
1100
,
0001
0000
0001
0000
1000
0100
0010
0001
1000
0001
0100
0010
1000
0001
1000
0100
,
0010
0001
0100
0010
1000
0000
0010
0000
1000
0000
0100
0000
1000
0000
0010
0000
,
1000
0100
1000
0010
0000
0000
1MM1
0000
,
0000
0000
0000
0000
1000
0010
1000
0010
1000
0000
0000
0000
0001
0100
0001
0100
,
0001
0000
0000
0000
1000
0010
1000
0010
1000
0000
0000
0000
1MM1
0000
0000
0000
,
0000
0000
0001
0001
1000
1000
0001
0001
,
1000
1000
0001
0001
0000
0000
1MM1
0000
,
0000
0000
0000
0000
1000
0100
1000
0100
1000
0000
0000
0000
0010
1000
0010
1000
,
0010
0000
0000
0000
0100
0001
0100
0001
0100
0000
0000
0000
0001
0010
0001
0010
,
0001
0000
0000
0000
0010
1000
0010
1000
0001
1000
0001
1000
0010
1000
0010
1000
,
0001
1000
0001
1000
0010
1000
0010
1000
0001
1000
0001
1000
0200
0000
0000
0000
,
0020
0000
0330
0100
1001
0100
0010
0001
,
0110
0001
1000
0010
0101
1000
0010
0100
,
1010
0100
0001
1000
0110
0001
0010
0100
,
1100
0001
0010
1000
0101
0010
1000
0001
,
0110
1000
0100
1000
0011
0100
0001
0010
,
1100
0001
0010
0100
1001
0010
0100
1000
,
0110
0001
0010
1000
0101
0010
1000
0100
,
0011
0100
1010
0101
0000
0000
0101
1010
,
0101
0010
1000
0010
0101
0010
0001
0100
,
1010
0100
0001
0010
1001
0100
1000
0001
,
0110
0001
1000
0100
0011
0100
0010
0001
,
1100
0010
0001
1000
0110
1000
0001
0010
,
1001
0100
0010
1000
0011
0100
0001
0100
,
1010
0001
1000
0010
0101
0010
0001
1000
,
0110
0001
1000
0100
1001
0010
2200
0000
,
3301
0202
0313
2002
,
3103
0000
11MM
0001
1010
0001
0100
1010
,
0100
1010
1001
0100
0010
1000
0001
0100
,
0010
1000
0011
1000
0100
1000
0011
0100
,
1000
0100
1001
0010
0100
0001
1000
0010
,
0100
0001
1100
0001
0010
0001
1100
0010
,
0001
0010
1001
0010
0001
0100
1000
0010
,
0001
0100
0110
0001
1000
0001
0110
1000
,
0001
1000
1001
0100
1000
0010
0001
0100
,
1000
0010
0002
0000
1003
0100
0010
0001
,
0100
0010
1100
0000
2200
0000
0000
0000
,
0000
3300
0020
0000
0000
0000
0200
0000
,
0000
0330
1010
0000
2020
0000
0000
0000
,
0000
3030
0002
0000
0000
0000
0020
0000
,
0000
0033
1000
0100
0100
0001
0010
0001
,
0001
0100
0010
1000
1000
0100
0010
0100
,
0100
0000
0010
0000
1000
0100
0010
0001
0010
0100
0010
1000
0100
0001
0010
0001
,
0100
0010
1000
0010
0100
0001
0010
0100
1000
0100
0010
0001
0100
0010
1000
0010
,
0100
0001
0010
0001
0200
0000
0000
0000
0000
0000
0000
0300
0200
0000
0000
0000
,
0000
0000
0301
0002
0000
0000
0023
0000
,
0000
0000
1030
0100
1000
0100
0001
0010
,
0001
0010
0100
1000
0100
1000
0001
0100
,
0001
0100
2000
3002
2003
3002
2003
3000
,
0020
0230
0320
0230
0320
0030
0000
0000
,
1000
1000
1001
1001
1000
1000
1001
1001
,
1000
1000
1001
1001
1000
1000
1001
1001
,
1000
1000
1002
0000
1100
0000
1010
0000
,
0110
0000
1100
0000
1013
0000
0010
0100
,
0000
0000
0101
0000
0000
0000
0010
1000
0000
0100
0000
1000
0000
0000
0000
0000
,
0011
0000
1100
0000
1001
0000
0100
0010
,
0000
1010
0000
0000
0000
0000
1100
0000
,
1001
0000
0110
0000
0010
0001
0000
0001
,
0000
0011
0000
0000
0110
0000
0110
1010
,
0000
0000
1001
0110
0000
0000
0110
1001
,
0110
0000
0000
0000
1000
0100
0010
0100
0010
0001
0100
1000
0100
1000
0010
0100
,
0001
0010
0100
1000
0010
0100
0010
0001
0010
0100
1000
0010
0001
0100
1000
0100
,
0010
0001
0010
0001
0100
0010
1000
0100
0010
0100
1000
0010
0001
0100
0010
0100
,
1000
0001
0010
0001
0100
0010
0100
1000
0010
0001
0100
0010
0100
1000
0100
0001
,
0010
0100
0010
0100
1000
0010
0001
0010
0100
1000
0100
0010
1000
0001
0010
0100
,
0010
1000
0100
1000
0010
0100
0001
0010
0100
1000
0100
1000
0010
1000
0100
0010
,
0001
0010
0100
0001
0010
1000
0100
0010
0100
0001
1000
0100
0022
0000
0000
0000
,
1033
2020
3031
2200
,
3310
0000
1MM1
0010
0100
0000
1000
1000
,
0002
0000
0103
0010
0001
0000
1000
2000
,
0000
0000
3001
0010
0100
0000
0010
0100
,
1000
1000
0100
0010
0001
0001
0010
0100
,
1000
1000
0001
0010
0100
0000
1000
1000
,
0002
0000
0103
0010
0001
0000
1000
2000
,
0000
0000
0000
0000
3001
0000
0010
0000
0100
0000
0000
0000
1000
0001
1000
0001
,
1000
0010
0100
0001
1000
0100
0010
0001
1000
0001
0010
0100
1000
0100
0010
0001
,
1000
0001
0010
0100
1000
0000
0001
0000
1000
0000
0000
0000
0010
0000
0010
0000
,
0200
0000
0301
1000
0001
0000
0010
0020
,
0000
0000
1030
0001
1000
0000
0100
0010
,
0001
0001
0010
0100
1000
1000
0100
0010
,
0001
0001
1000
0001
1000
0000
0010
0010
,
0200
0000
0301
1000
0001
0000
0010
0020
,
0000
0000
1030
0001
1000
0000
0100
0010
,
0001
0001
0010
0100
1000
1000
0100
0010
,
0101
2020
0000
3030
0000
0000
0000
0000
;
