#TITLE:R5;
#SUBTITLE:;
#ARTIST:tiger YAMATO with ultrabeatbox;
#TITLETRANSLIT:;
#SUBTITLETRANSLIT:;
#ARTISTTRANSLIT:;
#CREDIT:;
#BANNER:R5.png;
#BACKGROUND:R5-bg.png;
#LYRICSPATH:;
#CDTITLE:!toph-cdtitle.png;
#MUSIC:Tiger YAMATO with ultrabeatbox - R5.mp3;
#OFFSET:-0.200;
#SAMPLESTART:25.800;
#SAMPLELENGTH:15.800;
#SELECTABLE:YES;
#BPMS:0.000=180.000,72.000=90.000,75.000=180.000;
#STOPS:;
#BGCHANGES:;
// cache tags:
#FIRSTBEAT:14.000;
#LASTBEAT:249.000;
#SONGFILENAME:Songs/Ace Megapack/R5/R5.sm;
#HASMUSIC:1;
#HASBANNER:1;
#MUSICLENGTH:86.419;
// end cache tags

//---------------dance-single - ----------------
#NOTES:
     dance-single:
     :
     Easy:
     5:
     0.418,0.576,0.312,0.243,0.000,205.000,27.000,21.000,0.000,0.000:  // measure 1
0000
0000
0000
0000
,  // measure 2
0000
0000
0000
0000
,  // measure 3
0000
0000
0000
0000
,  // measure 4
0000
0000
0000
0020
,  // measure 5
0130
0000
0001
1000
0001
0000
0010
0000
,  // measure 6
0100
0000
2000
0000
3001
0000
0010
0100
,  // measure 7
0010
0001
0100
0020
,  // measure 8
1030
0000
0100
0000
0000
0010
0000
0000
,  // measure 9
0001
0000
0000
0100
0000
0000
0010
0000
,  // measure 10
0000
1000
0000
0000
0100
0000
0000
0001
,  // measure 11
0000
0000
1000
0000
0000
0010
0000
0000
,  // measure 12
0001
0100
0101
1100
,  // measure 13
0101
1100
0101
0000
,  // measure 14
0000
0000
2002
0000
,  // measure 15
0000
0000
0000
0000
,  // measure 16
0000
0000
0000
0000
,  // measure 17
0000
0000
0000
0000
,  // measure 18
0000
0000
0000
0000
,  // measure 19
3003
0000
0000
0000
0000
1001
0110
0000
,  // measure 20
1000
0000
0000
0001
0000
0100
0000
0000
,  // measure 21
0001
0000
0000
0010
0000
0000
0100
0000
,  // measure 22
0000
1000
0000
0000
0100
0000
0000
0000
,  // measure 23
0001
0000
0000
1000
0000
0010
0000
0000
,  // measure 24
1000
0000
0000
0100
0000
0000
0010
0000
,  // measure 25
0000
0001
0000
0000
1010
0000
0000
0000
,  // measure 26
0100
0000
0000
0001
0000
1000
0000
0000
,  // measure 27
0001
0000
0000
0010
0000
0000
0100
0000
,  // measure 28
0000
1000
0000
0000
0100
0000
0000
0000
,  // measure 29
0010
0000
0000
0001
0000
0100
0000
0000
,  // measure 30
0001
0000
0000
0010
0000
0000
0100
0000
,  // measure 31
0000
0001
0000
0000
1001
0000
0000
0000
,  // measure 32
0010
0000
0000
1000
0000
0000
0100
0000
,  // measure 33
0020
0000
0032
0000
0103
0000
0000
0010
,  // measure 34
0000
1000
0200
2300
,  // measure 35
3010
0000
0000
0100
0000
0000
0001
0000
,  // measure 36
2000
0000
3020
0000
0130
0000
0000
0001
,  // measure 37
0000
1000
0200
0320
,  // measure 38
0031
1000
0001
1000
0000
0000
0010
0000
,  // measure 39
0200
0000
0302
0000
1003
0001
1000
0001
,  // measure 40
0000
0010
0200
2300
,  // measure 41
3001
1000
0001
1000
0000
0000
0010
0000
,  // measure 42
0200
0000
0302
0000
1003
0001
1000
0001
,  // measure 43
0000
0000
0010
0000
0100
0000
0000
1000
,  // measure 44
0000
1000
0000
0001
0100
0010
0000
0000
,  // measure 45
1001
0000
0000
0010
0000
0010
0000
0100
,  // measure 46
0001
1000
0000
0000
0110
0000
0000
0001
,  // measure 47
0000
0001
0000
0010
0100
1000
0000
0000
,  // measure 48
0101
0000
0000
0010
0000
0010
0000
1000
,  // measure 49
0100
0010
0000
0000
1001
0000
0000
0100
,  // measure 50
0010
0100
0000
0010
0100
0000
0000
0000
,  // measure 51
0001
1000
0001
1000
0000
0000
0100
0000
,  // measure 52
0010
0001
0010
0001
0000
0000
0100
0000
,  // measure 53
0010
1000
0010
1000
0000
0000
0001
0000
,  // measure 54
0010
0100
0010
0100
0000
0000
1000
0000
,  // measure 55
0001
0100
0001
0100
0001
0000
0000
1000
,  // measure 56
0100
1000
0100
1000
0100
0000
0000
0000
,  // measure 57
1000
0001
1000
0001
0000
0000
0000
1010
,  // measure 58
0000
1001
0000
0101
0000
1001
0000
1100
,  // measure 59
0000
0110
0000
0011
0000
1001
0000
1010
,  // measure 60
0000
0101
0000
1100
0000
0011
0000
0001
,  // measure 61
1000
0001
1000
0001
1000
0001
2000
0000
,  // measure 62
0100
0000
0010
0000
3001
0000
0100
0020
,  // measure 63
0000
0030
1001
0000
0000
0000
0000
0000
;

//---------------dance-single - ----------------
#NOTES:
     dance-single:
     :
     Medium:
     8:
     0.595,0.612,0.509,0.104,0.000,307.000,44.000,9.000,0.000,0.000:  // measure 1
0000
0000
0000
0000
,  // measure 2
0000
0000
0000
0000
,  // measure 3
0000
0000
0000
0000
,  // measure 4
0000
0000
0000
0011
,  // measure 5
1100
0000
0001
0100
0001
0000
0101
0000
,  // measure 6
0010
1000
0001
0000
0110
0000
1000
0100
,  // measure 7
0010
0001
0100
0000
0010
1000
0001
0000
,  // measure 8
1100
0000
0011
0000
0000
0101
0000
0000
,  // measure 9
1010
0000
0000
1100
0000
0000
1001
0000
,  // measure 10
0000
0101
0000
0000
1010
0000
0000
1100
,  // measure 11
0000
0000
0011
0000
0000
0101
0000
0000
,  // measure 12
1010
1001
0101
1100
,  // measure 13
0101
1100
0101
0000
,  // measure 14
0010
0000
2002
0000
,  // measure 15
0000
0000
0000
0000
,  // measure 16
0000
0000
0000
0000
,  // measure 17
0000
0000
0000
0000
,  // measure 18
0000
0000
0000
0000
,  // measure 19
3003
0000
0000
0000
0000
0110
0001
0000
,  // measure 20
1100
0000
0001
0100
0000
0010
1000
0100
,  // measure 21
0010
0000
0001
1000
0001
0000
1000
0010
,  // measure 22
1000
0100
0000
0010
0001
0000
1000
0000
,  // measure 23
0110
0000
0001
1000
0000
0010
0100
0001
,  // measure 24
0010
0000
0100
1000
0001
0000
0100
0010
,  // measure 25
1000
0001
0000
0010
0100
0000
1000
0000
,  // measure 26
0101
0000
0010
1000
0000
0001
0010
0100
,  // measure 27
1000
0000
0010
0100
0001
0000
1000
0100
,  // measure 28
0010
0100
0000
1000
0001
0000
0100
0000
,  // measure 29
1010
0000
0001
1000
0000
0100
0010
0001
,  // measure 30
1000
0000
0010
0100
0001
0000
1000
0100
,  // measure 31
0010
0100
0000
1000
0001
0000
0100
0000
,  // measure 32
0010
0010
0000
1000
1000
0000
0001
0001
,  // measure 33
0020
0000
0130
0000
1000
1000
0000
0010
,  // measure 34
0010
0000
0100
0100
0002
0000
0013
0000
,  // measure 35
0100
0100
0000
1000
1000
0000
0010
0010
,  // measure 36
0200
0000
0301
0000
0010
0010
0000
0100
,  // measure 37
0100
0000
1000
1000
0200
0000
0310
0001
,  // measure 38
0100
0010
1000
0100
0010
0001
0100
0010
,  // measure 39
1000
0100
1000
0010
0100
0001
0010
0100
,  // measure 40
1000
0010
0100
0001
0010
0100
1000
0001
,  // measure 41
0100
0001
1000
0100
1000
0001
0100
0001
,  // measure 42
1000
0100
1000
0010
0001
1000
0100
0001
,  // measure 43
1000
0010
0001
1000
0100
0001
0000
0110
,  // measure 44
0000
1001
0000
0010
1000
0100
0000
0000
,  // measure 45
1001
0000
0000
0110
0000
1001
0000
0010
,  // measure 46
0001
0100
0000
0000
1001
0000
0000
0110
,  // measure 47
0000
1001
0000
0010
1000
0100
0000
0000
,  // measure 48
1001
0000
0000
0110
0000
1001
0000
0010
,  // measure 49
0001
0100
0000
0000
1010
0000
0001
0100
,  // measure 50
0010
0100
0010
0100
0000
0001
1000
0100
,  // measure 51
0010
0100
0010
0100
0000
1000
0001
0100
,  // measure 52
0010
0100
0010
0100
0000
0001
1000
0100
,  // measure 53
0010
0100
0010
0100
0000
1000
0001
0100
,  // measure 54
0010
0010
1000
0100
0100
0000
0010
0010
,  // measure 55
0001
0001
0100
0010
1000
1000
0000
0001
,  // measure 56
0001
0010
0100
0100
1000
1000
0001
0100
,  // measure 57
0010
1000
0010
1000
0000
0010
1000
0100
,  // measure 58
0010
0010
0001
0100
0100
0010
1000
0001
,  // measure 59
0010
0100
1000
0010
0100
0100
0001
1000
,  // measure 60
1000
0100
0010
0001
0100
0010
1000
0100
,  // measure 61
0010
0001
0010
0001
0010
0001
2010
0000
,  // measure 62
0001
0000
0001
0000
0001
3000
0101
2020
,  // measure 63
0000
3030
1001
0000
0000
0000
0000
0000
;

//---------------dance-single - ----------------
#NOTES:
     dance-single:
     :
     Hard:
     9:
     0.622,0.648,0.567,0.023,0.023,325.000,49.000,2.000,0.000,0.000:  // measure 1
0000
0000
0000
0000
,  // measure 2
0000
0000
0000
0000
,  // measure 3
0000
0000
0000
0000
,  // measure 4
0000
0000
0000
1100
,  // measure 5
0101
0000
0010
1000
0100
0010
0001
0000
,  // measure 6
0100
0010
1010
0000
0101
0000
0001
0010
,  // measure 7
0100
1000
0010
0000
0100
0001
0011
0000
,  // measure 8
1010
0000
0001
0000
0010
0100
0000
0000
,  // measure 9
1000
0000
0001
0100
1000
0000
0010
0000
,  // measure 10
0100
0001
0000
0000
1000
0000
0100
0010
,  // measure 11
0001
0000
1000
0000
0010
0100
0000
0000
,  // measure 12
0001
0000
1000
0100
0101
0000
1100
0000
,  // measure 13
0101
1100
0101
0000
,  // measure 14
0010
1000
0100
0010
2002
0000
0000
0000
,  // measure 15
0000
0000
0000
0000
,  // measure 16
0000
0000
0000
0000
,  // measure 17
0000
0000
0000
0000
,  // measure 18
0000
0000
0000
3003
,  // measure 19
0001
0000
0001
0000
0001
1000
0100
0010
0001
0000
1001
0000
0100
0000
0000
0000
,  // measure 20
0011
0000
1000
0100
0000
1010
0000
0001
,  // measure 21
0100
0000
0010
1000
0100
0001
0100
1000
,  // measure 22
0001
0100
1000
0100
0010
1000
0001
0000
,  // measure 23
1100
0000
0010
0001
0000
0101
0000
0010
,  // measure 24
1000
0000
0001
0010
1000
0010
0001
0100
,  // measure 25
0010
1000
0100
0010
0011
0000
0100
0000
,  // measure 26
1010
0000
0001
1000
0000
0110
0000
1000
,  // measure 27
0001
0000
0100
0010
1000
0100
0001
0100
,  // measure 28
1000
0001
1000
0010
0001
0010
1000
0000
,  // measure 29
0110
0000
0001
0100
0000
1001
0000
0100
,  // measure 30
1000
0000
0010
0100
0001
1000
0100
0001
,  // measure 31
0100
0010
0001
0100
0110
0000
1000
0000
,  // measure 32
0001
0010
0000
1100
0000
0000
0101
0000
,  // measure 33
0010
1000
0000
0000
0100
0010
0000
1001
,  // measure 34
0000
0000
0011
0000
1000
0100
0000
0000
,  // measure 35
0001
0100
0000
1010
0000
0000
0011
0000
,  // measure 36
1000
0100
0000
0000
0010
0001
0000
0110
,  // measure 37
0000
0000
0011
0000
1000
0100
0010
0000
,  // measure 38
0001
0100
0010
1000
0100
0000
0010
0001
,  // measure 39
0101
0000
1010
0000
0001
0010
0100
1000
,  // measure 40
0010
0100
0001
0010
1100
0000
0101
0000
,  // measure 41
0001
0010
0100
1000
0001
0000
0100
0010
,  // measure 42
1010
0000
0011
0000
0100
0010
1000
0100
,  // measure 43
0010
0001
1000
0010
0100
0000
0001
1000
,  // measure 44
0000
1100
0000
0010
0001
0100
0010
1000
,  // measure 45
0001
0000
1000
0100
0000
0110
0000
0001
,  // measure 46
0100
0010
1000
0100
0010
0000
0001
1000
,  // measure 47
0000
0101
0000
0010
1000
0100
0010
0001
,  // measure 48
0100
0000
0010
1000
0000
0011
0000
0001
,  // measure 49
1000
0010
0100
0001
1001
0000
0010
1000
,  // measure 50
0100
1000
0000
0101
0000
0001
0100
0010
,  // measure 51
1000
0001
0000
1100
0000
0010
0001
0100
,  // measure 52
0010
1000
0000
0011
0000
0100
1000
0010
,  // measure 53
0100
0001
0000
1100
0000
0010
0001
0100
,  // measure 54
0010
0010
0000
1100
1000
0000
0001
0100
,  // measure 55
1000
0100
0010
1000
0001
0001
0000
1000
,  // measure 56
1100
0000
0010
0001
0100
1000
0000
0100
,  // measure 57
0010
1000
0100
0001
0000
1000
0100
0000
,  // measure 58
0010
0001
0100
1000
0000
0100
0001
1000
,  // measure 59
0100
0001
0100
0010
0001
0100
0010
1000
,  // measure 60
0000
0100
0001
0100
1000
0001
0100
0010
,  // measure 61
1000
0100
0010
0001
0100
0010
1001
1000
,  // measure 62
1000
1000
1000
1000
1000
1000
0100
0010
,  // measure 63
0001
0100
0001
0100
0010
0000
0000
0000
0000
0000
0000
0000
0000
0000
0000
0000
;

//---------------dance-single - ----------------
#NOTES:
     dance-single:
     :
     Challenge:
     11:
     1.000,1.000,1.000,0.035,0.220,449.000,194.000,3.000,0.000,0.000:  // measure 1
0000
0000
0000
0000
,  // measure 2
0000
0000
0000
0000
,  // measure 3
0000
0000
0000
0000
,  // measure 4
0000
0000
0000
0000
0001
0001
0011
0001
,  // measure 5
0101
0000
1010
0001
0100
0100
0110
1000
,  // measure 6
0001
0001
1100
0000
0011
0001
0101
0010
,  // measure 7
0100
1001
0010
0100
0101
0001
0011
0001
,  // measure 8
0101
0000
0010
0000
1001
0100
0000
0000
,  // measure 9
0010
0000
1100
0001
0101
0000
0010
0000
,  // measure 10
1100
0010
0000
0000
0001
0000
0110
1000
,  // measure 11
0101
0000
0010
0000
1100
0001
0000
0000
,  // measure 12
0110
0000
1001
1000
0101
0000
1100
0000
,  // measure 13
0101
1100
0101
0000
,  // measure 14
0020
0000
0000
0030
2002
0000
0000
0000
,  // measure 15
0000
0000
0000
0000
0000
0000
0000
3003
,  // measure 16
1000
0001
1000
0001
1000
0001
1000
0001
1000
0001
1000
0001
1000
0001
1000
0001
,  // measure 17
1000
0001
1000
0001
1000
0001
1000
0001
1000
0001
1000
0001
1000
0001
1000
0001
,  // measure 18
1000
0001
1000
0001
1000
0001
1000
0001
1000
0001
1000
0001
1000
0001
1000
0000
,  // measure 19
0010
0000
0010
0000
0010
0001
0100
1000
0010
0000
0110
0000
1000
0000
0000
0000
,  // measure 20
0101
0001
0010
1100
0101
1010
1000
0100
,  // measure 21
1100
0001
0101
1010
0101
1000
1100
0011
,  // measure 22
0101
1010
0001
1000
0101
0010
1001
0000
,  // measure 23
1000
0001
0100
1010
1100
0011
1000
0001
,  // measure 24
0110
1000
1001
1010
0101
0001
0011
1100
,  // measure 25
1010
0000
0101
0000
1001
0000
1000
0000
1100
1100
0000
0000
0101
0000
0000
0000
,  // measure 26
0110
0001
1000
0101
1010
0011
0100
1000
,  // measure 27
1100
0001
0110
0101
1010
0100
0011
1100
,  // measure 28
1001
0101
0010
1000
0011
0100
1010
0000
,  // measure 29
0101
0010
1000
1001
0110
0011
1000
0001
,  // measure 30
1100
0100
0011
0101
1010
0001
1100
1001
,  // measure 31
0101
0000
0110
0000
1001
0000
0001
0000
0101
0101
0000
0000
1100
0000
0000
0000
,  // measure 32
1010
0010
0001
0100
1010
0000
0101
0100
,  // measure 33
1010
1000
0001
0000
1100
0100
0001
0010
,  // measure 34
1100
0000
0011
0010
1010
1000
0001
0000
,  // measure 35
1010
0010
0001
0100
1100
0000
0011
0010
,  // measure 36
1100
1000
0001
0000
1100
0100
0001
0010
,  // measure 37
1100
0000
0011
0001
0101
0001
1001
0100
,  // measure 38
0011
0101
1001
1010
0100
0001
1000
0100
,  // measure 39
0011
1000
0101
0010
1100
0101
0011
1010
,  // measure 40
0100
0001
1100
0110
0011
1001
0110
1000
,  // measure 41
0101
1010
1100
0011
0100
0010
1000
0001
,  // measure 42
1100
0010
0101
1000
0110
0011
1100
0110
,  // measure 43
0001
1000
0110
0101
1001
1100
0010
0100
,  // measure 44
1001
0100
0000
0110
1000
0100
0010
0001
,  // measure 45
1001
0000
0100
0010
1001
0010
0000
1010
,  // measure 46
0010
1000
0100
0010
1001
0000
0010
0001
,  // measure 47
1100
0010
0000
0011
0100
0010
1000
0100
,  // measure 48
1001
0000
0010
0100
1001
0100
0000
0110
,  // measure 49
1000
0100
0011
0100
1001
0000
1010
0001
,  // measure 50
0101
0000
0100
0010
1000
0000
1001
0000
0100
0000
0010
0000
0001
0000
0100
0000
,  // measure 51
1001
0000
0010
1000
0001
0000
0110
0000
1000
0000
0001
0000
0010
0000
0100
0000
,  // measure 52
1001
0000
0100
0010
0001
0000
1010
0000
0100
0000
0001
0000
1000
0000
0100
0000
,  // measure 53
0011
0000
1000
0010
0100
0000
1001
0000
0010
0000
0100
0000
0001
0000
0010
0000
,  // measure 54
1100
0000
0001
0100
0010
0000
1001
0000
0010
0000
0100
0000
0011
0000
1000
0000
,  // measure 55
0101
0000
0010
1000
0001
0000
0110
0000
1001
0000
0100
0000
0010
0000
1001
0000
,  // measure 56
0110
0000
1000
0001
0100
0000
1010
0000
0101
0000
1000
0000
0100
0000
0010
0000
,  // measure 57
1001
0000
0010
0001
1000
0000
0110
0000
0001
0000
1000
0000
0100
0000
0011
0000
,  // measure 58
1010
0101
1000
0110
0001
1100
0011
0101
,  // measure 59
1010
1100
0001
0110
1001
0110
1000
0101
,  // measure 60
0010
1100
0011
0101
1001
1100
0010
0100
,  // measure 61
1001
0101
1010
1100
0011
1001
0110
0100
,  // measure 62
0100
0000
0100
0000
0100
0000
0100
0000
0100
0000
0100
0000
1010
0000
0101
1000
,  // measure 63
0001
0100
0010
0100
1001
0000
0000
0000
0000
0000
0000
0000
0000
0000
0000
0000
;
