#TITLE:Rainbow Connection;
#SUBTITLE:;
#ARTIST:Me First and the Gimmie Gimmies;
#TITLETRANSLIT:;
#SUBTITLETRANSLIT:;
#ARTISTTRANSLIT:;
#CREDIT:Crash Gineros;
#BANNER:cloudb.png;
#BACKGROUND:clouds.png;
#LYRICSPATH:;
#CDTITLE:Elsewhere.png;
#MUSIC:Me First And The Gimmie Gimmies - Rainbow Connection.mp3;
#OFFSET:-0.400;
#SAMPLESTART:26.049;
#SAMPLELENGTH:18.300;
#SELECTABLE:YES;
#BPMS:0.000=104.000,16.000=223.500,136.000=111.620,144.000=225.500,264.000=111.000,280.000=227.000,404.000=219.000,424.000=112.999;
#STOPS:;
#BGCHANGES:;
// cache tags:
#FIRSTBEAT:0.000;
#LASTBEAT:430.500;
#SONGFILENAME:Songs/keyboard/Rainbow Connection/Rainbow Connection.sm;
#HASMUSIC:1;
#HASBANNER:1;
#MUSICLENGTH:138.179;
// end cache tags

//---------------dance-single - Dreamer Steps----------------
#NOTES:
     dance-single:
     Dreamer Steps:
     Hard:
     8:
     0.703,1.000,1.000,0.774,0.018,428.000,145.000,107.000,0.000,8.000:
2002
0000
0000
3003
0220
0000
0000
0330
,
2002
0000
0000
3003
0220
0000
0000
0330
,
2002
0000
0000
3003
0220
0000
0000
0330
,
2002
0000
0000
3003
0110
0000
0000
0000
,
0010
0000
0010
0001
1000
0000
0100
0000
,
1000
0000
0001
0100
1000
0000
1010
0000
,
0101
0000
1000
0001
1000
0000
0011
0000
,
1000
0010
0001
0100
,
1000
0000
0010
0100
1000
0000
1001
0000
,
0100
0010
1000
0001
,
1000
0000
0001
0001
1000
0000
0010
0100
,
0010
0000
0001
1000
0010
0100
0010
0100
,
0001
0011
1000
1010
,
0011
0000
1010
0000
0001
0100
1001
0000
,
0110
0110
1001
0110
,
0001
1000
0001
1000
1001
0000
0110
0000
,
0011
2200
3300
2020
,
3030
2002
3003
1010
,
0001
0010
0100
1000
0001
0010
0100
1000
,
1000
0100
0010
0001
0101
0000
0110
0000
,
0002
0000
0000
0010
0000
0000
1000
0000
,
0000
0010
0000
0000
0000
0000
0000
0000
0000
1000
0000
0000
0000
0000
0000
0000
0000
0000
1003
0000
0000
0000
0000
0000
,
1001
0000
0000
0000
0000
1100
0000
0000
0000
0011
0000
0000
,
0000
1010
0000
0000
0000
0000
0000
0000
0000
0000
0000
0000
0100
0000
0000
0010
0000
0000
0100
0000
0000
0000
0000
0000
,
0020
1000
0001
0130
,
0200
0010
0001
1300
,
0022
0030
0200
0300
,
2000
3000
0200
0300
,
0013
0000
1000
0100
0010
0000
0001
0010
,
1000
0010
0101
1010
,
0010
0000
0001
1000
0010
0000
1000
0001
,
0100
1000
0010
0001
,
1010
0000
1010
0000
0010
0100
0010
0000
,
0101
0000
0001
0100
0001
0000
1001
0000
,
0220
0000
0000
0330
,
2002
0000
0000
3003
,
1001
0000
0001
0010
0001
0000
1000
0100
,
1000
0000
1000
0010
1000
0000
0001
0010
,
0001
0000
0010
0100
0010
0000
0100
0010
,
0100
0011
1100
1001
,
1001
0000
0000
0011
0000
0000
0110
0000
,
0000
1010
0000
0000
1001
0000
0000
0000
,
1001
0011
1001
1010
,
1001
0000
1000
0100
0000
0001
0010
0000
,
0020
0000
0000
0000
0030
0000
2000
0000
3000
0000
0000
0000
0000
0100
0000
0000
,
0100
0000
0010
0100
0000
0000
0000
0000
,
0100
0000
0100
0001
0010
0000
1010
0000
,
1001
0110
1001
0110
,
0001
0010
1000
0100
,
1000
0010
0001
1100
,
1000
0100
1000
0100
1000
0010
0100
0010
,
0100
0001
0100
0001
0100
0000
0000
0000
,
2002
3003
0220
0330
,
2002
3003
0022
0033
,
2200
3300
1000
1000
,
2001
3010
0110
0000
,
0001
0010
0100
0000
0001
0000
0100
0000
,
1000
0100
0010
0000
1000
0000
0001
0000
,
0011
0101
1100
1010
,
2002
3000
0020
0030
0200
0300
0020
0030
,
1003
0011
0110
1100
,
1001
1100
0110
0011
,
0001
0010
0001
0010
0001
0000
0011
0000
,
0110
0110
1001
0110
,
0001
0010
0100
1000
0001
0010
0100
1000
,
0110
1001
0110
1001
,
2002
3003
0220
0330
,
2002
3003
0220
0330
,
0022
0033
0220
0330
2200
3300
0202
0303
,
2002
3003
0220
0330
,
1001
1001
0011
1100
,
1010
0110
0101
1001
,
0110
0101
0110
1010
,
1100
0101
1001
0011
,
0001
0010
1000
0100
,
0001
0010
1000
0100
,
2002
3200
0320
0230
,
2300
3020
2030
3003
,
0001
0010
0100
0000
1000
0100
0010
0000
,
0001
0100
0010
0000
1000
0010
0100
0000
,
1001
0110
1001
0110
,
0011
1100
1001
0000
,
1000
0001
1000
0001
0010
0100
0010
0100
,
0010
0010
0001
1000
,
2002
0000
3100
0000
0023
0030
2002
0000
,
3003
0202
0000
0303
,
0002
0023
2030
3200
,
0000
2300
3020
0032
,
0203
2300
3020
0030
,
2002
0000
3223
0330
,
1001
0000
1001
0000
,
0110
0000
0110
0000
,
0001
0010
1000
0100
,
0010
0001
1000
0101
,
0001
0010
0001
0010
0001
0010
0001
0010
,
0001
0100
0001
0100
0001
0100
0001
0100
,
1000
0100
1000
0100
1000
0100
1000
0100
,
0010
0100
0010
0100
0010
0100
0010
0000
,
1001
1001
0000
0000
,
0110
0110
0000
0110
,
2002
0000
0000
3003
,
2000
0000
0000
0000
3000
0100
0010
0000
,
0002
0000
0000
0000
0003
0010
0100
0000
,
2002
0000
3003
0010
,
0000
1000
0000
0000
0000
0000
0000
0000
0000
0000
0000
0000
0001
0000
0000
0000
0000
0000
0000
0000
0000
0000
0000
0000
0010
0000
0000
0000
0000
0000
0000
0000
,
1000
0000
0000
1000
0000
0000
0110
0000
,
2002
0000
0000
0000
,
0000
0000
0000
0000
3003
0110
0000
0000
;

//---------------dance-single - Dreamer Duel Steps----------------
#NOTES:
     dance-single:
     Dreamer Duel Steps:
     Challenge:
     9:
     0.714,1.000,1.000,0.716,0.065,448.000,143.000,99.000,20.000,11.000:
2001
0000
0000
0000
0001
0000
0000
0000
0001
3000
0000
0000
M21M
0000
0000
0000
0010
0000
0000
0000
0010
0300
0000
0000
,
1MM2
0000
0000
0000
1000
0000
0000
0000
1000
0003
0000
0000
M21M
0000
0000
0000
0010
0000
0000
0000
0010
0300
0000
0000
,
2MM1
0000
0000
0000
0001
0000
0000
0000
0001
3000
0000
0000
M10M
0000
0000
0000
0010
0000
0000
0000
0100
0000
0000
0000
,
1MM0
0000
0001
0000
1000
0000
0110
0000
0000
0000
0000
0000
,
M010
0000
0010
0M01
1000
0000
0100
0000
,
1000
0000
00M1
0100
1000
0000
1M10
0000
,
01M1
0000
1000
0001
1000
0000
0011
0000
,
100M
0010
0001
0100
,
10M0
0000
0010
01M0
1000
0000
1001
0000
,
0100
0010
1000
0001
,
1000
0000
0001
0001
1000
0000
0010
0100
,
0010
0000
0001
1000
0010
0100
0010
0100
,
0001
0011
1000
1010
,
0011
0000
1010
0000
0001
0100
1001
0000
,
0110
0110
1001
0110
,
0001
1000
0001
1000
1001
0000
0110
0000
,
0011
2200
3300
2020
,
3030
2002
3003
1010
,
0001
0010
0100
1000
0001
0010
0100
1000
,
1000
0100
0010
0001
0101
0000
0110
0000
,
0002
0000
0000
0010
0000
0000
1000
0000
,
0000
0010
0000
0000
0000
0000
0000
0000
0000
1000
0000
0000
0000
0000
0000
0000
0000
0000
1003
0000
0000
0000
0000
0000
,
1001
0000
0000
0000
0000
1100
0000
0000
0000
0011
0000
0000
,
1010
0000
0000
0000
0100
0010
0100
0000
,
0020
1000
0001
0130
,
0200
0010
0001
1300
,
0022
0030
0200
0300
,
2000
3000
0200
0300
,
0013
0000
1000
0100
0010
0000
0001
0010
,
1000
0010
0101
1010
,
0010
0000
0001
1000
0010
0000
1000
0001
,
0100
1000
0010
0001
,
1010
0000
1010
0000
0010
0100
0010
0000
,
0101
0000
0001
0100
0001
0000
1001
0000
,
0220
0000
0000
0330
,
2002
0000
0000
3003
,
1001
0000
0001
0010
0001
0000
1000
0100
,
1000
0000
1000
0010
1000
0000
0001
0010
,
0001
0000
0010
0100
0010
0000
0100
0010
,
0100
0011
1100
1001
,
1001
0000
0000
0010
0011
0000
0110
0000
,
0000
0010
0011
0000
1001
0000
0000
0000
,
1001
0011
1001
1010
,
1001
0000
1000
0100
0000
0001
0010
0000
,
0020
0000
0000
0000
0030
0000
2000
0000
3000
0000
0000
0000
0000
0100
0000
0000
,
0100
0000
0010
0110
0000
0000
0000
0000
,
0100
0000
0100
0001
0010
0000
1010
0000
,
1001
0110
1001
0110
,
0001
0010
1000
0100
,
1000
0010
0001
1100
,
1000
0100
1000
0100
1000
0010
0100
0001
,
0010
0001
0100
0001
1000
0000
0000
0000
,
2002
3003
0220
0330
,
2002
3003
0022
0033
,
2200
3300
1000
1000
,
2001
3010
0110
0000
,
0001
0010
0100
0000
0001
0000
0100
0000
,
1000
0100
0010
0000
1000
0000
0001
0000
,
0011
0101
1100
1010
,
2002
3000
0020
0030
0200
0300
0020
0030
,
1003
0011
0110
1100
,
1001
1100
0110
0011
,
0001
0010
0001
0010
0001
0000
0011
0000
,
0110
0110
1001
0110
,
0001
0010
0100
1000
0100
0010
0001
0010
,
0100
1000
1001
0000
0110
0000
1001
0000
,
2002
3003
0220
0330
,
2002
3003
0220
0330
,
0022
0033
0220
0330
2200
3300
0202
0303
,
2002
3003
0220
0330
,
1001
1001
0011
1100
,
1010
0110
0101
1001
,
0110
0101
0110
1010
,
1100
0101
1001
0011
,
0001
0010
1000
0100
,
0001
0010
1000
0100
,
2002
3200
0320
0230
,
2300
3020
2030
3003
,
0001
0010
0100
0000
1000
0100
0010
0000
,
0001
0100
0010
0000
1000
0010
0100
0000
,
1001
0110
1001
0110
,
0011
1100
1001
0000
,
1000
1000
0001
0001
0010
0010
0100
0100
,
0010
0000
0010
0010
0001
0001
1000
0000
,
2002
3200
0023
2332
,
3003
0202
0000
0303
,
0002
0023
2030
3200
,
0000
2300
3020
0032
,
0203
2300
3020
0030
,
2002
0000
3223
0330
,
1001
0000
1001
0000
,
0110
0000
0110
0000
,
0001
0010
1000
0100
,
0010
0001
1000
0101
,
0001
0010
0001
0010
0001
0010
0001
0100
,
0001
0100
0001
0100
0001
0100
0001
0010
,
1000
0010
1000
0010
1000
0010
1000
0010
,
1000
0100
1000
0100
1000
0100
1000
0100
,
1001
1001
0000
0000
,
0110
0110
0000
0110
,
2002
0000
0000
3003
,
2000
0000
0000
0000
3000
0100
0010
0000
,
0002
0000
0000
0000
0003
0010
0100
0000
,
2002
0000
3003
0010
,
0000
1000
0000
0000
0000
0000
0000
0000
0000
0000
0000
0000
0001
0000
0000
0000
0000
0000
0000
0000
0000
0000
0000
0000
0010
0000
0000
0000
0000
0000
0000
0000
,
1000
0000
0000
1000
0000
0000
0110
0000
,
2002
0000
0000
0000
,
3003
0000
0000
0000
0000
1011
0000
0000
;

//---------------dance-single - Norm Steps----------------
#NOTES:
     dance-single:
     Norm Steps:
     Medium:
     6:
     0.616,0.700,0.919,1.000,0.000,328.000,127.000,141.000,0.000,4.000:
2000
0000
3020
0000
,
0230
0000
0302
0000
,
0023
0000
2030
0000
,
3200
0300
1001
0000
,
2000
3200
0320
0032
,
0023
0230
0302
2003
,
3020
0000
0230
0000
,
2302
0000
3223
0000
,
0330
0001
0100
0001
,
0000
1000
0010
1000
,
0202
0300
2000
3000
,
0020
0030
0200
0303
,
1001
0000
0110
0000
,
0011
0110
1100
0000
,
1001
0000
0110
0000
,
1100
1001
0101
0000
,
2002
3003
0220
0330
,
1000
0001
1001
0110
,
0022
0030
0200
0300
,
2000
0000
3003
0000
,
0110
0001
1010
0100
,
0001
0100
1000
0010
,
0001
0100
1000
0010
,
0002
0003
0020
0030
,
0002
0003
0200
0300
,
0001
1000
0010
0010
,
1000
0100
0001
0001
,
1001
0110
1001
0000
,
0110
0011
1100
0010
,
0001
0100
1000
1000
,
1000
1100
0010
0011
,
1001
0000
0001
0010
0001
0000
1000
0010
,
1000
0110
1001
0110
,
0022
0030
0200
0303
,
2002
0000
0000
0000
0000
0000
0000
3003
,
0220
0000
0000
0000
0000
0000
0000
0330
,
0002
0010
0103
2000
,
3002
0003
1001
0110
,
0200
0010
0301
0110
,
0011
0010
0000
0110
,
2000
3020
0030
0002
,
0003
1001
0010
0001
,
0001
0200
0320
0032
,
0203
0000
0300
0000
0001
0000
0001
0100
,
0010
0001
0101
1010
,
0011
0000
0110
0000
,
1001
0000
1010
0000
,
1010
0100
1100
0100
,
0001
0100
1000
0010
,
0010
1000
0001
0100
,
2002
3200
0320
0030
,
1003
0000
0010
0001
0010
0000
0010
0000
,
2002
3003
0220
0330
,
2002
3003
0220
0330
,
0022
0033
2020
3030
,
0202
0303
2200
3300
,
1001
0010
0010
0100
,
0001
0010
0100
1000
,
1000
0010
0100
0001
,
0001
0100
1000
0010
,
0202
0303
0010
0010
,
2002
3003
0010
0100
,
2020
3030
0100
0001
,
0220
0330
0110
1001
,
1000
0100
1000
0000
0010
0000
0010
0000
,
0001
1000
0001
0000
1001
0000
0110
0000
,
0002
0200
0300
2000
,
0003
0020
0030
3200
,
0000
0320
0000
0002
,
0033
0001
0010
1000
,
0100
0001
0010
1000
,
0100
1000
1001
0110
,
0011
0110
1100
1001
,
0101
0101
1010
0000
,
0022
0033
2020
3030
,
2200
3300
0202
0303
,
2002
0000
0000
0000
,
3003
0010
0001
0011
,
0011
0000
0000
0000
0010
0100
0010
0000
,
1001
1001
0010
0200
,
0020
0330
2002
3003
,
0220
0000
0330
0000
0001
0010
0001
0100
,
0001
0001
0100
0010
,
0100
0011
0010
0011
,
0001
0101
1000
1010
,
1001
0022
0033
0012
,
1003
2002
3003
2001
,
3010
0002
0023
2030
,
3200
0300
1001
0000
,
1001
0110
0000
1001
,
0011
0101
1001
0110
,
2002
3003
0220
0330
,
0002
0023
2030
3000
,
0020
0000
0000
0030
,
0001
0011
0101
0011
,
0001
1000
1100
1010
,
1100
1000
0010
0110
,
0100
1001
0001
0010
,
1000
0100
2002
3003
,
0220
0330
0022
0033
,
2200
3300
0011
1100
,
2002
0000
0003
3010
,
2002
0000
3000
0103
,
0220
0000
0030
0310
,
0001
0010
1000
1000
,
0010
0001
1001
0110
,
2002
0000
0000
0000
,
0000
0000
3003
0000
;

//---------------dance-single - ----------------
#NOTES:
     dance-single:
     :
     Easy:
     5:
     0.545,0.700,0.876,0.499,0.000,337.000,121.000,69.000,0.000,0.000:
2000
0000
3020
0000
,
0032
0000
0203
0000
,
2300
0000
3020
0000
,
0032
0000
0103
0000
,
0001
0010
0001
1000
,
0100
0010
0100
0001
,
0001
0100
0010
0001
,
1001
0001
0011
0101
,
0001
0010
0100
1000
,
0001
0010
0001
1000
,
0110
0000
1001
0000
,
0010
0110
0100
0000
,
0001
0011
0010
1010
,
1000
1100
0100
0101
,
0010
0110
0001
1001
,
0000
1000
0001
0001
,
1001
0000
0011
0000
,
1100
0001
0010
0001
,
0010
0100
1000
0100
,
1000
0100
0100
0100
,
0000
0100
0010
0100
,
0000
0010
0001
0001
,
0010
0100
0001
0101
,
0001
0101
0101
0000
,
0010
0001
0001
0010
,
0010
0100
0100
0001
,
0100
1000
0010
0001
,
0100
1000
0100
0010
,
1001
0000
0010
0010
,
0011
0000
0010
0001
,
1100
0000
0100
0010
,
0101
1010
0000
0001
,
0100
0001
0100
0001
,
0010
0001
0010
0001
,
2002
0000
0000
0000
0000
0000
0000
3003
,
0220
0000
0000
0000
0000
0000
0000
0330
,
1001
1001
0000
0110
,
0001
0010
1000
0100
,
0110
0110
0000
1000
,
0100
0001
0010
0011
,
0000
0110
0000
1100
,
0000
1001
0000
0010
,
0100
0010
0100
0001
,
1000
1001
1001
1001
,
1000
1100
0100
0110
,
0010
0011
0001
1001
,
1000
1010
0010
0101
,
0100
1010
1001
0110
,
0001
1001
1000
1001
,
0001
0000
1001
0000
,
0220
0000
0000
0330
,
0202
0000
0000
0303
2020
0000
0000
0000
,
3030
0010
0010
0010
,
1001
0100
0100
0100
,
1001
0010
0100
0010
,
1001
0100
0010
0100
,
2002
3003
0001
0001
,
2002
3003
1001
0110
,
2002
0000
0000
3003
,
0000
0000
0000
0000
,
0001
0010
0001
0011
,
0100
1000
0100
1100
,
0001
0100
0010
1001
,
1000
0010
0100
1001
,
0001
0010
0000
0001
,
0010
0110
0000
1001
,
2002
0000
0000
3003
0022
0000
0000
0033
,
0202
0000
0000
0303
2002
0000
0000
3003
,
0020
0000
0000
0031
0200
0000
0000
0310
,
2002
0000
3003
0110
2002
0000
0000
3003
,
0001
0010
1000
0100
,
0001
0010
1000
0100
,
0001
0000
0010
0000
,
0001
0100
1000
0000
,
2001
0010
0100
3001
,
1002
0100
0010
1003
,
1001
0110
1001
0000
,
0001
0010
1100
0011
,
0001
0011
0010
1010
,
1000
1100
0100
0101
,
0001
1001
1000
1010
,
0010
0110
0100
0110
,
1001
0000
0001
0010
,
1001
0000
0100
1000
,
2002
3000
0200
0300
,
0020
0030
0200
0300
,
1003
0100
0001
0010
,
0010
0001
0100
1000
,
0100
0001
0010
0001
,
0200
0000
0000
0310
0000
0000
0000
0000
,
1001
0000
1000
0011
,
0110
0000
0001
0011
,
2002
0000
0000
0000
,
3003
0010
0100
0110
,
2002
3003
1001
0110
,
0220
0330
0110
0101
,
2200
3300
1100
1001
,
2002
3003
1001
0110
,
0001
0100
1000
0100
,
0010
1000
0001
1001
,
2002
0000
3003
0000
,
2002
0000
0003
3010
,
2002
0000
3000
1003
,
2002
0000
3003
0110
,
1001
1000
0100
0101
,
0100
0110
2002
3003
,
2002
0000
0000
0000
,
3003
0000
0000
0000
0000
0000
0000
0000
0000
0000
0000
0000
2200
3300
0000
0000
0000
0000
0000
0000
0000
0000
0000
0000
;
