#TITLE:LOVE IS ORANGE;
#SUBTITLE:;
#ARTIST:ORANGE LOUNGE;
#TITLETRANSLIT:;
#SUBTITLETRANSLIT:;
#ARTISTTRANSLIT:;
#CREDIT:;
#BANNER:Love is Orange.png;
#BACKGROUND:Love is Orange-bg.png;
#LYRICSPATH:;
#CDTITLE:!toph-cdtitle.png;
#MUSIC:Orange Lounge - Love is Orange.mp3;
#OFFSET:-0.437;
#SAMPLESTART:21.900;
#SAMPLELENGTH:11.500;
#SELECTABLE:YES;
#BPMS:0.000=180.000;
#STOPS:61.000=0.660
,107.000=0.660
,138.000=0.330
;
#BGCHANGES:;
// cache tags:
#FIRSTBEAT:16.000;
#LASTBEAT:298.500;
#SONGFILENAME:Songs/Community Keyboard Megapack - Volume 1/(Toph) Love is Orange/Love is Orange.sm;
#HASMUSIC:1;
#HASBANNER:1;
#MUSICLENGTH:104.228;
// end cache tags

//---------------dance-single - ----------------
#NOTES:
     dance-single:
     :
     Easy:
     5:
     0.362,0.394,0.134,0.115,0.000,238.000,14.000,12.000,0.000,0.000:  // measure 1
0000
0000
0000
0000
,  // measure 2
0000
0000
0000
0000
,  // measure 3
0000
0000
0000
0000
,  // measure 4
0000
0000
0000
0000
,  // measure 5
1000
0000
0000
0100
0000
0000
0000
0000
,  // measure 6
0001
0000
0000
0100
0000
0000
0000
0000
,  // measure 7
1000
0000
0000
0100
0000
0000
0000
0000
,  // measure 8
0001
0000
0000
0100
0020
0000
0030
0000
,  // measure 9
1000
0000
0000
1001
0000
0000
0001
0000
,  // measure 10
0100
0000
0000
0110
0000
0000
0010
0000
,  // measure 11
1000
0000
0000
1010
0000
0000
0010
0000
,  // measure 12
0001
0000
0000
0011
0000
0000
0010
0000
,  // measure 13
0100
0000
0000
1100
0000
0000
1000
0000
,  // measure 14
0001
0000
0000
1001
0000
0000
1000
0000
,  // measure 15
0010
0000
0000
0110
0000
0000
0200
0000
,  // measure 16
0002
0303
1010
0000
,  // measure 17
1000
1000
0100
0000
,  // measure 18
0010
0000
0001
0000
,  // measure 19
0100
0000
0100
0000
0010
0000
0000
0010
,  // measure 20
1000
0000
0100
0000
,  // measure 21
0010
0010
0001
0000
,  // measure 22
1000
0000
0010
0000
,  // measure 23
0100
0000
0100
0000
0001
0000
0000
0001
,  // measure 24
1000
0000
2000
0010
,  // measure 25
0000
3010
0200
0001
,  // measure 26
0000
0301
0020
0100
,  // measure 27
0000
0230
2000
3300
,  // measure 28
1010
0000
0000
0100
0001
0000
0001
0000
,  // measure 29
0001
0000
0000
0001
1000
0000
0000
0000
,  // measure 30
0100
0000
0000
0010
0001
0000
0001
0000
,  // measure 31
1000
0000
0000
0001
0100
0000
0000
0000
,  // measure 32
0010
0000
0000
1000
0100
0000
0100
0000
,  // measure 33
0100
0000
0010
0000
,  // measure 34
0001
0000
0000
0001
1000
0000
0010
0000
,  // measure 35
0100
0000
1001
1000
,  // measure 36
1000
0001
0001
0100
,  // measure 37
0100
0010
0010
1000
,  // measure 38
0100
0010
0001
2000
,  // measure 39
0000
0010
0000
3100
,  // measure 40
0100
0010
0010
0001
,  // measure 41
0001
0100
0100
0010
,  // measure 42
1000
0001
1000
0100
,  // measure 43
0000
0100
0000
0000
0100
0000
0010
0000
,  // measure 44
0000
0001
0100
0000
0100
0000
0010
0000
,  // measure 45
0000
0010
1000
0000
1000
0000
0001
0000
,  // measure 46
0000
1000
0001
0000
1000
0000
0010
0000
,  // measure 47
0000
0100
0000
0001
,  // measure 48
0000
1000
0100
0000
0010
0000
0001
0000
,  // measure 49
0000
1000
0010
0000
0100
0000
0001
0000
,  // measure 50
0000
1000
0100
0000
1000
0000
0010
0000
,  // measure 51
0100
0002
0003
1000
,  // measure 52
1000
1000
0000
0001
,  // measure 53
0001
0001
0000
0010
,  // measure 54
0100
1000
0001
0100
,  // measure 55
0000
0010
0000
1000
,  // measure 56
1000
1000
0000
0001
,  // measure 57
0001
0001
0000
0010
,  // measure 58
0100
1000
0001
0100
,  // measure 59
0000
0010
0000
1000
,  // measure 60
0100
0000
0000
1000
0100
0000
0010
0000
,  // measure 61
0001
0000
0000
0010
0001
0000
1000
0000
,  // measure 62
0001
0000
0000
1000
0001
0000
0010
0000
,  // measure 63
0100
0000
0000
0010
0100
0000
1000
0000
,  // measure 64
0010
0000
0000
1000
0010
0000
0100
0000
,  // measure 65
0001
0000
0000
0100
0001
0000
1000
0000
,  // measure 66
0001
0000
0000
1000
0001
0000
0010
0000
,  // measure 67
0100
0000
1000
0000
0000
0000
0001
0100
,  // measure 68
0001
0100
0001
0000
0000
0000
1000
0100
,  // measure 69
1000
0100
1000
0000
0000
0000
0001
1000
,  // measure 70
0001
0000
1000
0001
1000
0000
0110
0000
,  // measure 71
0000
0000
1001
0000
0000
0000
1000
0100
,  // measure 72
1000
0100
1000
0000
0000
0000
0001
0100
,  // measure 73
0001
0100
0001
0000
0000
0000
0010
0100
,  // measure 74
0010
0000
0100
0010
0100
0000
1001
0000
,  // measure 75
0000
0000
0220
0000
0000
0330
0000
0000
;

//---------------dance-single - ----------------
#NOTES:
     dance-single:
     :
     Medium:
     7:
     0.522,0.609,0.288,0.019,0.000,349.000,30.000,2.000,0.000,0.000:  // measure 1
0000
0000
0000
0000
,  // measure 2
0000
0000
0000
0000
,  // measure 3
0000
0000
0000
0000
,  // measure 4
0000
0000
0000
0000
,  // measure 5
0000
0000
0000
0000
0000
0001
1000
0010
,  // measure 6
0000
1000
0000
0010
0000
1000
0010
0100
,  // measure 7
0001
0000
0000
0000
0000
1000
0001
0010
,  // measure 8
0000
0001
0000
0010
2002
0000
3003
0000
,  // measure 9
1100
0000
0000
0011
0000
0000
0001
0000
,  // measure 10
0101
0000
0000
1010
0000
0000
1000
0000
,  // measure 11
1100
0000
0000
1001
0000
0000
0001
0000
,  // measure 12
0101
0000
0000
0110
0000
0000
0010
0000
,  // measure 13
1010
0000
0000
1001
0000
0000
0001
0000
,  // measure 14
0011
0000
0000
1001
0000
0000
1000
0000
,  // measure 15
0110
0000
0000
0011
0000
0000
0001
0000
,  // measure 16
0100
0010
0100
0000
1001
0000
0000
1000
,  // measure 17
0100
0000
0010
0000
0001
0000
0000
0001
,  // measure 18
1000
0000
0000
1000
0010
0000
0000
0100
,  // measure 19
0001
0000
0010
0000
0100
0000
0000
0100
,  // measure 20
1000
0000
0000
0000
1001
0000
0000
0001
,  // measure 21
0100
0000
0010
0000
1000
0000
0000
1000
,  // measure 22
0100
0000
0000
0010
0001
0000
0000
0100
,  // measure 23
0010
0000
1000
0000
1001
0000
0000
0001
,  // measure 24
0100
0000
0000
0000
1010
0000
0000
1100
,  // measure 25
0000
0000
1000
0000
0011
0000
0000
0101
,  // measure 26
0000
0000
0001
0000
1001
0000
0000
0110
,  // measure 27
0000
0000
0010
0000
1000
0001
1000
0000
,  // measure 28
0101
0000
0000
0010
1000
0100
0010
0000
,  // measure 29
0001
0000
0000
1000
0010
0000
1000
0000
,  // measure 30
0100
0000
0000
0010
0001
1000
0010
0000
,  // measure 31
0100
0000
0000
0001
1000
0000
1000
0000
,  // measure 32
0011
0000
0000
0100
1000
0010
0100
0000
,  // measure 33
0001
0000
0000
0001
1000
0000
1000
0000
,  // measure 34
0011
0000
0000
0100
1000
0010
0001
0000
,  // measure 35
1000
0000
0000
0100
0001
0000
1000
0000
,  // measure 36
1000
0100
0000
1000
0000
1000
0100
0000
,  // measure 37
0100
0010
0000
0100
0000
0100
0010
0000
,  // measure 38
0010
0001
0000
0010
0000
0010
0001
0000
,  // measure 39
0001
0100
0000
0010
0000
0010
1000
0000
,  // measure 40
0100
1000
0000
0100
0000
0100
0010
0000
,  // measure 41
0001
0010
0000
0001
0000
0001
1000
0000
,  // measure 42
0010
1000
0000
0010
0000
0010
1001
0000
,  // measure 43
0000
0110
0000
0000
1001
0000
0010
0000
,  // measure 44
0010
0100
1000
0010
1000
0000
0100
0000
,  // measure 45
0010
0001
0100
0000
0010
0000
1000
0000
,  // measure 46
0001
0010
0100
1000
0100
0000
0010
0000
,  // measure 47
0010
0001
0100
0000
0010
0000
1000
0000
,  // measure 48
1000
0001
0010
0001
0010
0000
0100
0000
,  // measure 49
1000
0001
0100
0000
0010
0000
1000
0000
,  // measure 50
0100
0010
0100
0010
0001
0000
1000
0000
,  // measure 51
0010
0100
0001
0000
0000
0000
1000
0100
,  // measure 52
0010
0001
0100
0000
0000
0000
0010
1000
,  // measure 53
0100
0010
0001
0000
0000
0000
1000
0010
,  // measure 54
0100
0001
1000
0100
0010
0001
1000
0000
,  // measure 55
0000
0000
0010
0000
0000
0000
0001
1000
,  // measure 56
0100
1000
0010
0000
0000
0000
0100
0001
,  // measure 57
0010
0001
1000
0000
0000
0000
0010
1000
,  // measure 58
0100
1000
0010
0100
0001
0010
0100
0000
,  // measure 59
0000
0000
1000
0000
0000
0000
0001
0100
,  // measure 60
0001
0000
1000
0100
1000
0000
0010
0100
,  // measure 61
0010
0000
1000
0001
1000
0000
0001
0010
,  // measure 62
0001
0000
1000
0100
1000
0000
0010
0100
,  // measure 63
0010
0000
1000
0001
1000
0000
0100
0010
,  // measure 64
0001
0000
1000
0010
0100
0000
0001
1000
,  // measure 65
0100
0000
0010
0001
0100
0000
0010
1000
,  // measure 66
0100
0000
0010
0001
1000
0000
0010
0100
,  // measure 67
0001
0000
1000
0000
1000
0100
1000
0010
,  // measure 68
1000
0100
0010
0001
0100
0001
0010
0001
,  // measure 69
0100
0010
1000
0010
0100
0010
1000
0100
,  // measure 70
0010
0001
0100
0001
1000
0001
0010
0001
,  // measure 71
0100
0010
1000
0100
0010
0001
0100
0010
,  // measure 72
1000
0100
1000
0010
1000
0100
0010
0001
,  // measure 73
0100
0001
0010
0001
1000
0010
1000
0100
,  // measure 74
1000
0010
0100
0001
0010
0100
1000
0010
,  // measure 75
0001
0010
1000
0100
0010
0001
0000
0000
;

//---------------dance-single - ----------------
#NOTES:
     dance-single:
     :
     Hard:
     9:
     0.750,0.859,0.413,0.154,0.187,488.000,43.000,16.000,0.000,0.000:  // measure 1
0000
0000
0000
0000
,  // measure 2
0000
0000
0000
0000
,  // measure 3
0000
0000
0000
0000
,  // measure 4
0000
0000
0000
0000
,  // measure 5
1000
0000
1000
0100
0000
0010
0001
0100
,  // measure 6
0000
0000
0010
0000
0000
0000
1000
0000
0000
0000
1000
0000
0100
0000
0010
0001
,  // measure 7
0010
0000
0001
0100
0000
0010
1000
0100
,  // measure 8
0000
0000
0010
0000
0000
0000
0001
0000
1000
0010
0100
0000
0001
0000
1000
0000
,  // measure 9
0110
0000
1000
1001
0000
0010
0001
0100
,  // measure 10
0110
0000
1000
1100
0000
0001
0010
0100
,  // measure 11
1100
0000
0001
1001
0000
0100
0010
1000
,  // measure 12
1001
0000
0000
0000
0010
0000
0110
0000
0000
0000
0001
0000
1000
0000
0010
0100
,  // measure 13
0001
0000
1000
0011
0000
0001
0100
0010
,  // measure 14
1010
0000
1000
0110
0000
0100
1000
0010
,  // measure 15
1001
0000
0001
1010
0000
0100
0010
1000
,  // measure 16
0100
0100
0100
0000
0110
0000
1000
0100
,  // measure 17
0010
0001
0100
0010
1000
0100
0001
0100
,  // measure 18
0010
0000
0001
0000
0100
0010
1000
0100
,  // measure 19
0010
0000
0001
0000
0100
0010
1000
0010
,  // measure 20
1000
0000
0100
0000
1001
0000
0000
0010
,  // measure 21
0001
0100
0001
0010
0100
1000
0010
1000
,  // measure 22
0100
0000
0010
0000
0001
0100
0010
1000
,  // measure 23
0100
0000
0010
0000
0001
1000
0010
0100
,  // measure 24
0001
0000
0010
0000
1001
0000
1000
0100
,  // measure 25
0000
0001
0100
0010
1000
0000
0100
0010
,  // measure 26
0000
0000
0001
0000
0100
0000
0010
1000
0010
0000
0000
0000
0100
0000
0001
0000
,  // measure 27
0000
0010
0100
1000
0010
0010
0010
0000
,  // measure 28
0101
0000
0000
1000
0100
0100
0010
0001
,  // measure 29
0100
0000
0100
0010
1000
0000
1000
0001
,  // measure 30
0010
0000
0100
1000
0010
0010
1000
0001
,  // measure 31
0010
0000
0010
0100
1000
0000
0010
0000
,  // measure 32
1001
0000
0010
0001
0100
0100
0010
1000
,  // measure 33
0100
0000
0100
0010
0001
0000
1000
0010
,  // measure 34
0100
0000
0001
1000
0100
0100
1000
0010
,  // measure 35
0100
0000
0100
0001
1000
0000
0012
0000
,  // measure 36
0103
0020
0000
2030
0000
3001
0020
0000
,  // measure 37
0130
1000
0020
1000
0030
0100
0002
0000
,  // measure 38
0013
0200
0000
1000
0300
0010
0002
0000
,  // measure 39
0103
0020
0000
2030
0000
3001
0020
0000
,  // measure 40
0130
1000
0020
0001
0030
0002
1000
0003
,  // measure 41
1000
0100
0020
0100
0030
2000
0010
3000
,  // measure 42
0200
0000
0010
0000
0300
0000
0001
0000
0000
0000
0001
0000
1000
0000
0010
0100
,  // measure 43
0010
0100
0010
0000
0100
0010
0100
0010
0100
0000
0001
0000
1001
0000
0000
0000
,  // measure 44
1100
0000
0010
0001
0010
0001
0010
0000
0100
0000
1000
0001
1000
0000
0010
0000
,  // measure 45
0100
0000
0001
0000
1000
0000
0010
0000
0100
0001
0100
0001
0100
0000
0001
0000
,  // measure 46
0010
0000
0100
1000
0100
1000
0100
0000
1000
0000
0010
0000
0100
0000
0001
0000
,  // measure 47
0010
0000
0001
0000
0100
0000
0010
0000
1000
0001
1000
0001
1000
0000
0100
0000
,  // measure 48
0001
0000
0100
0010
0100
0010
0100
0000
0010
0000
0001
1000
0001
0000
0100
0000
,  // measure 49
0010
0000
1000
0000
0100
0000
0010
0000
0001
0100
0001
0100
0001
0000
0010
0000
,  // measure 50
0100
0000
1000
0001
1000
0001
1000
0000
0010
0000
0100
0000
0001
0000
1000
0000
,  // measure 51
0100
0000
0010
0000
0001
0000
1000
0000
0010
0100
0010
0100
0001
0000
1000
0000
,  // measure 52
0100
0010
0001
0000
0100
0000
0000
0000
0000
0000
0000
0000
0010
0000
1000
0000
,  // measure 53
0001
1000
0100
0000
0010
0000
0000
0000
0000
0000
0000
0000
0001
0000
0100
0000
,  // measure 54
0010
1000
0100
1000
0010
0100
1001
0000
,  // measure 55
0000
0000
0011
0000
0000
0000
0001
0100
,  // measure 56
0010
1000
0001
0000
0010
0000
0000
0000
0000
0000
0000
0000
0100
0000
1000
0000
,  // measure 57
0010
1000
0001
0000
0010
0000
0000
0000
0000
0000
0000
0000
0100
0000
1000
0000
,  // measure 58
0010
0001
1000
0100
0010
1000
0100
0000
,  // measure 59
0000
0000
1001
0000
0000
0000
0010
0001
,  // measure 60
0100
0000
0010
0000
0000
0000
1000
0000
0100
1000
0000
0000
0010
0000
1000
0000
,  // measure 61
0001
0000
0010
0000
0000
0000
0100
0000
1000
0100
0000
0000
0001
0000
0100
0000
,  // measure 62
1000
0000
0010
0000
0000
0000
1000
0000
0001
1000
0000
0000
0010
0000
0100
0000
,  // measure 63
0001
0000
1000
0000
0000
0000
0100
0000
0010
0100
0000
0000
1000
0000
0001
0000
,  // measure 64
0101
0000
0100
0000
0000
0000
0001
0000
1000
0010
0000
0000
0100
0000
0001
0000
,  // measure 65
1001
0000
1000
0000
0000
0000
0100
0000
0010
0001
0000
0000
0100
0000
0010
0000
,  // measure 66
1010
1000
0000
0001
1000
0010
0100
0001
,  // measure 67
0010
0100
0000
0000
1000
0100
1000
0100
1000
0000
0100
0000
1001
0000
1000
0000
,  // measure 68
0001
0100
0101
0001
1000
0100
0110
0010
,  // measure 69
0001
0100
0110
0010
1000
0100
1001
0010
,  // measure 70
0001
1000
1001
0010
1000
0001
1100
0010
,  // measure 71
0001
0100
0101
0010
1000
0100
1001
0010
,  // measure 72
0001
0100
1001
0010
1000
0100
1001
0010
,  // measure 73
0100
0010
1001
0100
0010
0100
1001
1000
,  // measure 74
0100
0010
0011
0001
0100
0010
1010
0001
,  // measure 75
1000
0001
0110
1000
0001
0100
0000
0000
;

//---------------dance-single - ----------------
#NOTES:
     dance-single:
     :
     Challenge:
     11:
     1.000,1.000,1.000,0.211,0.341,577.000,246.000,22.000,0.000,0.000:  // measure 1
0000
0000
0000
0000
,  // measure 2
0000
0000
0000
0000
,  // measure 3
0000
0000
0000
0000
,  // measure 4
0000
0000
0000
0000
,  // measure 5
1001
0000
1100
0100
0000
0010
0011
0001
,  // measure 6
1000
0000
0010
0000
1010
0000
0100
0000
0000
0000
0100
0000
0101
0000
0001
1000
,  // measure 7
0100
0000
1001
0001
0000
0100
0110
0010
,  // measure 8
1000
0000
0100
0000
1100
0000
0001
0000
0220
0000
0000
0000
0000
0000
0000
0330
,  // measure 9
1001
0000
0110
1000
0000
0101
1100
0001
,  // measure 10
1010
0000
0010
0000
0101
0000
1100
0000
0100
0000
1001
0000
0010
0000
1010
0001
,  // measure 11
0100
0000
1100
0001
0000
1010
0101
0010
,  // measure 12
1100
0000
0010
0000
0101
0000
0011
0000
0100
0000
1001
0000
0010
0000
0101
0010
,  // measure 13
1001
0000
1100
0010
0000
0101
1010
0100
,  // measure 14
1001
0000
0010
0000
0101
0000
1010
0000
0100
0000
0011
0000
1000
0000
0110
0001
,  // measure 15
1000
0000
1100
0001
0000
1010
0100
0011
,  // measure 16
1001
1001
1001
0000
1100
0000
0101
0010
,  // measure 17
1000
1100
0101
0010
1000
0000
1100
0101
,  // measure 18
0010
1010
1001
0101
0010
0000
1010
0100
,  // measure 19
0001
0101
1100
0010
0001
0000
1100
0011
,  // measure 20
0001
1010
0101
1001
0010
0000
1100
0010
,  // measure 21
0001
0101
1010
0001
1000
0000
0011
0110
,  // measure 22
1000
1010
0110
0101
1000
0000
0011
0100
,  // measure 23
1000
0101
1100
0010
1000
0000
1100
0010
,  // measure 24
1000
0000
0011
0000
0110
0000
1100
0000
1001
0100
1000
0100
1000
0000
0010
0100
,  // measure 25
0010
0100
0010
0000
0100
0001
0100
0001
0010
0001
0010
0001
0010
0000
0100
1000
,  // measure 26
0100
1000
0100
0000
1000
0001
1000
0001
0100
0010
0100
0010
0100
0000
0010
1000
,  // measure 27
0010
1000
0010
0000
1000
0100
1000
0100
1001
0000
1001
0000
1001
0000
0000
0000
,  // measure 28
0110
0000
1100
0010
0001
1001
0101
0010
,  // measure 29
0001
0000
1100
1010
0001
1100
1010
1001
,  // measure 30
0010
0000
0101
1000
0100
1010
0101
1000
,  // measure 31
0001
0000
1100
0011
1000
0110
0101
1100
,  // measure 32
0010
0000
1010
0001
1000
0101
1100
0010
,  // measure 33
0001
0000
0101
1001
0100
1001
1100
0110
,  // measure 34
0001
0000
0101
0010
1000
1100
0101
0010
,  // measure 35
1000
0000
1000
0011
0101
0000
1001
0010
,  // measure 36
2100
3010
0011
0210
0301
2010
3100
0010
,  // measure 37
0102
0013
1100
0120
0031
2100
3010
0001
,  // measure 38
0210
0301
1010
0012
0103
2010
3100
0010
,  // measure 39
1002
0103
1010
2001
3100
0012
1003
0100
,  // measure 40
0012
0103
0011
2010
3100
0021
1030
0001
,  // measure 41
0210
1300
1001
0120
0031
1020
0031
1000
,  // measure 42
0102
0000
1003
0000
0110
0000
0102
0000
1003
0000
0110
0000
1001
0000
1000
0100
,  // measure 43
0010
0001
0100
0000
0001
0100
0010
1000
0100
0000
0010
0000
1001
0000
0000
0000
,  // measure 44
0110
0000
1000
0100
0010
0100
1000
0000
0101
0000
1000
0001
0100
0000
0010
0000
,  // measure 45
1001
0000
0100
0000
1000
0000
0101
0000
0010
1000
0100
0010
0001
0000
1000
0000
,  // measure 46
0101
0000
0010
0001
1000
0010
0100
0000
0001
0000
1100
0000
0010
0000
0001
0000
,  // measure 47
1010
0000
0001
0000
1000
0000
0101
0000
0010
1000
0001
1000
0100
0000
0010
0000
,  // measure 48
1001
0000
0001
0100
0010
0100
0001
0000
0110
0000
1000
0001
0100
0000
0010
0000
,  // measure 49
1001
0000
0100
0000
0001
0000
1100
0000
0010
0001
1000
0001
0100
0000
0010
0000
,  // measure 50
1001
0000
0010
0100
1000
0010
0100
0000
0001
0000
1010
0000
0001
0000
1000
0000
,  // measure 51
0011
0000
1000
0000
0001
0000
0110
0000
1000
0100
0010
0001
1010
0000
0001
0000
,  // measure 52
0010
0100
1000
0001
0000
0000
0100
0000
0000
0000
0000
0000
0000
0000
0000
0000
0000
0000
1010
0000
0000
0100
0000
0000
,  // measure 53
0001
1000
0100
0010
0000
0000
0001
0000
0000
0000
0000
0000
0000
0000
0000
1000
0000
0000
1010
0000
0000
0100
0000
0000
,  // measure 54
0001
1000
0100
0010
0001
0100
1001
0000
,  // measure 55
0000
0000
1010
0000
0000
0000
1100
0010
,  // measure 56
0001
0000
0100
0000
0010
0000
1000
0000
0000
0000
0000
0000
0100
0000
0000
0000
0000
0000
0010
0000
0000
0000
0000
0000
0000
0000
0000
0010
0000
0000
0000
0000
0000
0000
0000
0000
0011
0000
0000
0000
0000
0000
1000
0000
0000
0000
0000
0000
,  // measure 57
0010
0000
0100
0000
0001
0000
1000
0000
0000
0000
0000
0000
0100
0000
0000
0000
0000
0000
0010
0000
0000
0000
0000
0000
0000
0000
0000
0010
0000
0000
0000
0000
0000
0000
0000
0000
0011
0000
0000
0000
0000
0000
1000
0000
0000
0000
0000
0000
,  // measure 58
0010
0000
0100
0000
0001
0000
0010
0000
1000
0100
0001
0000
0110
0000
0000
0100
,  // measure 59
0100
0100
1100
0100
0100
0000
1001
0100
,  // measure 60
1010
0000
0001
0000
0100
0000
0010
0000
1010
0001
0000
0000
0110
0000
1000
0000
,  // measure 61
0011
0000
0100
0000
0010
0000
1000
0000
0011
0100
0000
0000
0110
0000
1000
0000
,  // measure 62
0101
0000
0010
0000
1000
0000
0100
0000
0011
1000
0000
0000
1100
0000
0010
0000
,  // measure 63
0101
0000
1000
0000
0010
0000
0100
0000
1001
0100
0000
0000
0101
0000
1000
0000
,  // measure 64
0110
0000
0001
0000
1000
0000
0010
0000
1001
0100
0000
0000
1100
0000
0010
0000
,  // measure 65
1001
0000
0010
0000
0100
0000
1000
0000
0110
0001
0000
0000
0110
0000
1000
0000
,  // measure 66
0011
0100
1000
0001
1010
0001
0101
1000
,  // measure 67
0011
0100
0000
0000
1001
0100
1000
0100
1000
0000
0010
0000
0101
0000
1010
0000
,  // measure 68
0101
0000
1001
0000
1100
0000
0011
0000
0101
0000
1000
0001
0110
0000
1100
0000
,  // measure 69
0101
1010
1001
0110
1100
0110
0011
1001
,  // measure 70
0110
0000
1010
0000
0101
0000
1001
0000
0110
0000
0001
1000
0101
0000
0110
0000
,  // measure 71
1000
0011
0100
0000
1010
0000
0011
0000
0101
0000
1010
0000
1100
0000
0011
0000
,  // measure 72
0101
0000
1001
0000
1010
0000
1100
0000
0011
0000
0010
1000
0101
0000
1010
0000
,  // measure 73
1001
0110
1001
0011
1100
1001
0011
0110
,  // measure 74
0101
0000
1100
0000
1001
0000
0011
0000
0101
0000
0010
1000
0011
0000
1010
0000
,  // measure 75
0001
1010
0100
0000
1001
0000
0011
0000
1100
0000
0101
0000
0000
0000
0000
0000
;
