#TITLE:STARS;
#SUBTITLE:;
#ARTIST:Terra;
#TITLETRANSLIT:;
#SUBTITLETRANSLIT:;
#ARTISTTRANSLIT:;
#CREDIT:;
#BANNER:stars-ban.png;
#BACKGROUND:stars2.png;
#LYRICSPATH:;
#CDTITLE:CDTITLE.jpg;
#MUSIC:STARS (2nd NAOKI's style).mp3;
#OFFSET:0.140;
#SAMPLESTART:42.731;
#SAMPLELENGTH:12.000;
#SELECTABLE:YES;
#BPMS:0.000=140.020;
#STOPS:;
#BGCHANGES:;
// cache tags:
#FIRSTBEAT:4.500;
#LASTBEAT:236.500;
#SONGFILENAME:Songs/Definitive Keyboard Megapack/STARS -2nd NAOKI's style-(Leone510)/STARS (2nd NAOKI's style).sm;
#HASMUSIC:1;
#HASBANNER:1;
#MUSICLENGTH:104.053;
// end cache tags

//---------------dance-single - ----------------
#NOTES:
     dance-single:
     :
     Hard:
     11:
     0.890,0.881,1.000,0.048,0.577,517.000,126.000,5.000,0.000,0.000:

0000
0000
0000
0000
,
0000
0000
0100
0000
0010
0000
0001
0000
0010
0000
0100
0000
0010
0001
0000
1000
,
0010
1000
0010
0000
0001
0000
0100
0000
0010
0000
1000
0000
0010
0100
0000
0001
,
0100
0001
0100
0000
0010
0000
1000
0000
0001
0000
0100
0000
0010
0100
0000
1000
,
0001
1000
0010
0000
0100
0000
0001
0000
0100
0000
0010
0000
1000
0100
0010
0000
,
0100
0000
0110
0000
0000
0000
0101
0000
0000
0000
1010
0000
0001
1000
0100
0000
,
0000
0000
0101
0000
0000
0000
0110
0000
0000
0000
1010
0001
0100
0001
0010
0000
,
0100
0000
0101
0000
0000
0000
1010
0000
0000
0000
0101
0010
0100
0010
1000
0000
,
0001
0000
0110
0000
0000
0000
1010
0001
0010
0100
1000
0100
0010
0100
0001
0010
,
0100
0000
2002
0000
0000
0000
0000
3003
0000
0000
0000
0000
0000
0000
0000
0000
,
0000
0000
0000
0000
,
0000
0000
0000
0000
,
0000
0000
0000
0000
,
0000
0000
0000
0000
,
0000
0000
0000
0000
,
0000
0000
0001
0100
0001
0100
0001
1000
0010
0100
0010
0100
0010
1000
0010
1000
,
0010
0001
0010
0100
1000
0001
0100
0010
1000
0010
0100
1000
0100
0010
0001
0010
,
0100
0000
1001
0000
0100
0000
0010
0000
0100
0000
0011
0000
1000
0010
0000
1000
,
0010
0001
1100
0000
1000
0000
0010
0000
0001
0000
1010
0000
0010
0100
0000
1000
,
0011
0100
0011
0000
0000
0000
0110
0000
1000
0000
0011
0000
0100
0000
0110
0000
,
0001
0000
0110
0000
0001
0000
1100
0000
0010
0000
1100
0000
0001
0000
0011
0100
,
0010
0001
1100
0000
0010
0000
0110
0000
0010
0000
0110
0000
0001
0010
1100
0000
,
0001
0000
0110
0000
0001
0000
0110
0000
1000
0000
0011
1000
0100
0000
0011
0000
,
0010
0000
1100
0000
0001
0000
0110
0000
0001
0000
1100
0000
0010
0000
0110
0001
,
1000
0100
0011
0000
0100
0000
1100
0000
0001
0000
1100
0001
0010
1000
0010
0001
,
0010
0100
0010
0001
1000
0000
0110
0000
0100
0000
0001
0000
0100
1000
0010
0001
,
1000
0000
0011
0000
0100
0000
0001
0000
0100
0000
0101
0000
1000
0100
0001
0010
,
0100
1010
0001
0100
0010
1001
0100
0010
,
1000
0000
0011
0000
1000
0000
0001
0000
0100
1000
0010
0000
0100
0010
0000
0100
,
0001
0010
0001
0000
0100
0000
0011
0000
1000
0000
0001
0000
0010
1000
0100
0001
,
0010
0000
1100
0000
0001
0000
0100
0000
0010
0000
1001
0000
0100
1000
0010
0001
,
0100
0000
1010
0000
0001
0000
0100
0000
0001
0000
0110
0000
0100
0001
1000
0100
,
0001
0000
0101
0000
0010
0000
1000
0000
0010
0000
0011
0000
0010
0100
1000
0010
,
0001
1000
0110
0000
0001
0000
0100
0000
0010
0000
1100
0000
0010
0001
0100
1000
,
0010
0000
0101
0000
0100
0000
0010
0000
0100
0000
1001
0000
0100
1000
0010
0001
,
0010
0000
1100
0000
0010
0000
0100
0000
0001
0000
1010
0000
0100
0010
1000
0100
,
0010
0000
0101
0000
0010
0000
0001
0000
0100
0000
0011
0000
0100
0010
1000
0000
,
0010
0000
0101
0000
1000
0000
0010
0000
0100
0000
0101
0000
0010
0100
1000
0010
,
0100
0000
0011
0000
0100
0000
0010
0000
0100
0000
1100
0000
0010
0100
1000
0010
,
0100
0000
0101
0000
1000
0000
0100
0000
0010
0000
0110
0000
0001
0010
1000
0100
,
0010
0101
0101
0000
0000
1010
1020
0000
,
0030
0000
0101
0000
0100
0000
1010
0000
0001
0000
1100
0000
0010
0001
1000
0001
,
0010
0000
0101
0000
0010
0000
1010
0000
0100
0000
0110
0000
0001
0100
0010
1000
,
0100
0000
0110
0000
0001
0000
0101
0000
0010
0000
1100
0000
0100
0001
0100
0010
,
0100
0000
0011
0000
0100
0000
0101
0000
1000
0000
1001
0000
0010
0100
0010
0000
,
0001
0000
1010
0000
0001
0000
0110
0000
0100
0000
1010
0000
0001
0010
1000
0000
,
0001
0000
1100
0000
0100
0000
0011
0000
0100
0000
0110
0000
1000
0100
0001
0000
,
0010
0000
0101
0000
0001
0000
1001
0000
0100
0000
0110
0000
1000
0100
0010
0000
,
0100
0000
0011
0000
0110
0000
1100
0000
0001
0010
0001
1000
0100
0010
0100
1000
,
0001
0000
1100
0000
0010
0000
1001
0000
0100
0000
1010
0000
0010
0100
0001
1000
,
0010
0000
0101
0000
0001
0000
1010
0000
0010
0000
1100
0000
0100
0001
0010
1000
,
0001
0000
0011
0000
0100
0000
0110
0000
1000
0000
0101
0000
0100
0010
1000
0010
,
0001
0000
1100
0000
0001
0000
1010
0000
0100
0000
1001
0000
0001
1000
0010
0001
,
0100
0000
0110
0000
0001
0000
1100
0000
0010
0000
1001
0000
0100
1000
0001
0000
,
0010
0000
0101
0000
0100
0000
0110
0000
0001
0000
1100
0000
0010
1000
0001
0000
,
0100
0000
0110
0000
0100
0000
0101
0000
0010
0000
1100
0000
1001
0100
0000
0000
,
0010
0000
0001
0100
1000
0010
0100
0010
0001
1000
0100
0010
0001
0010
1000
0100
,
0001
0000
1010
0000
1010
0000
0101
0000
0101
0000
0110
0000
1000
0001
0100
0010
,
0001
0100
0010
1000
0100
0001
0100
1000
0010
0000
0101
0000
0101
0000
0011
0000
,
2002
3003
0000
0000
0000
0000
0000
0000
;
