#TITLE:Warrior Soul;
#SUBTITLE:;
#ARTIST:Kiuas;
#TITLETRANSLIT:;
#SUBTITLETRANSLIT:;
#ARTISTTRANSLIT:;
#CREDIT:dhabln;
#BANNER:;
#BACKGROUND:;
#LYRICSPATH:;
#CDTITLE:;
#MUSIC:Kiuas - Warrior Soul.mp3;
#OFFSET:0.200;
#SAMPLESTART:100.000;
#SAMPLELENGTH:12.000;
#SELECTABLE:YES;
#BPMS:0.000=370.000;
#STOPS:;
#BGCHANGES:;
// cache tags:
#FIRSTBEAT:1.500;
#LASTBEAT:746.000;
#SONGFILENAME:Songs/mongol/Kiuas - Warrior Soul/Kiuas - Warrior Soul.SM;
#HASMUSIC:1;
#HASBANNER:0;
#MUSICLENGTH:349.283;
// end cache tags

//---------------dance-single - ----------------
#NOTES:
     dance-single:
     :
     Hard:
     12:
     0.414,0.667,0.263,0.261,0.163,830.000,92.000,91.000,0.000,9.000:
0000
0000
0000
1000
0100
0010
0000
1000
,
0100
0010
0000
1000
0100
0010
0000
1000
,
0100
0010
0000
0000
0001
0010
0100
1000
,
0001
0010
0100
1000
0001
0010
0100
1000
,
0001
0010
0100
1000
0010
0001
0010
0100
,
2000
0000
3001
0010
0001
0000
0001
0000
,
1000
0100
1000
0000
0000
2002
0000
0000
,
3003
0000
0000
0000
,
0000
0000
0000
0000
0000
2200
0000
0000
,
3300
0022
0000
0000
0033
0000
0000
0000
,
0000
2200
0000
0000
0000
3322
0000
0000
,
0000
2233
0000
0000
3300
0000
0000
0000
,
0000
0000
0000
0000
0000
0000
0001
1000
,
0001
1000
0001
0010
0100
1000
0100
0010
,
0001
0010
0100
1000
0100
0010
1001
0000
,
0000
0000
0000
0000
,
0000
0000
0000
0000
0000
0000
0000
0110
,
0000
0000
0000
1001
0000
0000
0000
0000
,
0000
0000
0000
1100
0000
0000
0000
0011
,
0000
0000
0000
0110
0000
0000
0000
0000
,
0000
0000
0000
0000
0000
0000
0000
0000
0000
0000
1000
0100
,
0010
0001
0000
0000
0000
1000
0100
0010
0001
0000
0000
0000
,
1000
0100
0010
0001
0000
0000
0000
1000
0100
0010
0001
0000
,
0000
1001
0000
0000
0000
0000
0000
0000
0000
0000
0000
0000
,
0000
0000
0000
0000
0000
1001
0000
0000
,
0000
1001
0000
0000
0000
1001
0000
0000
,
0000
1000
0100
0010
0001
1001
0000
0000
,
0000
0001
0010
0100
1000
1001
0000
0000
,
0000
1000
0100
1000
0100
1100
0000
0000
,
0000
0001
0010
0001
0000
1000
0100
1000
,
0000
0001
0010
0001
0000
1000
0100
1000
,
0000
2002
0000
0000
,
0000
0000
0000
0000
,
0000
0000
0000
0000
,
0000
0000
0000
0000
,
0000
0000
0000
0000
,
0000
0000
0000
0000
,
0000
0000
0000
0000
,
0000
0000
0000
0000
,
0000
3003
0001
1000
,
0001
1000
0100
0010
,
0001
0010
0100
1000
,
0100
0010
0100
1000
,
0100
0000
0000
0000
0010
0000
0000
0000
0100
0000
0000
0000
1000
0100
0010
0000
,
0001
0000
0000
0000
0010
0000
0000
0000
0001
0010
0100
0000
0010
0000
0000
0000
,
0001
0000
0000
0000
0010
0100
1000
0000
0001
0000
0000
0000
0010
0000
0000
0000
,
0100
1000
0100
0000
0001
0000
0000
0000
0010
0000
0000
0000
0100
0000
0000
0000
,
1000
0100
0010
0000
0000
0000
0000
0000
0000
0000
0000
0000
0010
0000
0000
0000
,
0100
1000
0100
0010
,
0000
1000
0100
0010
,
0001
0010
0100
1000
,
0000
0000
0000
0001
0000
0000
0010
0000
0000
1000
0100
0010
,
0001
0000
0000
0001
0000
0000
0010
0000
0000
1000
0100
0010
,
0001
0000
0000
0010
0000
0000
0100
0000
0000
1000
0100
0010
,
0001
0001
0010
1001
,
0000
1001
0000
0000
1001
0000
0000
1000
,
0100
0010
0001
1000
0000
0100
0000
1000
,
0100
0010
0001
1000
0000
0100
0000
1000
,
0100
0010
0001
1000
0000
0100
0000
1001
,
0000
0000
1001
0000
0000
1001
0000
0000
,
1001
0000
0000
0000
1000
0100
1000
0000
,
0000
1001
0000
0000
0000
1000
0100
1000
,
0000
1001
0000
0000
0000
1000
0100
1000
,
0000
1001
0000
0000
0000
1000
0100
1000
,
0000
1001
0000
0100
0000
0010
0000
0001
,
0000
1000
0000
0100
0000
0010
0000
0001
,
0000
0001
0000
0010
0000
0100
0000
1000
,
0000
0001
0000
0010
0000
0100
0000
1000
,
0000
0000
1000
0100
0010
0001
0010
0100
1000
0100
0010
0001
,
0010
0100
1000
0100
0010
0001
0010
0100
1000
0100
0010
0001
,
0010
0100
1000
0200
0000
0000
0000
0000
0000
0000
0000
0300
,
0000
0000
1000
0001
1000
0000
0000
0001
,
0000
0000
0000
1000
0000
0100
0010
0100
,
0000
1000
0000
0100
0010
0100
0000
1000
,
0000
0000
1000
0000
0000
0000
0000
1000
0000
0000
0000
0100
0000
0010
0000
0100
,
0000
0000
0000
1000
0000
0000
0000
0100
0000
0010
0000
0100
0000
0000
0000
1000
,
0000
0000
0000
1000
0000
0000
0000
0000
1000
0000
0000
0000
0100
0000
0010
0000
,
0100
0000
1000
0000
0100
0010
0100
0000
,
1000
0000
0000
0000
1000
0000
0000
0000
0000
1000
0000
0000
0000
0100
0000
0010
,
0000
0100
0000
0000
0000
1000
0000
0000
0000
0100
0000
0010
0000
0100
0000
0000
,
0000
1000
0000
0000
0000
1000
0000
0000
0000
0000
1000
0000
0000
0000
0100
0000
,
0010
0100
0000
1000
0000
0100
0010
0100
,
0000
0000
1000
0000
0000
0000
1000
0000
0000
0000
0000
1000
0000
0000
0000
0100
,
0000
0010
0000
0100
0000
0000
0000
1000
0000
0000
0000
0100
0000
0010
0000
0100
,
0000
0000
0000
1000
0000
0000
0000
1000
0000
0000
0000
0000
1000
0000
0000
0000
,
0100
0010
0100
0000
1000
0000
0100
0010
,
0100
0000
0000
0000
1000
0000
0000
0000
1000
0000
0000
0000
0000
1000
0000
0000
,
0000
0100
0000
0010
0000
0100
0000
0000
0000
1000
0000
0000
0000
0100
0000
0010
,
0000
0100
0000
0000
0000
1000
0000
0000
0000
1000
0000
0000
0000
0000
0001
0000
,
0010
0100
1000
0001
0010
0100
1000
0001
,
0010
0100
1000
1000
0100
0010
0001
1000
,
0100
0010
0001
1000
0100
0010
0001
0000
,
0000
0000
0000
0000
0001
0010
0100
0010
,
0001
0010
0100
0010
0001
1000
0100
0010
,
0100
1000
0100
0010
0100
1000
0100
0010
,
0001
0000
0000
0000
,
1000
0100
1000
0100
1000
0100
1000
0001
,
1000
0100
0010
0001
0010
0100
1000
0100
,
0010
0001
0010
0100
1000
0100
0010
0001
,
0010
0100
1000
0100
0010
0001
0000
0000
,
0000
0000
0000
0000
0000
1000
0001
1000
,
0001
1000
0100
0010
0100
0010
0100
0000
,
0000
0000
0000
0000
,
0000
0000
0010
0001
0010
0100
1000
0100
,
0010
0001
0010
0100
1000
0100
0010
0001
,
0010
0100
1000
0000
0000
0000
1001
0000
,
0000
1001
0000
1001
,
0000
1100
0000
0011
,
0000
0110
1001
1010
,
1001
0000
0101
1001
1100
1001
0110
0000
,
1001
1001
0110
1001
,
0110
0000
1100
1001
1100
1001
1100
0000
,
1001
0110
1001
0000
1001
0000
0110
0000
,
0110
1001
1001
1000
,
0100
0010
0001
0010
,
0100
1000
0100
1000
,
0100
0010
0100
1000
,
0100
0000
1000
0000
0100
0000
0010
0100
,
1000
1000
0001
1000
,
0001
0000
1000
0000
0001
0000
1000
0100
,
0010
0001
1000
0001
,
1000
0100
0011
1000
,
0000
1000
0000
1000
,
0000
1000
0000
0001
,
0000
0001
0000
0001
,
0000
0001
0000
0010
,
0000
0010
0000
0010
,
0000
0010
0000
0100
,
0000
0100
0000
0100
,
0000
0100
0000
1000
,
0100
0000
0010
0000
0001
0000
0010
0100
,
1000
1000
0001
1000
,
0001
0000
1000
0000
0001
0000
1000
0100
,
0010
0001
1000
0001
,
1000
0000
0100
0000
0010
0000
0001
0010
,
0100
1000
0001
1000
,
0001
0000
1000
0000
0001
0010
0100
1000
,
0100
0010
0001
0010
0100
1000
0100
0010
,
0001
1000
0001
1000
0001
0000
0000
0000
0000
0000
0000
0000
2002
0000
0000
0000
,
3003
0220
0000
2332
0000
0000
3003
2000
,
0000
0000
0000
0000
3000
2000
0000
0000
,
3000
2000
0000
0000
3000
2000
3000
0001
,
0020
0130
2000
3100
0020
0031
0020
0130
,
2000
3100
0020
0000
2030
0000
0000
0000
,
3002
0000
0000
2203
,
3322
0000
2233
3300
,
0220
0000
0000
0000
,
0330
0000
0000
0000
0000
1001
0000
0000
,
0000
1001
0000
0000
0000
1000
0100
0010
,
0001
0010
0100
1000
0100
0010
0001
0010
,
0100
1000
0100
0010
0001
0010
0100
1000
,
0100
0010
0001
0010
0100
1000
0000
0000
,
1001
0000
1001
0220
,
0000
2332
0000
0000
,
3223
0000
1331
0000
1000
0100
0010
0001
,
0010
0100
1000
0100
0010
0000
2002
0000
,
3003
1001
0000
1001
,
1001
0000
0000
0000
0000
1001
0000
0000
,
0000
1001
0000
0000
0000
1000
0100
0010
,
0001
0010
0100
1000
0100
0010
0001
0010
,
0100
0010
0001
0010
0100
2000
3200
0320
,
0230
2300
3200
0320
0230
2300
3000
0000
,
0000
0000
2000
3200
2300
3000
0002
0023
,
0032
0003
0200
0320
0230
0300
2000
3200
,
2300
3000
0002
0023
0032
0003
0000
0200
,
0320
0230
0300
0002
2003
3002
0003
0000
,
2000
3002
2003
3002
2003
3002
2003
3002
,
2003
3002
0000
0000
0000
0000
0000
0000
,
0000
0000
0000
0000
,
0000
0000
0000
0003
0000
0000
0000
0000
,
1001
0000
0000
1001
0000
0000
1001
0000
,
0000
1001
0000
0000
1000
0100
0010
0000
,
0000
1001
0000
0000
1000
0100
0010
0000
,
0000
1001
0000
0000
1000
0100
0010
0000
,
0000
1001
0000
0000
1000
0100
0010
0001
,
0010
0100
1000
0100
0010
0001
0010
0100
,
1000
0100
0010
0001
0010
0100
1000
0100
,
0010
0001
0010
0100
1000
0100
0010
0001
,
0010
0100
1000
0100
0010
0001
0010
0100
1000
0100
0010
0001
,
0010
0100
1000
0100
0010
0001
0010
0100
1000
0100
0010
0001
,
0010
0100
1000
0100
0010
0001
0010
0100
1000
0100
0010
0001
,
0010
0100
1000
0100
0010
0001
0010
0100
1000
0100
0010
0001
,
0000
1000
0000
0001
0000
1000
0000
0001
,
0000
1000
0000
0001
1000
0100
0010
0001
,
0010
0100
1000
0100
0010
0001
0010
0100
,
1000
0100
0010
0001
0020
0000
0000
0000
,
0000
0000
0030
0000
;
