#TITLE:Sigma Fortress Stage #1;
#SUBTITLE:;
#ARTIST:Capcom;
#TITLETRANSLIT:;
#SUBTITLETRANSLIT:;
#ARTISTTRANSLIT:;
#CREDIT:;
#BANNER:Sigma Fortress Stage #1.png;
#BACKGROUND:Sigma Fortress Stage #1 BG.png;
#LYRICSPATH:;
#CDTITLE:!XMaxX.png;
#MUSIC:Sigma Fortress Stage #1.mp3;
#OFFSET:-0.040;
#SAMPLESTART:38.373;
#SAMPLELENGTH:12.000;
#SELECTABLE:YES;
#BPMS:0.000=156.360;
#STOPS:;
#BGCHANGES:;
// cache tags:
#FIRSTBEAT:0.000;
#LASTBEAT:324.000;
#SONGFILENAME:Songs/keyboard/Sigma Fortress Stage #1 (Megaman X)/Sigma Fortress Stage #1.sm;
#HASMUSIC:1;
#HASBANNER:1;
#MUSICLENGTH:128.164;
// end cache tags

//---------------dance-single - ----------------
#NOTES:
     dance-single:
     :
     Challenge:
     10:
     0.774,0.790,0.289,0.117,0.499,642.000,37.000,15.000,0.000,0.000:
2002
0000
0000
0000
0000
0000
0000
3003
,
0001
1000
0200
0000
0000
0000
0000
0000
0000
0000
0000
0300
0010
0000
0000
0001
,
0000
0000
0000
2002
0000
0000
0000
0000
0000
0000
0000
0000
3003
0000
0000
0000
,
1000
0001
2000
0000
0000
0000
0000
0000
0000
0000
0000
0000
0000
0000
3001
0000
,
0100
0020
0000
0000
0000
0000
0030
0000
,
0010
1000
0200
0000
0000
0000
0000
0000
0000
0000
0000
0000
0300
0000
0010
0000
,
0001
2000
0000
0000
0000
0000
0000
3000
,
0001
1000
0001
0000
0000
0000
0000
0000
0010
1000
0001
0100
0010
1000
0001
0100
,
0010
0000
1000
0000
0100
0000
0010
0001
0000
0001
1000
0000
0100
0000
0010
0000
,
0001
0000
0100
0000
0010
0000
1000
0100
0010
0001
1000
0000
0001
0000
0100
0010
,
1000
0000
0001
0000
0100
0000
0010
1000
0000
1000
0100
0000
0010
0000
0001
0000
,
0100
0000
0010
0000
1000
0000
0001
0100
0010
1000
0001
0000
0100
0010
1000
0001
,
0100
0000
0010
0000
1000
0000
0001
1000
0000
1000
0100
0000
0010
0000
0001
0000
,
1000
0000
0001
0000
1000
0000
0100
0010
0001
1000
0001
0000
1000
0000
0001
0100
,
0010
0000
1000
0000
0001
0000
1000
0100
0000
0100
1000
0000
0001
0000
0100
0000
,
0010
0000
0000
1000
0000
0000
0001
0000
0100
0000
0010
0000
1000
0000
0001
0000
0100
0000
0010
0000
1000
0000
0001
0000
,
0100
0000
0010
0000
1000
0001
0100
0000
,
0010
1000
0100
0010
0001
0100
0010
0000
,
1010
0000
0001
0000
0100
0010
1000
0000
,
0100
0010
0001
1000
0100
0010
0001
0000
,
1001
0000
0101
0000
0100
0010
1000
0000
,
0001
0000
0100
0000
0010
0000
1000
0000
0100
0010
0001
0000
1000
0000
0000
0000
,
1001
0000
1100
0000
0010
1000
0100
0000
,
0010
0000
0001
0000
0100
0000
0010
0000
1000
0001
1000
0000
0001
1000
0001
1000
,
0010
0000
1000
0000
0010
0000
1000
0000
0010
1000
0100
0000
0010
0000
0001
0000
,
0100
0000
0010
0000
1000
0000
0001
0100
0010
1000
0100
0000
0010
0000
0001
0000
,
1000
0000
0001
0000
0100
0000
0010
0000
1000
0100
0010
0000
0001
0000
0100
0000
,
0010
0000
1000
0000
0001
0000
1000
0000
0001
1000
0010
0000
0100
0010
1000
0001
,
1000
0000
0001
0000
0010
0000
0100
0000
1000
0001
0100
0000
0010
0000
1000
0000
,
0001
0000
0100
0000
0010
0000
1000
0000
0100
0010
0001
0000
1000
0000
0001
0100
,
0010
1000
1100
0100
0110
0010
0011
0001
,
1001
0000
1000
0000
1001
0000
0001
0000
0101
0000
0001
0000
1000
0001
0100
0010
,
1000
0000
0001
1000
0001
0100
0000
0010
,
0000
0000
1000
0000
0100
0000
0000
0000
0110
0000
1001
0000
0110
0000
0100
0010
,
0100
0000
0000
0000
0000
0000
0010
0000
0000
0000
0000
0000
1001
0000
0000
1000
0000
0000
0001
0000
1000
0000
0001
0000
,
0100
0000
0010
0000
1000
0001
0100
0010
,
1000
0100
1000
0100
0010
0001
0010
0001
,
0000
1000
1000
0000
0001
0001
0001
0001
,
1000
1000
0100
0000
0100
0010
0000
0220
,
0000
0000
0330
0000
1001
0000
0000
0000
0001
0100
0010
1000
0100
0010
0001
1000
,
0001
0000
1000
0000
0100
0000
0010
0001
0000
0001
1000
0000
0100
0000
0010
0000
,
0001
0000
0100
0000
0010
0000
1000
0100
0010
0001
1000
0000
0001
0000
0100
0010
,
1000
0000
0001
0000
0100
0000
0010
1000
0000
1000
0100
0000
0010
0000
0001
0000
,
0100
0000
0010
0000
1000
0000
0001
0100
0010
1000
0001
0000
0100
0010
1000
0001
,
0100
0000
0010
0000
1000
0000
0001
1000
0000
1000
0100
0000
0010
0000
0001
0000
,
1000
0000
0001
0000
1000
0000
0100
0010
0001
1000
0001
0000
1000
0000
0001
0100
,
0010
0000
1000
0000
0001
0000
1000
0100
0000
0100
1000
0000
0001
0000
0100
0000
,
0010
0000
0000
1000
0000
0000
0001
0000
0100
0000
0010
0000
1000
0000
0001
0000
0100
0000
0010
0000
1000
0000
0001
0000
,
0100
0000
0010
0000
1000
0001
0100
0000
,
0010
1000
0100
0010
0001
0100
0010
0000
,
1010
0000
0001
0000
0100
0010
1000
0000
,
0100
0010
0001
1000
0100
0010
0001
0000
,
1001
0000
0101
0000
0100
0010
1000
0000
,
0001
0000
0100
0000
0010
0000
1000
0000
0100
0010
0001
0000
1000
0000
0000
0000
,
1001
0000
1100
0000
0010
1000
0100
0000
,
0010
0000
0001
0000
0100
0000
0010
0000
1000
0001
1000
0000
0001
1000
0001
1000
,
0010
0000
1000
0000
0010
0000
1000
0000
0010
1000
0100
0000
0010
0000
0001
0000
,
0100
0000
0010
0000
1000
0000
0001
0100
0010
1000
0100
0000
0010
0000
0001
0000
,
1000
0000
0001
0000
0100
0000
0010
0000
1000
0100
0010
0000
0001
0000
0100
0000
,
0010
0000
1000
0000
0001
0000
1000
0000
0001
1000
0010
0000
0100
0010
1000
0001
,
1000
0000
0001
0000
0010
0000
0100
0000
1000
0001
0100
0000
0010
0000
1000
0000
,
0001
0000
0100
0000
0010
0000
1000
0000
0100
0010
0001
0000
1000
0000
0001
0100
,
0010
1000
1100
0100
0110
0010
0011
0001
,
1001
0000
1000
0000
1001
0000
0001
0000
0101
0000
0001
0000
1000
0001
0100
0010
,
1000
0000
0001
1000
0001
0100
0000
0010
,
0000
0000
1000
0000
0100
0000
0000
0000
0110
0000
1001
0000
0110
0000
0100
0010
,
0100
0000
0000
0000
0000
0000
0010
0000
0000
0000
0000
0000
1001
0000
0000
1000
0000
0000
0001
0000
1000
0000
0001
0000
,
0100
0000
0010
0000
1000
0001
0100
0010
,
1000
0100
1000
0100
0010
0001
0010
0001
,
0000
1000
1000
0000
0001
0001
0001
0001
,
1000
1000
0100
0000
0100
0010
0000
0220
,
0000
0000
0330
0000
1001
0000
0000
0000
0001
0100
0010
1000
0100
0010
0001
1000
,
0001
0000
1000
0000
0100
0000
0010
0001
0000
0001
1000
0000
0100
0000
0010
0000
,
0001
0000
0100
0000
0010
0000
1000
0100
0010
0001
1000
0000
0001
0000
0100
0010
,
1000
0000
0001
0000
0100
0000
0010
1000
0000
1000
0100
0000
0010
0000
0001
0000
,
0100
0000
0010
0000
1000
0000
0001
0100
0010
1000
0001
0000
0100
0010
1000
0001
,
0100
0000
0010
0000
1000
0000
0001
1000
0000
1000
0100
0000
0010
0000
0001
0000
,
1000
0000
0001
0000
1000
0000
0100
0010
0001
1000
0001
0000
1000
0000
0001
0100
,
0010
0000
1000
0000
0001
0000
1000
0100
0000
0100
1000
0000
0001
0000
0100
0000
,
0010
0000
0000
1000
0000
0000
0001
0000
0100
0000
0010
0000
1000
0000
0001
0000
0100
0000
0010
0000
1000
0000
0001
0000
,
0220
0000
0000
0000
,
0330
0000
0000
0000
;
