#TITLE:Vertex Epsilon;
#SUBTITLE:;
#ARTIST:Silvia;
#TITLETRANSLIT:;
#SUBTITLETRANSLIT:;
#ARTISTTRANSLIT:;
#CREDIT:;
#BANNER:../bn.png;
#BACKGROUND:../veyron.png;
#LYRICSPATH:;
#CDTITLE:;
#MUSIC:vertexepsilon.ogg;
#OFFSET:0.920;
#SAMPLESTART:128.539;
#SAMPLELENGTH:18.060;
#SELECTABLE:YES;
#BPMS:0.000=215.000;
#STOPS:;
#BGCHANGES:;
// cache tags:
#FIRSTBEAT:8.000;
#LASTBEAT:736.000;
#SONGFILENAME:Songs/Cirque du Veyron/Zaia - Vertex EPSILON/vertexepsilon.sm;
#HASMUSIC:1;
#HASBANNER:1;
#MUSICLENGTH:208.597;
// end cache tags

//---------------dance-single - Zaia----------------
#NOTES:
     dance-single:
     Zaia:
     Challenge:
     17:
     1.000,1.000,0.058,0.321,1.000,2058.000,12.000,67.000,0.000,1.000:
0000
0000
0000
0000
,
0000
0000
0000
0000
,
2000
0000
0000
3200
0000
0000
0320
0000
,
0032
0000
0000
2003
0000
0000
3002
0000
,
0203
0000
0000
0320
0000
0000
0230
0000
,
0302
0000
0000
0003
,
2000
0000
0000
0000
,
0000
0000
3020
0000
,
0230
0000
0000
0000
,
0300
0000
0000
0000
,
0002
0000
0000
0203
0000
0000
0302
0000
,
0023
0000
0000
0230
0000
0000
2300
0000
,
3002
0000
0000
0203
0000
0000
0302
0000
,
2003
0000
3000
0000
,
0001
1000
0001
0000
0010
0000
0000
0100
0010
0100
1000
0000
0001
0000
0000
0100
,
0001
1000
0001
0000
0100
0000
0000
0010
0100
0010
0100
0000
0001
0000
0000
1000
,
0100
1000
0001
0000
0010
0000
0000
0001
0100
0001
1000
0000
0100
0000
0000
0010
,
0100
0010
0100
0000
1000
0000
0000
0001
1000
0001
0100
0000
0010
0000
1000
0000
,
0001
0100
0001
0010
0000
0100
0010
0001
,
0100
0010
1000
0001
0010
0001
1000
0010
,
0100
0001
0010
0100
0000
1000
0001
1000
,
0100
1000
0001
0100
0010
0100
0001
0010
,
0001
0100
0010
1000
0000
0001
0010
0001
,
0100
0010
1000
0001
0010
0001
0100
0010
,
1000
0100
0000
0010
0000
0001
0010
0100
,
1000
0001
0100
0010
0100
0001
1000
0010
,
1000
0001
1000
0001
0100
0010
1000
0001
1000
0001
0100
0010
1000
0001
0100
0001
,
1000
0010
1000
0001
1000
0001
0100
0010
1000
0001
1000
0010
0100
0001
1000
0001
,
1000
0100
0010
0100
1000
0001
1000
0001
0010
0100
1000
0001
0010
0001
1000
0100
,
0010
0100
1000
0001
1000
0001
0010
0001
1000
0100
0010
0100
1000
0001
1000
0001
,
0100
0010
0100
0001
1000
0001
1000
0010
0100
0001
1000
0010
1000
0001
0100
0010
,
1000
0001
1000
0010
0100
0001
0100
0010
1000
0001
0100
0010
1000
0001
1000
0001
,
0010
0100
1000
0001
1000
0001
0010
0001
1000
0010
0100
0001
1000
0001
0100
0001
,
1000
0100
0010
0100
1000
0001
0100
0001
1000
0001
1000
0100
1000
0001
0100
0010
,
1000
0001
0010
0100
0010
0001
1000
0100
1000
0001
0010
0001
1000
0010
0100
0001
,
1000
0100
1000
0010
0100
0001
1000
0100
0010
0100
1000
0010
0100
0001
1000
0001
,
0100
0010
1000
0001
1000
0010
0100
0001
1000
0001
0010
0100
0010
0001
0100
0010
,
1000
0001
0100
0010
0100
0001
1000
0100
0010
0100
1000
0001
1000
0010
1000
0100
,
0010
0001
1000
0100
1000
0001
0010
0100
1000
0001
1000
0010
0100
0001
0010
0001
,
1000
0100
1000
0001
0100
0010
1000
0001
0010
0001
0100
0010
1000
0001
1000
0010
,
0100
0001
1000
0010
0100
0001
0100
0001
1000
0100
1000
0001
1000
0010
0100
0001
,
1000
0100
0010
0100
1000
0001
0100
0010
1000
0001
1000
0001
1000
0001
1000
0001
,
1000
0001
0100
0010
0100
0001
1000
0010
1000
0001
0100
0001
1000
0100
0010
0001
,
1000
0010
1000
0100
0010
0001
1000
0100
0010
0100
1000
0010
0100
0001
1000
0001
,
0010
0100
1000
0001
1000
0100
0010
0001
1000
0001
0100
0010
0100
0001
0010
0100
,
1000
0001
0010
0100
0010
0001
1000
0010
0100
0010
1000
0001
1000
0100
1000
0010
,
0100
0001
1000
0010
1000
0001
0100
0010
1000
0001
1000
0100
0010
0001
0100
0001
,
1000
0010
1000
0001
0010
0100
1000
0001
0100
0001
0010
0100
1000
0001
1000
0100
,
0010
0001
1000
0100
0010
0001
0010
0001
1000
0100
1000
0001
1000
0010
0100
0001
,
1000
0010
0100
0010
1000
0001
0010
0100
1000
0001
1000
0001
1000
0001
1000
0001
,
1000
0100
0010
0100
1000
0010
0100
0001
1000
0001
0010
0100
0010
0001
1000
0010
,
1000
0100
0010
0100
1000
0010
0100
0001
1000
0001
0010
0100
0010
0001
1000
0010
,
1000
0100
0010
0100
1000
0010
0100
0001
1000
0001
0010
0100
0010
0001
1000
0010
,
1000
0100
0010
0100
1000
0010
0100
0001
1000
0001
0010
0100
0010
0001
1000
0010
,
1000
0001
0100
0010
0100
0001
0010
0100
1000
0001
1000
0010
1000
0001
0010
0100
,
1000
0001
0100
0010
0100
0001
0010
0100
1000
0001
1000
0010
1000
0001
0010
0100
,
1000
0001
0100
0010
0100
0001
0010
0100
1000
0001
1000
0010
1000
0001
0010
0100
,
1000
0001
0100
0010
0100
0001
0010
0100
1000
0001
1000
0001
1000
0001
1000
0001
,
1000
0010
0100
0010
1000
0100
0010
0001
1000
0001
0100
0010
0100
0001
1000
0100
,
1000
0010
0100
0010
1000
0100
0010
0001
1000
0001
0100
0010
0100
0001
1000
0100
,
1000
0010
0100
0010
1000
0100
0010
0001
1000
0001
0100
0010
0100
0001
1000
0100
,
1000
0010
0100
0010
1000
0100
0010
0001
1000
0001
0100
0010
0100
0001
1000
0100
,
1000
0001
0010
0100
0010
0001
0100
0010
1000
0001
1000
0100
1000
0001
0100
0010
,
1000
0001
0010
0100
0010
0001
0100
0010
1000
0001
1000
0100
1000
0001
0100
0010
,
1000
0001
0010
0100
0010
0001
0100
0010
1000
0001
1000
0100
1000
0001
0100
0010
,
1000
0010
0100
0001
1000
0010
0100
0001
1000
0100
0010
0001
1000
0001
0010
0100
,
1000
0100
1000
0100
0010
0001
0010
0001
1000
0010
0100
0001
1000
0100
0010
0001
,
1000
0010
1000
0010
0100
0001
0100
0001
1000
0100
0010
0001
1000
0010
0100
0001
,
1000
0100
1000
0100
0010
0001
0010
0001
1000
0010
0100
0001
1000
0100
0010
0001
,
1000
0010
1000
0010
0100
0001
0100
0001
1000
0100
0010
0001
1000
0010
1000
0001
,
0010
0100
0010
0100
1000
0001
1000
0001
0100
0010
0100
0001
1000
0100
1000
0001
,
0100
0010
0100
0010
1000
0001
1000
0001
0100
0010
0100
0001
1000
0100
1000
0001
,
0010
0100
0010
0100
1000
0001
1000
0001
0100
0010
0100
0001
1000
0100
1000
0001
,
0100
0010
0100
0010
1000
0001
1000
0001
0100
0010
0100
0001
1000
0100
0010
0001
,
1000
0010
0100
0010
1000
0001
0010
0001
1000
0100
0010
0100
1000
0010
0100
0001
,
0010
0001
1000
0100
1000
0001
0010
0100
1000
0001
1000
0100
0010
0001
1000
0010
,
0100
0010
1000
0001
1000
0100
1000
0010
0100
0001
1000
0100
0010
0100
1000
0010
,
0100
0001
1000
0001
0100
0010
1000
0001
0010
0100
0010
0001
1000
0100
1000
0010
,
0100
0001
0100
0001
1000
0010
1000
0010
0100
0001
1000
0100
1000
0001
1000
0010
,
0100
0001
0100
0001
1000
0010
1000
0010
0100
0001
1000
0100
1000
0001
1000
0100
,
0010
0001
0010
0001
1000
0100
1000
0100
0010
0001
1000
0010
1000
0001
0010
0100
,
0010
0001
0010
0001
1000
0100
1000
0100
0010
0001
0010
0001
1000
0010
1000
0010
,
0200
0000
0000
0302
0000
0000
0023
0000
,
0230
0000
0000
2300
0000
0000
3200
0000
,
0320
0000
0000
0230
0000
0000
2300
0000
,
3002
0000
0203
0000
,
0320
0000
0000
2030
0000
0000
3002
0000
,
0203
0000
0000
0302
0000
0000
0023
0000
,
0230
0000
0000
2300
0000
0000
3200
0000
,
0320
0000
0032
0000
,
2003
0000
0000
3020
0000
0000
0230
0000
,
0302
0000
0000
0203
0000
0000
0320
0000
,
2030
0000
0000
3002
0000
0000
0023
0000
,
0230
0000
2300
0000
,
3020
0000
0000
0230
0000
0000
0302
0000
,
2003
0000
0000
3200
0000
0000
2300
0000
,
3002
0000
0000
0023
0000
0000
0032
0000
,
0203
0000
0000
0000
,
1310
0010
0100
0001
0000
0100
0010
1000
,
0001
0010
0100
0010
0001
1000
0010
0100
,
0010
1000
0001
0010
0000
0110
0100
1000
,
0100
0010
0001
1000
0010
0100
0001
1000
,
0010
1000
0100
1000
0000
1100
0100
0010
,
0001
1000
0010
0100
0010
1000
0001
0010
,
0001
0100
0010
1000
0000
1010
0010
0100
,
0001
0100
0010
1000
0100
0010
0001
1000
,
1001
0001
0100
0001
0000
0100
0010
0100
,
0001
0010
0100
0010
0001
0100
0010
1000
,
1100
0100
0010
0001
0000
1000
0001
0010
,
0001
1000
0010
0100
0001
1000
0001
0010
,
0110
0100
1000
0001
0000
0100
0010
0100
,
0001
1000
0100
1000
0001
0100
0010
1000
,
1010
0010
0100
0001
0000
1000
0001
1000
,
0100
1000
0001
0100
0010
1000
0001
0010
,
0000
0000
0000
0000
,
0000
0000
0000
0000
,
1000
0100
0010
0100
1000
0001
0100
0001
1000
0010
1000
0100
1000
0001
0100
0010
,
1000
0001
0010
0100
0010
0001
1000
0100
1000
0010
0100
0001
1000
0010
1000
0001
,
1000
0100
0010
0100
1000
0001
0100
0001
1000
0010
1000
0100
1000
0001
0100
0010
,
1000
0001
0010
0100
0010
0001
1000
0100
1000
0010
0100
0001
1000
0010
1000
0001
,
0100
0010
0100
0001
1000
0100
1000
0010
0100
0001
1000
0100
0010
0001
1000
0001
,
0100
0010
0100
0001
1000
0001
1000
0100
0010
0100
1000
0010
0100
0001
1000
0010
,
0100
0010
1000
0001
0100
0001
0010
0100
1000
0001
0100
0010
0100
0001
1000
0100
,
1000
0001
0100
0010
1000
0001
1000
0010
0100
0001
0010
0100
1000
0100
0010
0001
,
1000
0010
0100
0010
1000
0001
0010
0001
1000
0100
1000
0010
1000
0001
0010
0100
,
1000
0001
0100
0010
0100
0001
1000
0010
1000
0100
0010
0001
1000
0100
1000
0001
,
1000
0010
0100
0010
1000
0001
0010
0001
1000
0100
1000
0010
1000
0001
0010
0100
,
1000
0001
0100
0010
0100
0001
1000
0010
1000
0100
0010
0001
1000
0100
1000
0001
,
0010
0100
0010
0001
1000
0010
1000
0100
0010
0001
1000
0010
0100
0001
1000
0001
,
0010
0100
0010
0001
1000
0001
1000
0010
0100
0010
1000
0100
0010
0001
1000
0100
,
0010
0100
1000
0001
0010
0001
0100
0010
1000
0001
0010
0100
0010
0001
1000
0010
,
1000
0001
1000
0001
1000
0010
0100
0001
1000
0001
0100
0010
1000
0001
1000
0001
,
1000
0010
0100
0001
1000
0001
0100
0010
1000
0010
0100
0001
1000
0010
1000
0001
,
1000
0100
0010
0100
1000
0001
0010
0100
1000
0001
1000
0100
0010
0100
0010
0001
,
1000
0010
0100
0001
1000
0010
0100
0010
1000
0001
0100
0001
1000
0010
1000
0001
,
1000
0100
1000
0001
0010
0100
1000
0001
1000
0100
1000
0001
0010
0100
0010
0100
,
1000
0001
0100
0010
0100
0001
1000
0010
0100
0010
1000
0001
0100
0010
1000
0001
,
1000
0100
0010
0100
1000
0001
0010
0001
1000
0100
1000
0100
0010
0100
1000
0001
,
0100
0010
1000
0001
0100
0010
0100
0001
1000
0010
0100
0001
1000
0001
0100
0010
,
1000
0001
1000
0100
0010
0001
1000
0001
0010
0001
1000
0100
0010
0100
1000
0001
,
0100
0001
0010
0100
1000
0001
0010
0001
0010
0100
1000
0001
0010
0001
1000
0001
,
1000
0010
0100
0001
0100
0010
1000
0001
0100
0010
1000
0001
1000
0010
0100
0001
,
0010
0100
1000
0100
0010
0100
1000
0001
1000
0100
0010
0100
0010
0001
1000
0001
,
0100
0010
1000
0001
1000
0010
0100
0010
1000
0001
1000
0001
0100
0010
1000
0010
,
1000
0100
0010
0100
1000
0001
0100
0010
0100
0001
1000
0100
1000
0001
0010
0100
,
1000
0001
1000
0010
0100
0001
0010
0001
1000
0100
1000
0010
0100
0001
1000
0100
,
0010
0001
0100
0010
1000
0010
0100
0001
1000
0100
1000
0001
0010
0001
0100
0010
,
1000
0001
0100
0001
1000
0001
0100
0010
0100
0001
1000
0010
0100
0010
1000
0001
,
0100
0010
0100
0010
1000
0001
1000
0001
1000
0010
1000
0010
0100
0001
0010
0001
,
0100
0010
1000
0100
0010
0100
1000
0010
0100
0001
1000
0100
0010
0100
1000
0001
,
0010
0100
0010
0100
1000
0100
1000
0100
1000
0001
1000
0001
0100
0010
1000
0010
,
0100
0001
0010
0001
0100
0010
1000
0001
0010
0100
1000
0001
0100
0010
1000
0001
,
1000
0010
1000
0010
0100
0010
0100
0010
0100
0001
0100
0001
1000
0100
0010
0100
,
1000
0001
0010
0001
0100
0010
0100
0001
1000
0100
1000
0001
0010
0100
1000
0001
,
0100
0010
0100
0010
0100
0001
0100
0001
1000
0001
1000
0001
0010
0100
0010
0001
,
0100
0010
0100
0001
1000
0100
0010
0100
1000
0001
0100
0001
1000
0010
1000
0001
,
0010
0100
1000
0100
1000
0001
0010
0001
0010
0100
0010
0100
1000
0001
0010
0001
,
0100
0010
1000
0010
0100
0001
1000
0100
0010
0100
1000
0001
0010
0001
0100
0010
,
1000
0001
1000
0001
0100
0010
0100
0010
1000
0010
1000
0010
0100
0001
1000
0010
,
1000
0100
0010
0001
0100
0010
1000
0010
0100
0001
1000
0010
1000
0001
0010
0001
,
0100
0010
0100
0010
0100
0001
0100
0001
1000
0010
1000
0010
1000
0001
0010
0100
,
0010
0001
1000
0010
0100
0010
1000
0100
1000
0010
0100
0001
1000
0100
1000
0001
,
0010
0100
0010
0100
1000
0100
1000
0100
1000
0001
1000
0001
0100
0010
1000
0010
,
0100
0001
1000
0100
0010
0001
1000
0001
0010
0100
0010
0001
1000
0001
0010
0100
,
1000
0001
1000
0100
0000
0010
0001
1000
,
0001
0100
0010
0100
0001
1000
0010
0100
,
0010
1000
0100
0010
0000
0001
1000
0001
,
0010
0100
0010
0001
0100
0010
1000
0010
,
0100
0001
1000
0100
0000
0010
0100
1000
,
0010
0100
0001
0100
0010
1000
0001
0010
,
0001
1000
0100
1000
0000
0001
0100
0010
,
0100
0001
0010
0001
1000
0100
0010
0001
,
1001
0000
0000
0000
0000
0001
0100
0001
,
0010
0001
1000
0010
0100
0010
1000
0001
,
0011
0000
0000
0000
0000
1000
0100
1000
,
0010
1000
0001
0100
0010
1000
0100
1000
,
1001
0000
0000
0000
0000
0001
0100
0010
,
1000
0001
0010
0100
0010
0001
0100
0010
,
0110
0000
0000
0000
0000
0100
0010
1000
,
0010
0100
0001
0010
0001
0100
0010
1000
,
0200
0000
0000
0000
,
0000
0000
0000
0000
,
0000
0000
0000
0000
,
0000
0000
0000
0000
,
0300
0000
0000
0000
;
