#TITLE:Music is my language;
#SUBTITLE:;
#ARTIST:DJ Alligator feat. Arasha;
#TITLETRANSLIT:;
#SUBTITLETRANSLIT:;
#ARTISTTRANSLIT:;
#CREDIT:;
#BANNER:music is my language.PNG;
#BACKGROUND:music is my language-bg.PNG;
#LYRICSPATH:;
#CDTITLE:./CDTITLES/universal.PNG;
#MUSIC:music is my language.ogg;
#OFFSET:-0.183;
#SAMPLESTART:25.820;
#SAMPLELENGTH:12.000;
#SELECTABLE:YES;
#BPMS:0.000=138.400;
#STOPS:58.000=1.280
,251.000=1.340
,284.000=1.520
,368.500=1.320
,399.500=0.660
,400.000=0.460
;
#BGCHANGES:;
// cache tags:
#FIRSTBEAT:0.000;
#LASTBEAT:459.000;
#SONGFILENAME:Songs/in the groove2/music is my language/music is my language.sm;
#HASMUSIC:1;
#HASBANNER:0;
#MUSICLENGTH:105.000;
// end cache tags

//---------------dance-single - ----------------
#NOTES:
     dance-single:
     :
     Hard:
     9:
     1.000,1.000,0.686,0.267,0.329,712.000,72.000,28.000,0.000,9.000:
0100
0000
0100
0000
0100
0100
0100
0000
,
0001
0000
0001
0000
0001
0001
0001
0000
,
0010
0000
0010
0000
0010
0010
0010
0000
,
1001
0000
1001
0000
0100
0100
0100
0000
,
0010
0000
0010
0000
0010
0010
0010
0000
,
1100
0000
1100
0000
1100
0101
1100
0000
,
0100
0000
0100
0000
0010
0001
0001
0000
,
0100
0000
0100
0000
0100
0100
0100
0000
,
0020
0000
0000
0000
,
0001
0031
0010
1000
,
1000
1000
0010
0010
,
0100
0100
0001
0001
,
0100
0100
1000
1000
,
0010
0010
0100
0100
,
0001
0000
0010
0000
1001
0000
0100
0010
,
0100
0000
0001
0100
0001
0000
1000
0100
,
1000
0010
1000
0001
0100
0010
0100
0010
,
0100
0001
1000
0000
1000
0100
0010
0000
,
0001
0100
0010
0000
1000
0100
0001
0000
,
0001
0100
1000
0001
0010
1000
0001
0100
,
1000
0001
0010
1000
0100
0010
0100
0000
,
1000
0001
1000
0001
1000
0000
0000
0000
0100
0000
0010
0000
0001
0000
0000
0000
,
0100
1000
0100
0000
0010
0100
0001
1000
,
0100
0010
0100
0010
0100
0010
0001
0000
,
1001
0100
1001
0000
0110
0001
0110
0000
,
1000
0001
1000
0000
0000
0000
0010
0000
0100
0000
0001
0000
1000
0000
0100
0000
,
0010
0100
1000
1001
0100
0110
0220
0000
,
0300
0000
0000
0030
0000
0000
0001
1000
0001
1000
0001
1000
0001
0000
0100
0000
,
0010
0000
0001
0000
0001
0100
0010
0000
,
0001
0000
0001
0100
0010
0000
0000
0100
,
0010
0100
0010
0100
0010
0001
0100
0010
,
0001
0100
0010
0000
0010
0001
2002
0000
,
0000
3003
0010
0100
0001
1000
0200
0000
,
0000
0300
0001
0100
0010
0002
2000
0003
,
3000
0000
0000
1000
0001
0100
0010
1000
,
0010
0001
0100
0010
1000
0100
0010
0000
,
1000
0001
2000
0000
0000
0000
0001
0010
,
0001
3010
0010
0000
0000
0000
0000
0100
,
0001
1000
0200
0000
0000
0000
0300
0010
,
1000
0100
0001
0100
1000
0010
0001
0010
,
1000
1001
0001
0000
0000
0000
0200
0000
,
0020
0000
0002
0000
2000
3333
0100
0000
,
0100
0100
0000
0001
0100
0000
1000
0100
,
0001
0100
0010
0100
0001
0100
0000
0001
,
0100
0001
0000
1000
1000
1000
0000
0010
,
0100
0001
2000
0002
0100
0000
0100
0000
,
0100
0000
0100
0000
3003
0000
1000
0100
,
0001
0100
1000
0100
0001
0100
1000
0010
,
1000
0100
1000
0010
1000
0100
2000
0000
,
0000
0000
0000
3000
0000
0000
1001
0000
,
0001
0100
0001
0000
0000
0000
0000
0000
1000
0100
1000
0000
0000
0000
0010
0001
,
1000
0000
0010
0000
0100
0000
0010
0000
1000
0000
0001
0000
0100
0000
0010
0100
,
0000
0010
0100
0000
0000
0000
1000
0001
0000
1000
0001
0000
0000
0000
0010
0100
,
0000
0010
0100
0000
0000
0000
0000
1000
0001
0000
1000
0000
0000
0000
0010
0001
,
0010
1000
0100
0010
0100
0010
1000
0001
,
1000
0000
0010
0000
0010
0001
0010
0100
1000
0010
0100
0000
0000
0000
1000
0001
,
1000
0001
1000
0001
1000
0000
0000
0000
1000
0000
0010
0000
0100
0000
0000
0000
,
0001
0100
0010
0000
1000
0100
0100
0001
,
0010
1000
0100
1000
0100
0001
0000
0000
,
0001
1000
0001
0000
0010
0100
0010
0000
,
1000
0001
1000
0000
0000
0000
0100
0010
0100
0001
1000
0001
1000
0100
0010
0100
,
0010
0001
1000
0001
1000
0100
0010
0001
0100
0010
1000
0100
0010
0000
0100
0000
,
0100
0000
0001
0000
0000
0000
0010
0100
0010
0100
0010
0100
0010
0000
0000
0000
,
1000
1000
1000
0001
,
0001
0001
0100
0100
,
0100
0010
0010
0010
,
1100
1100
1100
0101
,
0101
0101
0110
0110
,
0110
0011
0011
0011
,
1010
1010
1010
0011
,
0110
1001
0110
0011
,
1100
0000
0100
0010
0100
0020
0000
0000
,
0000
0030
0100
0020
0100
1030
0000
0000
,
0000
0000
0010
0100
0010
0100
0001
0100
,
0010
0100
0010
0100
0001
0100
0000
0100
,
1000
0200
0000
0000
0000
0000
0010
0001
,
0010
0001
0000
0300
0020
0000
1000
0100
,
1000
0100
0000
0030
0000
0000
0010
0100
,
0001
1000
0000
0100
0000
0010
0000
0100
,
0000
0001
0000
1000
0001
1000
0000
0000
,
0010
0100
0010
0000
1000
0000
0001
0000
0100
0000
0010
0000
0000
0000
0000
0000
,
0100
0010
0100
0000
0001
0000
0100
0000
0010
0000
0100
0000
0000
0000
0000
0000
,
1000
0100
1000
0000
0001
0000
0100
0000
0010
0000
0100
0000
0000
0000
0100
0000
,
0000
0100
0000
0100
0010
0200
0000
0300
,
0000
1001
0100
1001
0010
1001
0000
0110
,
0000
1001
0110
1001
0110
1001
0000
0010
,
0100
1000
0000
0220
0000
1000
0001
1330
,
0000
0000
1000
0100
0001
0100
0000
0010
,
0000
0100
0000
1001
0000
0000
1001
0110
,
0000
1001
0100
1001
0100
1001
0010
1001
,
0010
1100
0010
1100
0010
0101
0010
0101
,
0010
1001
0110
1001
0110
1001
0110
1001
,
0110
1001
0100
0010
0100
0001
1000
0010
,
0000
0010
0000
0100
0000
0100
0010
0100
,
0000
0001
1000
0001
0000
0100
0010
0100
,
0002
2003
3100
0010
0100
0010
0100
1000
,
0000
0010
0100
0010
0000
0001
1000
0001
,
0000
0000
0100
0010
0100
0000
0000
0000
1000
0000
0001
0000
0100
0000
0010
0000
,
0001
0010
0100
0010
0001
0100
0010
0100
,
0010
0000
0100
0000
0001
1000
0000
0000
0100
0010
0100
0010
0100
0010
0100
0000
,
1001
0000
0000
0000
0100
0010
0100
0000
0100
0010
0100
0000
1000
0000
0001
0000
,
0100
0000
0000
0000
0001
1000
0001
1000
0001
1000
0001
1000
0001
0000
0000
0000
,
0000
0000
0000
0000
0100
0000
0010
0000
0100
0000
0000
0000
0001
1000
0001
0000
,
0100
0000
0000
0000
0000
0000
0000
0000
0010
0000
0000
0000
0100
0000
0000
1000
,
0001
0000
0110
0010
0100
0010
0100
0010
,
1000
0000
0000
0000
0001
0100
0001
0000
0001
0100
0001
0000
1000
0000
1000
0000
,
0000
0000
0000
0000
0100
0010
0000
0000
0100
0010
0000
0000
0100
0010
0000
0000
,
0010
0100
0000
0000
0010
0100
0000
0000
0010
0100
0000
0000
0010
0100
0000
0000
,
0010
0100
0000
0000
0000
0000
0000
0000
0001
0000
1000
0000
0001
0000
0000
0000
,
0010
0100
0010
0000
1000
0100
1000
0100
,
0010
0100
0020
0130
0011
1000
0010
0000
,
1000
0100
1000
0000
0001
0100
0001
0000
,
1000
0000
0100
0000
0010
0000
0000
0000
0001
0010
0001
0000
1000
0000
0100
0000
,
0100
0000
1000
0000
0100
0000
0001
0000
0100
0000
1000
0000
0100
0010
0100
0010
,
0100
0000
0000
0000
0000
0000
0001
1000
0002
1003
0001
0000
1000
0000
0000
0000
;
