#TITLE:It's in your melody;
#SUBTITLE:(Shpadoinkle);
#ARTIST:Smile.Dk;
#TITLETRANSLIT:;
#SUBTITLETRANSLIT:;
#ARTISTTRANSLIT:;
#CREDIT:;
#BANNER:../thisandthat-bn.png;
#BACKGROUND:../thisnthat-bg.png;
#LYRICSPATH:;
#CDTITLE:;
#MUSIC:its_in_your_melody.ogg;
#OFFSET:-0.182;
#SAMPLESTART:43.039;
#SAMPLELENGTH:12.000;
#SELECTABLE:YES;
#DISPLAYBPM:140.000;
#BPMS:0.000=140.000,340.000=70.000,372.000=140.000,448.000=280.000;
#STOPS:;
#BGCHANGES:;
// cache tags:
#FIRSTBEAT:15.500;
#LASTBEAT:457.000;
#SONGFILENAME:Songs/Seph, Gson & Shpadoinkle's Pack of This 'n That/It's in your melody (9)/It's in your melody.sm;
#HASMUSIC:1;
#HASBANNER:1;
#MUSICLENGTH:105.000;
// end cache tags

//---------------dance-single - Shpadoinkle----------------
#NOTES:
     dance-single:
     Shpadoinkle:
     Challenge:
     9:
     1.000,1.000,0.162,1.000,0.405,781.000,17.000,435.000,59.000,1.000:



0000
0000
0000
0000
,
0000
0000
0000
0000
,
0000
0000
0000
0000
,
0000
0000
0000
0000
0000
0000
0000
1100
,
1001
0000
0000
0000
,
0000
0000
0000
0000
,
0000
0000
0000
0000
,
0000
0000
0000
0000
,
1000
0001
1000
0010
0000
0100
0010
0000
1000
0001
0000
1000
0001
0000
1000
0010
,
2000
3002
2003
3020
2030
3200
2300
3002
,
0203
0320
0230
0302
0203
0320
0230
2300
,
3200
0302
0023
0230
0320
0032
0023
0230
,
2300
3200
2300
3020
2030
3002
2003
3020
,
2030
3200
0320
0032
0023
0230
0320
0032
,
2003
3002
2003
3020
2030
3200
2300
3020
,
0230
0320
0230
2300
3200
0302
0203
0320
,
2030
3200
0320
0032
0023
0230
2300
3010
,
1010
0000
2000
3000
0200
0300
0020
0030
0002
0000
1003
0000
0010
0000
0200
0300
,
2000
3000
0200
0300
0002
0000
0103
0000
0001
0000
1000
0000
0100
0000
0010
0000
,
0001
0000
2000
3000
0020
0030
0200
0300
0002
0000
1003
0000
0010
0000
0002
0003
,
0020
0030
2000
3000
0020
0000
1030
0000
0010
0000
0100
0000
0010
0000
0001
0000
,
0010
0000
2000
3000
0200
0300
0020
0030
0002
0000
1003
0000
0010
0000
0200
0300
,
0002
0003
2000
3000
0020
0000
1030
0000
0001
0000
0010
0000
0100
0000
1000
0000
,
0010
0000
0200
0300
0002
0003
0020
0030
0200
0300
1000
0000
0010
0000
2000
3000
,
0020
0030
0200
0300
0002
0000
1003
0000
0100
0000
0000
0000
1000
0000
0001
0000
,
0022
0000
0033
2002
3003
2000
3000
0020
,
0030
0000
0200
0000
0300
0000
0002
0000
0000
0003
0000
0000
1000
0000
0100
0000
,
0010
0000
0000
0000
0002
0003
2000
3000
0020
0000
0030
0000
0000
0000
2000
3000
,
0020
0030
0200
0300
0020
0030
1000
0000
0001
0000
0010
0000
0100
0000
1000
0000
,
0200
0300
0000
0000
0020
0030
0002
0003
0000
0000
2000
3000
0000
0000
0020
0030
,
0000
0200
0300
0002
0003
0000
1000
0001
,
0010
0000
0200
0300
2000
3000
0020
0030
0200
0000
0300
0000
0M00
0000
0200
0300
,
0002
0003
2000
3000
0020
0000
0000
0000
0000
0000
0000
0000
1030
0100
0020
0030
,
0000
0002
2003
3020
0230
0300
0002
2003
,
3000
0100
0010
0001
0010
0100
1000
0000
,
MMMM
2000
3200
0320
0032
0003
0200
0320
,
0030
1000
0001
0010
0100
1000
0100
0010
,
MMMM
0020
0230
2300
3002
0003
2000
3020
,
0030
0100
0010
0001
0010
1000
0100
0000
,
MMMM
0200
2300
3002
0023
0030
0002
2003
,
3000
0000
0001
0000
0010
0000
0100
0000
1000
0000
0010
0000
0100
0001
0020
0000
,
0000
0200
0000
0000
0000
0000
0000
0330
,
1000
0100
1000
0010
0000
0100
0001
0000
1000
0010
0000
1000
0001
0000
0100
0010
,
0200
0320
0230
2300
3200
0302
0203
0320
,
2030
3200
2300
3020
2030
3002
2003
3200
,
0320
0032
0023
0230
0320
2030
3020
0032
,
0203
0320
0230
0302
0203
2300
3200
0320
,
2030
3002
2003
3020
2030
3002
2003
3200
,
0320
0032
0023
2030
3020
0032
0023
0230
,
2300
3200
2300
3002
2003
3200
2300
3020
,
0230
0320
2030
3002
0023
0230
2300
3001
,
1001
0000
2000
3000
0020
0030
0200
0300
0002
0000
1003
0000
0010
0000
0200
0300
,
2000
3000
0200
0300
0020
0000
1030
0000
0100
0000
0010
0000
0001
0000
1000
0000
,
0010
0000
0200
0300
0020
0030
0002
0003
0020
0030
1000
0000
0200
0300
0020
0030
,
0002
0003
0020
0030
0200
0000
1300
0000
0001
0000
0010
0000
1000
0000
0010
0000
,
0001
0000
0200
0300
2000
3000
0200
0300
0002
0003
0010
0000
0200
0300
2000
3000
,
0002
0003
2000
3000
0020
0030
0200
0302
2003
3000
0100
0000
0010
0000
0001
0000
,
1000
0000
0020
0030
0200
0300
0020
0030
2000
3000
0100
0000
0010
0000
0002
0003
,
2000
3000
0020
0030
0200
0300
0001
0000
1000
0000
0000
0000
0001
0000
0010
0000
,
0220
0000
0330
2200
3300
0002
0003
2000
,
3000
0000
0020
0000
0030
0000
0200
0000
0000
0300
0000
0000
0001
0000
0010
0000
,
0100
0000
0000
0000
2000
3000
0020
0030
0200
0000
0300
0000
0000
0000
0002
0003
,
0020
0030
2000
3000
0020
0030
0001
0000
0010
0000
0100
0000
1000
0000
0001
0000
,
0200
0300
0000
0000
0020
0030
2000
3000
0000
0000
0002
0003
0000
0000
0020
0030
,
0000
0200
0300
0020
0031
1000
0010
0100
,
0001
0000
0020
0030
0200
0300
2000
3000
0020
0000
0030
0000
00M0
0000
0020
0030
,
2000
3000
0002
0003
0200
0000
0000
0000
0000
0000
0000
0000
0001
0310
0200
0000
,
0300
2000
3002
0203
2300
3000
0200
0302
,
0003
1000
0100
0010
0001
0010
0100
0000
,
MMMM
0200
2300
3020
0230
0300
0002
0023
,
0030
0001
0100
1000
0100
0001
0010
0100
,
MMMM
0200
2300
3020
0230
0300
0020
2030
,
3000
0001
0010
0001
1000
0010
0100
0000
,
MMMM
0200
0320
0032
0023
0030
2000
3200
,
0300
0000
0010
0000
0001
0000
1000
0000
0010
0000
0100
0000
0001
0010
0200
0000
,
0000
0020
0000
0000
0000
0000
0000
0330
,
0001
1000
0010
0100
0000
0001
0010
0000
0100
0000
1000
0010
0000
0100
0010
0000
,
2000
3200
2300
3020
2030
3002
2003
3020
,
0230
2300
3200
0320
0230
0302
0203
0320
,
2030
3002
2003
3020
2030
3200
2300
3002
,
0023
0230
0320
0032
0023
2030
3020
0032
,
0203
0320
0230
2300
3200
0302
0203
0320
,
2030
3200
2300
3002
2003
3020
2030
3002
,
0023
0230
0320
0032
0023
2030
3020
0032
,
0203
0320
0230
0302
0203
2300
3200
0310
,
0110
0010
1000
0010
0100
0010
1000
0001
0010
0100
0010
0001
0100
0001
0010
0100
,
0010
0001
1000
0010
0100
0010
0100
0001
0010
0100
1000
0010
0100
1000
0100
0010
,
1000
0100
0010
0001
1000
0010
0100
0001
0010
0100
1000
0010
0001
0010
1000
0100
,
0010
0001
0010
1000
0010
0001
0100
1000
0100
0001
0010
0001
1000
0010
0100
0001
,
1001
1000
0100
0010
0001
0010
0100
1100
1001
0001
1000
0100
0010
0001
0010
0100
,
1100
1000
0100
1000
0001
0010
0100
0110
1100
1000
0001
0010
0001
0100
0001
0010
,
0120
0030
0200
2300
3000
0020
0030
2000
3000
0200
0300
2000
3000
0020
0030
0200
,
0301
0001
0001
0001
0010
0010
0010
0010
,
0001
0010
0100
1000
0000
0001
1000
0000
0010
0100
0000
0001
0010
0000
0100
1000
,
0002
0003
2000
0000
3020
0000
0230
0000
2300
0000
3000
0000
0200
0000
0302
0000
,
0003
1000
0100
0010
0001
0010
0100
0000
,
MMMM
0200
2300
3002
0023
0030
0200
2300
,
3000
0100
0010
0001
0010
0001
1000
0010
,
MMMM
0020
2030
3200
0320
0030
0002
0203
,
0300
0001
0010
0100
0010
0001
1000
0000
,
MMMM
2000
3002
0023
0032
0003
2000
3020
,
0030
0000
1000
0000
0100
0000
0010
0000
0001
0000
0010
0000
0100
1000
0002
0000
,
0003
2000
3020
0230
0302
0003
0020
0230
,
0300
1000
0100
0010
0001
0010
0100
0000
,
MMMM
0200
2300
3020
0230
0300
0020
2030
,
3000
0001
0010
0001
1000
0010
0100
0010
,
MMMM
0020
2030
3200
0320
0030
0200
2300
,
3000
0001
1000
0010
1000
0100
0010
0000
,
MMMM
0020
0032
2003
3020
0030
0200
0302
,
0003
0000
1000
0000
0010
0000
0100
0000
0001
0000
0010
0000
0100
1000
0020
0000
,
0000
0200
0000
0000
0000
0000
0000
1330
,
0000
0001
0010
0000
0100
0000
1000
0000
,
2020
0M00
000M
0M00
,
000M
0M00
000M
0M00
,
303M
0M00
0000
0000
;
