#TITLE:pants;
#SUBTITLE:- zebdal -;
#ARTIST:dj sharpnel;
#TITLETRANSLIT:;
#SUBTITLETRANSLIT:;
#ARTISTTRANSLIT:;
#CREDIT:;
#BANNER:chii-bann.jpg;
#BACKGROUND:chii-bg.jpg;
#LYRICSPATH:;
#CDTITLE:;
#MUSIC:DJ Sharpnel & V.A - Sharpnelsound Collection - 05 - Pants.mp3;
#OFFSET:-0.100;
#SAMPLESTART:100.000;
#SAMPLELENGTH:12.000;
#SELECTABLE:YES;
#BPMS:0.000=190.000,716.000=115.000,724.000=130.000,732.000=137.000,740.000=143.000,748.000=152.000,752.000=158.000,756.000=167.000,764.000=175.000,772.000=184.500,780.000=190.000;
#STOPS:;
#BGCHANGES:;
// cache tags:
#FIRSTBEAT:0.000;
#LASTBEAT:1104.000;
#SONGFILENAME:Songs/toune 2/pants (pad edit)/DJ Sharpnel & V.A - Sharpnelsound Collection - 05 - Pants.sm;
#HASMUSIC:1;
#HASBANNER:1;
#MUSICLENGTH:358.337;
// end cache tags

//---------------dance-single - Copied from----------------
#NOTES:
     dance-single:
     Copied from:
     Hard:
     10:
     0.751,0.963,0.516,0.162,0.018,1641.000,185.000,58.000,0.000,3.000:
0010
0100
0010
0000
0100
0010
0000
1000
,
0000
0100
0010
0000
0100
0010
0000
0100
,
0000
0010
1000
0100
0010
0001
0010
1000
,
0200
0010
0001
0000
0310
0001
0000
1000
,
0000
0100
0010
0000
0001
0010
0000
1000
,
0000
0100
0001
0000
0001
1000
0000
0100
,
0020
2030
3200
0320
,
0032
1000
0103
0000
0010
0100
0000
0001
,
0000
0010
0100
0000
0001
1000
0000
0100
,
0000
1000
0010
0000
0001
0100
0000
0010
,
0000
0100
1000
0010
0100
1000
0001
0200
,
1000
0010
0001
0300
1000
0010
0000
0100
,
0000
1000
0001
0000
0100
0010
0000
0001
,
0000
0010
0100
0000
0001
1000
0000
0100
,
0020
0230
2300
3200
,
0320
0001
0130
0000
1000
0010
0000
0100
,
0000
0001
1000
0000
0100
0010
0000
0010
,
0000
0100
0010
0000
0001
1000
0000
0100
,
0010
1000
0100
0010
0100
1000
0100
0010
,
0002
0100
1000
0000
0103
0010
0000
0001
,
0000
0010
0100
0000
1000
0100
0000
0001
,
0000
0100
0010
0000
1000
0001
0000
0100
,
2000
3200
2300
3020
,
0032
0100
1003
0000
0100
0010
0000
0001
,
0000
0010
1000
0000
0001
0100
0000
0010
,
0000
1000
0001
0000
0100
0010
0000
0100
,
0010
0100
0010
0001
0100
0010
0000
0100
,
0020
1000
0100
0000
0031
0100
0000
0010
,
0000
1000
0001
0000
0100
0010
0000
0100
,
0000
0001
1000
0000
0100
0001
0000
0100
,
0020
0032
0023
0230
,
0301
1000
0010
0001
0010
1000
0100
0010
,
1000
0010
1000
0001
0010
1000
0010
0100
,
0001
0010
1000
0010
0100
1000
0001
0100
,
0010
1000
0001
0100
1000
0010
0100
1000
,
0001
0010
1000
0100
0010
0001
1000
0100
,
0001
0100
0010
0001
0100
0010
1000
0010
,
1000
0010
0100
0001
1000
0010
1000
0100
,
0001
0100
0010
1000
0010
0100
0010
0100
,
0010
0100
0001
0100
0010
1000
0001
0100
,
0010
1000
0010
0001
0010
1000
0001
0010
,
0100
0001
0010
1000
0100
0010
0001
0010
,
0100
0001
0010
0100
1000
0010
0001
0100
,
0001
0100
0001
1000
0100
1000
0001
0100
,
0001
0010
0100
0010
0100
1000
0001
0010
,
1000
0100
0010
0001
0010
0100
0001
0010
,
0100
0010
0100
0010
1000
0100
0001
0010
,
1000
0100
0010
0100
0010
1000
0001
0010
,
0100
1000
0010
0001
0100
0001
1000
0001
,
0010
0100
0001
1000
0100
0010
0100
1000
,
0100
0001
1000
0010
1000
0100
0001
0010
,
1000
0010
0001
1000
0100
0010
1000
0010
,
1000
0010
0100
1000
0010
0001
1000
0001
,
1000
0010
1000
0100
0010
0001
0010
1000
,
0100
0001
0010
0100
1000
0001
0010
0100
,
1000
0010
1000
0100
0010
0100
1000
0010
,
0100
1000
0100
1000
0010
0001
1000
0010
,
0100
0001
0010
1000
0010
0100
0010
0001
,
0100
0001
0100
0010
0001
0100
0001
0010
,
1000
0001
1000
0001
0010
1000
0100
0010
,
1000
0001
0010
0001
0100
0010
0001
1000
,
0010
0001
0100
1000
0010
0001
0010
0001
,
0100
0010
0100
0010
0001
0100
0010
1000
,
0101
0000
0000
0100
1000
0100
0000
1001
,
0000
1001
0000
0100
0010
0000
1000
0000
,
0011
0000
0000
0100
0001
1000
0000
1100
,
0000
0011
0000
1000
0100
0000
0010
0000
,
1001
0000
0000
1000
0001
0010
0000
0101
,
0000
0011
0000
0100
1000
0000
0100
0000
,
0110
0000
0000
0100
0010
0100
0000
1100
,
0000
0110
0000
0010
0010
0000
1000
0000
,
1001
0000
0000
1000
0001
0001
0000
0101
,
0000
0110
0000
1000
0010
0000
0001
0000
,
1001
0000
0000
1000
0001
0110
0000
1000
,
0000
0010
0000
1000
0001
0000
1010
0000
,
1100
0000
0000
0100
1000
0100
0000
0011
,
0000
0101
0000
1000
0001
0000
1000
0000
,
0110
0000
0000
0100
0010
0100
0000
0011
,
0000
1010
0000
0010
0000
0110
1001
0110
,
1001
0000
0000
1000
0010
1000
0000
1001
,
0000
1010
0000
0010
1000
0000
1000
0000
,
0001
0000
0000
0001
1000
0100
0000
1001
,
0000
0110
0000
1000
0001
0000
0010
0000
,
1001
0000
0000
1000
0001
0010
0000
0101
,
0000
0110
0000
1000
0010
0000
0001
0000
,
0110
0000
0000
0100
0001
0010
0000
0110
,
0000
0110
0000
0100
0001
0000
0001
0000
,
0101
0000
0000
1000
0100
0001
0000
1100
,
0000
1100
0000
0001
0100
0000
0010
0000
,
0110
0000
0000
1000
0001
0010
0000
0110
,
0000
0011
0000
1000
0100
0000
1000
0000
,
1001
0000
0000
1000
0010
1000
0000
0110
,
0000
1010
0000
0100
0001
0000
0001
0000
,
1100
0000
0000
1000
0010
1000
0000
1010
,
0000
1100
0000
0100
0010
0000
1000
0000
,
0101
0010
0001
0100
0010
0100
0001
1000
,
0010
1000
0010
0100
0010
0001
1000
0001
,
0100
0001
0010
1000
0100
1000
0001
0010
,
1000
0010
0001
1000
0100
1000
0001
0100
,
0001
0010
0001
0100
0001
0100
1000
0100
,
1000
0001
1000
0010
0100
0010
0001
1000
,
0100
0001
1000
0010
0100
0001
0010
0100
,
0001
0100
1000
0001
1000
0100
0010
0100
,
1000
0010
0001
1000
0100
0001
0010
1000
,
0001
0100
0001
1000
0010
0001
1000
0100
,
0010
1000
0010
0001
0010
1000
0001
0010
,
1000
0001
1000
0010
1001
0010
0100
0001
,
0010
0100
0001
0010
0100
0010
0001
0010
,
0100
0001
0010
1000
0010
0001
1000
0010
,
0100
0010
1000
0010
0001
0010
0100
0010
,
0100
1000
0001
0100
0001
0010
0100
0010
,
0001
0220
0000
0000
0000
0000
0000
0000
,
1330
0100
0010
0001
0010
0100
1000
0100
,
0110
0110
0110
0110
0110
0110
0110
0110
,
0001
1000
0001
1000
0001
1000
0001
1000
,
0011
0000
0000
1100
0000
0000
0110
0000
,
0000
2002
0000
3003
,
0110
0000
0000
0011
0000
0000
1001
0000
,
0000
0220
0000
0330
,
1100
0000
0000
0011
0000
0000
1001
0000
,
0000
2020
0000
3030
,
0101
0000
0000
0011
0000
0000
1100
0000
,
0000
2020
0000
3030
,
0010
1000
0100
0001
0100
0010
1000
0010
,
0100
0001
1000
0010
0001
0100
0010
0100
,
0010
0100
0001
0100
1000
0001
0100
0001
,
1000
0010
0001
0100
0010
0001
0100
0010
,
1000
0001
0100
0001
0100
1000
0001
0010
,
0100
1000
0001
0010
0100
1000
0001
0100
,
0010
1000
0100
0001
0100
0010
1000
0010
,
0100
1000
0001
0010
0100
1000
0001
0100
,
0010
0100
0010
0100
0010
0100
0010
0100
,
1000
0100
0001
0100
0001
1000
0100
0001
,
0010
1000
0001
0100
1000
0010
0001
0010
,
0100
1000
0010
0001
0100
0010
1000
0001
,
0010
0100
0001
0100
0001
1000
0100
0001
,
1000
0100
0001
0100
0010
1000
0001
1000
,
0010
1000
0100
0001
0100
0010
1000
0010
,
0100
0001
0100
1000
0100
0010
0001
0100
,
0010
0100
0001
0100
1000
0001
0100
0001
,
0100
1000
0001
0100
0010
0100
1000
0100
,
0001
0100
0010
1000
0010
1000
0100
0001
,
0100
1000
0010
0001
1000
0100
0010
0001
,
0100
0001
0100
1000
0100
0010
1000
0010
,
1000
0010
0100
0010
0100
1000
0100
0010
,
1000
0001
1000
0001
1000
0001
1000
0001
1000
0001
1000
0001
1000
0001
1000
0001
,
1000
0001
1000
0001
1000
0001
1000
0001
1000
0001
1000
0000
0010
0000
0001
0000
,
1010
0000
0000
0010
1000
0001
0000
1001
,
0000
1001
0000
0010
1000
0000
0001
0000
,
0101
0000
0000
0100
1000
0100
0000
0110
,
0000
0011
0000
0001
0010
0000
0010
0000
,
0011
0000
0000
0010
1000
0010
0000
0110
,
0000
0110
0000
0100
0001
0000
0001
0000
,
0101
0000
0000
1000
0010
0001
0000
0110
,
0000
1001
0000
0001
0001
0000
0010
0000
,
0101
0000
0000
1000
0001
0010
0000
0101
,
0000
1001
0000
0010
0100
0000
0100
0000
,
0011
0000
0000
0001
0100
1000
0000
1010
,
0000
0110
0000
0001
0100
0000
0001
0000
,
1001
0000
0000
0010
0100
0010
0000
0110
,
0000
1010
0000
1000
0100
0000
0010
0000
,
0101
0000
0000
0100
0010
0001
0000
1100
,
0000
0110
0000
1000
0010
0000
0010
0000
,
1100
0000
0000
1000
0010
0001
0000
1010
,
0000
0110
0000
0001
1000
0000
0101
0000
,
1100
0000
0000
1000
0001
1000
0000
0110
,
0000
0101
0000
0100
0001
0000
0100
0000
,
1100
0000
0000
0100
0001
0010
0000
0110
,
0000
0011
0000
1000
0010
0000
1000
0000
,
1010
0000
0000
0010
1000
0001
0000
1010
,
0000
1001
0000
0001
1000
0000
1001
0000
,
0101
0000
0000
0001
1000
0100
0000
0011
,
0000
0101
0000
0001
0100
0000
1000
0000
,
0101
0000
0000
0100
0010
0100
0000
0010
,
0000
0100
0000
1000
0001
0000
0010
0000
,
0110
0000
0000
1000
0001
1000
0000
0110
,
0000
0101
0000
1000
0001
0000
1000
0000
,
0011
0000
0000
0010
1000
0010
0000
1001
,
0000
1001
0000
1000
0010
0000
0010
0000
,
1001
0100
0010
0100
0010
0001
0100
1000
,
0100
0010
0100
1000
0001
0010
0100
1000
,
0010
0100
0010
0100
0001
1000
0010
0100
,
0001
0100
1000
0010
0100
0001
1000
1000
,
0100
0001
0100
0010
0100
1000
0100
0010
,
0100
0001
0100
1000
0100
0010
0100
0001
,
0010
0100
1000
0010
0100
0010
0001
1000
,
0100
0010
0100
0001
0100
0010
0100
0001
,
1000
0100
0010
0100
0001
0100
0010
0100
,
1000
0001
0100
0010
0100
0001
0100
0010
,
1000
0001
0100
0010
0100
0001
1000
0100
,
0010
0001
0100
1000
0100
0001
0100
0010
,
0100
1000
0001
0100
0010
0100
0010
0100
,
1000
0001
0100
0010
0100
1000
0001
0100
,
0010
0001
0010
0100
0010
0100
1000
0001
,
0100
0010
0100
0001
0010
0100
1000
0010
,
1010
0000
0000
1000
0001
0100
0000
0101
,
0000
0101
0000
1000
0001
0000
1000
0000
,
0011
0000
0000
0100
0010
1000
0000
1100
,
0000
0011
0000
1000
0001
0000
0001
0000
,
1100
0000
0000
1000
0001
1000
0000
1001
,
0000
1001
0000
0001
0010
0000
0001
0000
,
1010
0000
0000
0001
0100
1000
0000
1001
,
0000
1010
0000
0010
1000
0000
1000
0000
,
1010
0000
0000
0001
0010
0001
0000
1100
,
0000
1100
0000
0001
1000
0000
0001
0000
,
1100
0000
0000
1000
0001
0100
0000
0110
,
0000
1001
0000
0001
0010
0000
1000
0000
,
0011
0000
0000
0100
0010
0100
0000
0101
,
0000
0110
0000
1000
0100
0000
1010
0000
,
0110
0000
0000
1000
0001
0010
0000
1001
,
0000
0011
0000
1000
0100
0000
0010
0000
,
1000
0100
0010
0000
0100
1000
0000
0010
,
0000
1000
0001
0000
0001
0010
0000
0010
,
0000
0001
0010
0000
0001
0010
0000
0001
,
0000
0001
0010
1000
0100
0010
0001
0100
,
0020
0100
1000
0000
0130
1000
0000
1000
,
0000
0001
1000
0000
0010
0100
0000
0010
,
0000
1000
0010
0000
1000
0010
0000
1000
,
0002
0203
0320
0032
,
2003
0100
3010
0000
0001
0100
0000
0001
,
0000
0100
1000
0000
0010
0100
0000
1000
,
0000
0010
0001
0000
1000
0001
0000
0100
,
0000
1000
0010
1000
0100
1000
0001
0020
,
0001
1000
0100
0030
1000
0001
0000
1000
,
0000
0001
0010
0000
1000
0100
0000
0010
,
0000
0001
1000
0000
0100
0001
0000
0100
,
0002
0023
0230
0320
,
0032
0100
1003
0000
0010
0001
0000
0100
,
0000
1000
0001
0000
0100
1000
0000
0100
,
0000
0010
0100
0000
1000
0001
0000
1000
,
0100
1000
0100
0010
1000
0001
0100
0010
,
2000
0001
0010
0000
3100
0001
0000
0100
,
0000
0001
1000
0000
0100
0001
0000
1000
,
0000
0100
0001
0000
0100
0001
0000
1000
,
0200
0320
0230
0302
,
2003
0010
3001
0000
0100
1000
0000
0001
,
0000
0100
1000
0000
0100
0010
0000
0001
,
0000
0100
0001
0000
0001
0010
0000
1000
,
0100
0001
1000
0001
0100
1000
0000
0010
,
0002
1000
0100
0000
0013
0001
0000
0010
,
0000
0100
1000
0000
0001
0100
0000
0010
,
0000
0100
1000
0000
0010
0001
0000
1000
,
0002
2003
3002
0023
,
1130
0000
0010
1000
0000
0100
0010
0000
,
0110
0000
1000
0001
0000
1000
0100
0000
,
1001
0000
0010
0100
0000
0001
1000
0000
,
1010
0000
0010
1000
0000
1000
0100
0010
,
0101
0000
1000
0100
0000
0100
1000
0000
,
0100
0000
0010
0001
0000
0010
1000
0000
,
1001
0000
1000
0001
0000
1000
0100
0000
,
1100
0000
0001
0010
0000
0010
0001
1000
,
1001
0000
0100
0001
0000
0100
0010
0000
,
1100
0000
0100
0001
0000
0100
0001
0000
,
0011
0000
0001
1000
0000
0100
0010
0000
,
0011
0000
0001
0100
0000
0010
0100
0010
,
1100
0000
0010
0001
0000
0010
1000
0000
,
0101
0000
0010
1000
0000
0100
0001
0000
,
1010
0000
0100
0010
0000
1000
0001
0000
,
0101
0000
0100
0001
0000
1000
0001
0010
,
0011
0000
0010
1000
0000
0001
0100
0000
,
1100
0000
0001
1000
0000
1000
0010
0000
,
0101
0000
0100
0001
0000
0100
0010
0000
,
1100
0000
0001
1000
0000
1000
0010
0100
,
0011
0000
0100
0001
0000
0010
1000
0000
,
1100
0000
0010
1000
0000
0100
0001
0000
,
1001
0000
0010
0100
0000
0001
1000
0000
,
1010
0000
0010
0001
0000
1000
0100
0010
,
0101
0000
1000
0100
0000
0100
1000
0000
,
1100
0000
0010
0001
0000
0010
1000
0000
,
1001
0000
1000
0001
0000
1000
0010
0000
,
1100
0000
0001
0010
0000
0010
1000
0100
,
0011
0000
1000
0010
0100
1000
0010
0100
,
1000
0010
0100
0001
0010
1000
0010
1000
,
0100
0010
0001
0010
0001
0010
0100
0010
,
1010
0100
0011
0010
1001
0100
0011
1000
,
2002
0000
0000
0000
,
3113
0000
0000
0000
;

//---------------dance-single - Copied from Copied f----------------
#NOTES:
     dance-single:
     Copied from Copied f:
     Medium:
     8:
     0.583,0.655,0.017,0.106,0.008,1419.000,6.000,38.000,28.000,1.000:
0000
0100
0010
0000
0100
0010
0000
0000
,
0000
0100
0010
0000
0100
0010
0000
0000
,
0000
0010
1000
0000
0010
0001
0000
1000
,
0100
0010
0001
0000
0010
0001
0000
0000
,
0000
0100
0010
0000
0001
0010
0000
0000
,
0000
0100
0001
0000
0001
1000
0000
0000
,
0020
2030
3200
0320
,
0031
1000
0100
0000
0010
0100
0000
0000
,
0000
0010
0100
0000
0001
1000
0000
0000
,
0000
1000
0010
0000
0001
0100
0000
0000
,
0000
0100
1000
0000
0100
1000
0000
0100
,
1000
0010
0001
0000
1000
0010
0000
0000
,
0000
1000
0001
0000
0100
0010
0000
0000
,
0000
0010
0100
0000
0001
1000
0000
0000
,
0020
0230
2300
3200
,
0310
0001
0100
0000
1000
0010
0000
0000
,
0000
0001
1000
0000
0100
0010
0000
0000
,
0000
0100
0010
0000
0001
1000
0000
0000
,
0010
1000
0100
0000
0100
1000
0000
0010
,
0001
0100
1000
0000
0100
0010
0000
0000
,
0000
0010
0100
0000
1000
0100
0000
0000
,
0000
0100
0010
0000
1000
0001
0000
0000
,
2000
3200
2300
3020
,
0031
0100
1000
0000
0100
0010
0000
0000
,
0000
0010
1000
0000
0001
0100
0000
0000
,
0000
1000
0001
0000
0100
0010
0000
0000
,
0010
0100
0000
0001
0100
0000
0000
0100
,
0010
1000
0100
0000
0001
0100
0000
0000
,
0000
1000
0001
0000
0100
0010
0000
0000
,
0000
0001
1000
0000
0100
0001
0000
0000
,
0020
0032
0023
0230
,
0310
1000
0010
0000
0010
1000
0100
0000
,
1000
0010
1000
0000
0010
1000
0010
0000
,
0001
0010
1000
0000
0100
1000
0001
0000
,
0010
1000
0001
0000
1000
0010
0100
0000
,
0001
0010
1000
0000
0010
0001
1000
0000
,
0001
0100
0010
0000
0100
0010
1000
0000
,
1000
0010
0100
0000
1000
0010
1000
0000
,
0001
0100
0010
0000
0010
0100
0010
0000
,
0010
0100
0001
0000
0010
1000
0001
0000
,
0010
1000
0010
0000
0010
1000
0001
0000
,
0100
0001
0010
0000
0100
0010
0001
0000
,
0100
0001
0010
0000
1000
0010
0001
0000
,
0001
0100
0001
0000
0100
1000
0001
0000
,
0001
0010
0100
0000
0100
1000
0001
0000
,
1000
0100
0010
0000
0010
0100
0001
0000
,
0100
0010
0100
0000
1000
0100
0001
0000
,
1000
0100
0010
0000
0010
1000
0001
0000
,
0100
1000
0010
0000
0100
0001
1000
0000
,
0010
0100
0001
0000
0100
0010
0100
0000
,
0100
0001
1000
0000
1000
0100
0001
0000
,
1000
0010
0001
0000
0100
0010
1000
0000
,
1000
0010
0100
0000
0010
0001
1000
0000
,
1000
0010
1000
0000
0010
0001
0010
0000
,
0100
0001
0010
0000
1000
0001
0010
0000
,
1000
0010
1000
0000
0010
0100
1000
0000
,
0100
1000
0100
0000
0010
0001
1000
0000
,
0100
0001
0010
0000
0010
0100
0010
0000
,
0100
0001
0100
0000
0001
0100
0001
0000
,
1000
0001
1000
0000
0010
1000
0100
0000
,
1000
0001
0010
0000
0100
0010
0001
0000
,
0010
0001
0100
0000
0010
0001
0010
0000
,
0100
0010
0100
0000
0001
0100
0010
0000
,
0100
0000
0000
0100
1000
0100
0000
1000
,
0000
0001
0000
0100
0010
0000
1000
0000
,
0001
0000
0000
0100
0001
1000
0000
1000
,
0000
0001
0000
1000
0100
0000
0010
0000
,
0001
0000
0000
1000
0001
0010
0000
0100
,
0000
0010
0000
0100
1000
0000
0100
0000
,
0010
0000
0000
0100
0010
0100
0000
1000
,
0000
0010
0000
0001
0100
0000
1000
0000
,
0001
0000
0000
1000
0010
0001
0000
0001
,
0000
0100
0000
1000
0010
0000
0001
0000
,
1000
0000
0000
1000
0001
0100
0000
1000
,
0000
0010
0000
1000
0001
0000
1000
0000
,
0100
0000
0000
0100
1000
0100
0000
0001
,
0000
0100
0000
1000
0001
0000
1000
0000
,
0010
0000
0000
0100
0010
0100
0000
0001
,
0000
1000
0000
0010
0000
0010
1001
0010
,
1001
0000
0000
1000
0010
1000
0000
0001
,
0000
1000
0000
0010
1000
0000
0100
0000
,
0001
0000
0000
0001
1000
0100
0000
1000
,
0000
0010
0000
1000
0001
0000
0010
0000
,
1000
0000
0000
1000
0001
0010
0000
0001
,
0000
0100
0000
1000
0010
0000
0001
0000
,
0100
0000
0000
0100
0001
0010
0000
0100
,
0000
0010
0000
0100
0001
0000
0010
0000
,
0100
0000
0000
1000
0100
0001
0000
1000
,
0000
0100
0000
0001
0100
0000
0010
0000
,
0100
0000
0000
1000
0001
0010
0000
0100
,
0000
0001
0000
1000
0100
0000
1000
0000
,
0001
0000
0000
1000
0010
1000
0000
0010
,
0000
1000
0000
0100
0001
0000
0001
0000
,
1000
0000
0000
1000
0010
1000
0000
0010
,
0000
1000
0000
0100
0010
0000
1000
0000
,
0001
0010
0001
0000
0010
0100
0001
0000
,
0010
1000
0010
0000
0010
0001
1000
0000
,
0100
0001
0010
0000
0100
1000
0001
0000
,
1000
0010
0001
0000
0100
1000
0001
0000
,
0001
0010
0001
0000
0001
0100
1000
0000
,
1000
0001
1000
0000
0100
0010
0001
0000
,
0100
0001
1000
0000
0100
0001
0010
0000
,
0001
0100
1000
0000
1000
0100
0010
0000
,
1000
0010
0001
0000
0100
0001
0010
0000
,
0001
0100
0001
0000
0010
0001
1000
0000
,
0010
1000
0010
0000
0010
1000
0001
0000
,
1000
0001
1000
0000
1001
0010
0100
0000
,
0010
0100
0001
0000
0100
0010
0001
0000
,
0100
0001
0010
0000
0010
0001
1000
0000
,
0100
0010
1000
0000
0001
0010
0100
0000
,
0100
1000
0001
0000
0001
0010
0100
0000
,
0001
0220
0000
0000
0000
0000
0000
0000
,
1330
0010
1000
0010
,
0100
0010
0100
0010
0100
0010
0100
0010
,
0001
1000
0001
1000
0001
1000
0001
1000
,
0010
0000
0000
1000
0000
0000
0010
0000
,
0000
0002
0000
0003
,
0100
0000
0000
0001
0000
0000
1000
0000
,
0000
0200
0000
0300
,
1000
0000
0000
0001
0000
0000
1000
0000
,
0000
0020
0000
0030
,
0100
0000
0000
0010
0000
0000
1000
0000
,
0000
0020
0000
0030
,
0010
1000
0100
0000
0100
0010
1000
0000
,
0100
0001
1000
0000
0001
0100
0010
0000
,
0010
0100
0001
0000
1000
0001
0100
0000
,
1000
0010
0001
0000
0010
0001
0100
0000
,
1000
0001
0100
0000
0100
1000
0001
0000
,
0100
1000
0001
0000
0100
1000
0001
0000
,
0010
1000
0100
0000
0100
0010
1000
0000
,
0100
1000
0001
0000
0100
1000
0001
0000
,
0010
0100
0010
0000
0010
0100
0010
0000
,
1000
0100
0001
0000
0001
1000
0100
0000
,
0010
1000
0001
0000
1000
0010
0001
0000
,
0100
1000
0010
0000
0100
0010
1000
0000
,
0010
0100
0001
0000
0001
1000
0100
0000
,
1000
0100
0001
0000
0010
1000
0001
0000
,
0010
1000
0100
0000
0100
0010
1000
0000
,
0100
0001
0100
0000
0100
0010
0001
0000
,
0010
0100
0001
0000
1000
0001
0100
0000
,
0100
1000
0001
0000
0010
0100
1000
0000
,
0001
0100
0010
0000
0010
1000
0100
0000
,
0100
1000
0010
0000
1000
0100
0010
0000
,
0100
0001
0100
0000
0100
0010
1000
0000
,
1000
0010
0100
0000
0100
1000
0100
0000
,
1000
0001
1000
0001
1000
0001
1000
0001
,
1000
0001
1000
0001
1000
0001
0010
0001
,
1000
0000
0000
0010
1000
0001
0000
1000
,
0000
0001
0000
0010
1000
0000
0001
0000
,
0100
0000
0000
0100
1000
0100
0000
0010
,
0000
0100
0000
0001
0010
0000
0100
0000
,
0001
0000
0000
0010
1000
0010
0000
0100
,
0000
0010
0000
0100
0001
0000
0010
0000
,
0100
0000
0000
1000
0010
0001
0000
0100
,
0000
0001
0000
0010
0001
0000
0010
0000
,
0100
0000
0000
1000
0001
0010
0000
0100
,
0000
1000
0000
0010
0100
0000
0010
0000
,
1000
0000
0000
0001
0100
1000
0000
0010
,
0000
0100
0000
0001
0100
0000
0001
0000
,
1000
0000
0000
0010
0100
0010
0000
0100
,
0000
0010
0000
1000
0100
0000
0010
0000
,
0100
0000
0000
0100
0010
0001
0000
1000
,
0000
0100
0000
1000
0010
0000
0100
0000
,
1000
0000
0000
1000
0010
0001
0000
1000
,
0000
0100
0000
0001
1000
0000
0001
0000
,
0100
0000
0000
1000
0001
1000
0000
0010
,
0000
0001
0000
0100
0001
0000
0100
0000
,
1000
0000
0000
0100
0001
0010
0000
0100
,
0000
0001
0000
1000
0010
0000
1000
0000
,
0010
0000
0000
0010
1000
0001
0000
1000
,
0000
0001
0000
0001
1000
0000
1000
0000
,
0001
0000
0000
0001
1000
0100
0000
0001
,
0000
0100
0000
0001
0100
0000
1000
0000
,
0001
0000
0000
0100
0010
0100
0000
0010
,
0000
0100
0000
1000
0001
0000
0010
0000
,
0100
0000
0000
1000
0001
1000
0000
0010
,
0000
0100
0000
1000
0001
0000
1000
0000
,
0001
0000
0000
0010
1000
0010
0000
1000
,
0000
0001
0000
1000
0010
0000
0100
0000
,
1000
0100
0010
0000
0010
0001
0100
0000
,
0100
0010
0100
0000
0001
0010
0100
0000
,
0010
0100
0010
0000
0001
1000
0010
0000
,
0001
0100
1000
0000
0100
0001
1000
0000
,
0100
0001
0100
0000
0100
1000
0100
0000
,
0100
0001
0100
0000
0100
0010
0100
0000
,
0010
0100
1000
0000
0100
0010
0001
0000
,
0100
0010
0100
0000
0100
0010
0100
0000
,
1000
0100
0010
0000
0001
0100
0010
0000
,
1000
0001
0100
0000
0100
0001
0100
0000
,
1000
0001
0100
0000
0100
0001
1000
0000
,
0010
0001
0100
0000
0100
0001
0100
0000
,
0100
1000
0001
0000
0010
0100
0010
0000
,
1000
0001
0100
0000
0100
1000
0001
0000
,
0010
0001
0010
0000
0010
0100
1000
0000
,
0100
0010
0100
0000
0010
0100
1000
0000
,
0010
0000
0000
0100
0001
0100
0000
0001
,
0000
0100
0000
1000
0001
0000
1000
0000
,
0001
0000
0000
0100
0010
1000
0000
0100
,
0000
0010
0000
1000
0001
0000
0010
0000
,
1000
0000
0000
1000
0001
1000
0000
0001
,
0000
1000
0000
0001
0010
0000
0001
0000
,
1000
0000
0000
0001
0100
1000
0000
0001
,
0000
0010
0000
0001
1000
0000
0100
0000
,
0010
0000
0000
0001
0010
0001
0000
1000
,
0000
0100
0000
0001
1000
0000
0001
0000
,
0100
0000
0000
1000
0001
0100
0000
0010
,
0000
0001
0000
0100
0010
0000
1000
0000
,
0010
0000
0000
0100
0010
0100
0000
0001
,
0000
0100
0000
1000
0100
0000
1000
0000
,
0100
0000
0000
1000
0001
0010
0000
1000
,
0000
0010
0000
1000
0100
0000
0010
0000
,
1000
0100
0010
0000
0100
1000
0000
0010
,
0000
1000
0001
0000
0001
0010
0000
0010
,
0000
0001
0010
0000
0001
0010
0000
0001
,
0000
0001
0010
1000
0100
0010
0001
0100
,
0010
0100
1000
0000
0100
1000
0000
1000
,
0000
0001
1000
0000
0010
0100
0000
0010
,
0000
1000
0010
0000
1000
0010
0000
1000
,
0002
0203
0320
0032
,
1003
0100
0010
0000
0001
0100
0000
0001
,
0000
0100
1000
0000
0010
0100
0000
1000
,
0000
0010
0001
0000
1000
0001
0000
0100
,
0000
1000
0010
1000
0100
1000
0001
0010
,
0001
1000
0100
0000
1000
0001
0000
1000
,
0000
0001
0010
0000
1000
0100
0000
0010
,
0000
0001
1000
0000
0100
0001
0000
0100
,
0002
0023
0230
0320
,
0031
0100
1000
0000
0010
0001
0000
0100
,
0000
1000
0001
0000
0100
1000
0000
0100
,
0000
0010
0100
0000
1000
0001
0000
1000
,
0100
1000
0100
0010
1000
0001
0100
0010
,
1000
0001
0010
0000
0100
0001
0000
0100
,
0000
0001
1000
0000
0100
0001
0000
1000
,
0000
0100
0001
0000
0100
0001
0000
1000
,
0200
0320
0230
0302
,
1003
0010
0001
0000
0100
1000
0000
0001
,
0000
0100
1000
0000
0100
0010
0000
0001
,
0000
0100
0001
0000
0001
0010
0000
1000
,
0100
0001
1000
0001
0100
1000
0000
0010
,
0001
1000
0100
0000
0010
0001
0000
0010
,
0000
0100
1000
0000
0001
0100
0000
0010
,
0000
0100
1000
0000
0010
0001
0000
1000
,
0002
2003
3002
0023
,
1030
0000
0010
1000
0000
0100
0010
0000
,
0010
0000
1000
0001
0000
1000
0100
0000
,
1001
0000
0010
0100
0000
0001
1000
0000
,
0010
0000
0100
1000
0000
1000
0100
0010
,
0001
0000
1000
0100
0000
0100
1000
0000
,
0100
0000
0010
0001
0000
0010
1000
0000
,
0001
0000
1000
0001
0000
1000
0100
0000
,
1000
0000
0001
0010
0000
0100
0001
0100
,
0001
0000
0100
0001
0000
0100
0010
0000
,
1000
0000
0100
0001
0000
0100
0001
0000
,
0010
0000
0001
1000
0000
0100
0010
0000
,
0001
0000
0001
0100
0000
0010
0100
0010
,
0100
0000
0010
0001
0000
0010
1000
0000
,
0001
0000
0010
1000
0000
0100
0001
0000
,
1000
0000
0100
0010
0000
1000
0001
0000
,
0100
0000
0010
0001
0000
1000
0001
0010
,
0001
0000
0010
1000
0000
0001
0100
0000
,
1000
0000
0001
1000
0000
0100
0010
0000
,
0100
0000
0100
0001
0000
0100
0010
0000
,
1000
0000
0001
1000
0000
0100
0010
0100
,
0001
0000
0100
0001
0000
0010
1000
0000
,
0100
0000
0010
1000
0000
0100
0001
0000
,
1000
0000
0010
0100
0000
0001
1000
0000
,
0010
0000
0010
0001
0000
1000
0100
0010
,
0001
0000
1000
0100
0000
0100
1000
0000
,
0100
0000
0010
0001
0000
0010
1000
0000
,
0001
0000
1000
0001
0000
1000
0010
0000
,
0100
0000
0001
0010
0000
0100
1000
0100
,
0001
0000
1000
0010
0100
1000
0010
0100
,
1000
0010
0100
0001
0010
1000
0010
1000
,
0100
0010
0001
0010
0001
0010
0100
0010
,
1000
0100
0001
0010
0001
0100
0010
0100
,
1010
0000
0000
0000
0000
0000
0000
0000
0000
0000
0000
0000
0000
0000
0000
0000
0000
0000
0000
0000
0000
0000
0000
0000
0000
0000
0000
0000
0000
0000
0000
0000
0000
0000
0000
0000
0000
0000
0000
0000
0000
0000
0000
0000
0000
0000
0000
0000
0000
0000
0000
0000
0000
0000
0000
0000
0000
0000
MMMM
MMMM
MMMM
MMMM
MMMM
MMMM
,
MMMM
0000
0000
0000
;
