#TITLE:PARANOiA INFINiTY MAX;
#SUBTITLE:;
#ARTIST:XX ReviseD;
#TITLETRANSLIT:;
#SUBTITLETRANSLIT:;
#ARTISTTRANSLIT:;
#CREDIT:;
#BANNER:PARANOiA INFINiTY MAX.png;
#BACKGROUND:PARANOiA INFINiTY MAX bg.png;
#LYRICSPATH:;
#CDTITLE:cdtitle.png;
#MUSIC:PARANOiA INFINiTY MAX.ogg;
#OFFSET:0.000;
#SAMPLESTART:96.240;
#SAMPLELENGTH:9.500;
#SELECTABLE:YES;
#DISPLAYBPM:*;
#BPMS:0.000=80.000,36.000=200.000,94.000=400.000,155.000=79.999,187.000=179.999,219.000=89.999,219.500=44.999,220.000=250.000,236.000=400.000;
#STOPS:50.000=0.300
,63.000=0.300
,72.000=0.300
,85.000=0.300
,94.000=0.300
,110.000=0.140
,119.000=0.160
,132.000=0.140
,147.000=0.160
,154.000=0.140
,220.000=0.700
,227.000=0.240
,300.000=0.120
,300.250=0.100
,300.500=0.240
,301.000=0.120
,301.250=0.100
,301.500=0.240
,302.000=0.120
,302.250=0.100
,302.500=0.240
,303.000=0.120
,303.250=0.100
,303.500=0.200
;
#BGCHANGES:;
// cache tags:
#FIRSTBEAT:8.000;
#LASTBEAT:328.000;
#SONGFILENAME:Songs/toune 3/PARANOiA INFINiTY MAX/PARANOiA INFINiTY MAX.sm;
#HASMUSIC:1;
#HASBANNER:1;
#MUSICLENGTH:113.737;
// end cache tags

//---------------dance-single - ----------------
#NOTES:
     dance-single:
     :
     Easy:
     6:
     0.426,0.613,0.457,0.053,0.000,281.000,52.000,6.000,0.000,0.000:
0000
0000
0000
0000
,
0000
0000
0000
0000
,
0110
0000
1000
0000
0001
0001
1000
0000
,
0110
0000
0001
0000
1000
1000
0001
0000
,
1100
0000
0010
0000
0001
0001
0100
0001
,
0011
0000
0100
0000
1000
1000
0001
1000
,
1010
0000
0100
0000
0001
0001
1000
0001
,
0101
0000
0010
0000
1000
1000
0100
1000
,
2002
0000
0000
3003
,
0010
0010
0010
0000
,
0100
0100
0100
0000
,
0001
0001
0001
1000
,
0100
0010
0100
1000
,
1000
1000
0001
0100
,
0010
0100
0000
0110
,
1000
0100
1000
0001
,
0010
0010
0110
0000
,
0011
1000
1000
0001
,
0110
1000
1000
1000
,
0100
0001
0001
0001
,
0100
0010
0010
0010
,
0001
1001
0100
0000
,
0110
1000
0001
1000
,
0100
0010
0110
0000
,
1000
0000
1000
0000
,
1000
0100
1000
0000
,
0001
0000
0001
0000
,
1000
0000
1010
0100
,
0000
0100
0000
0010
,
0000
1000
0000
1001
,
0100
0000
0010
0000
,
0010
0000
1000
0001
,
1000
0000
0001
0000
,
1001
0000
0000
0110
,
0000
1000
0000
0011
,
0000
0100
0000
1010
,
0000
0100
0000
1001
,
0100
0000
0010
0000
,
0100
0000
0010
0000
0100
0000
0001
0001
,
0001
0100
1000
1000
1000
0000
0100
0100
,
0100
0001
0010
0010
0010
0000
1000
1000
,
1000
0001
0100
0100
0100
0000
0001
0001
,
0001
1000
0010
0010
0010
0000
0001
0001
,
0001
0100
0010
1000
1010
0000
0100
0100
,
0100
0001
0100
0010
0011
0000
1000
1000
,
1000
0010
0100
0001
0101
0000
0010
0010
,
0010
0100
0001
1000
0001
0010
0100
0000
,
0100
0000
1000
0000
1001
0000
0100
0010
,
0100
0010
1010
0001
,
0001
0000
1000
0000
1100
0000
0010
0001
,
0010
0001
1001
0100
,
0100
0000
0010
0000
1010
0000
0100
0001
,
0100
0001
0011
0110
,
1000
1001
0100
1001
,
0010
0101
1000
0220
,
0330
0000
1000
0000
0000
0001
0000
0000
,
0100
0000
0000
0010
0000
0000
1001
0000
,
0100
0000
0000
0001
0000
0000
0100
0000
,
0000
1000
0000
0000
0010
0000
0000
0000
,
0101
0000
1000
0000
,
0010
0100
0010
0000
,
1010
0000
0001
0000
,
1000
0100
1000
0000
,
0110
0000
0001
0000
,
1000
0100
1000
0000
,
0010
0000
0011
0000
,
1100
0000
0000
0000
,
0101
0000
0010
0000
,
1000
0001
1000
0000
,
0011
0000
0001
0000
,
0100
0010
0100
0000
,
1001
0000
0100
0000
,
0010
0001
0010
0000
,
1100
0000
0010
0000
,
0110
0000
0101
0000
,
1001
1100
0011
0110
,
0001
0100
0001
0000
,
0100
0010
0100
0000
,
0010
1000
0010
0100
,
0001
1000
0100
0000
,
2002
0000
0000
0000
,
0000
0000
0000
0000
,
3003
0000
0000
0000
;

//---------------dance-single - ----------------
#NOTES:
     dance-single:
     :
     Medium:
     9:
     0.565,0.829,0.317,0.053,0.141,408.000,36.000,6.000,0.000,0.000:
0000
0000
0000
0000
,
0000
0000
0000
0000
,
0010
0010
0000
0100
0000
0000
0001
0000
1000
0000
1000
0000
0100
0000
0010
0000
,
0100
0100
0000
1000
0000
0000
0010
0000
0100
0000
0100
0000
1000
0000
0100
0000
,
0001
0001
0000
1000
0000
0000
0100
0000
0010
0000
0010
0000
1000
0000
0010
0000
,
0001
0001
0000
0100
0000
0000
0010
0000
1000
0000
1000
0000
0001
0000
0100
0000
,
0010
0010
0000
1000
0000
0000
0100
0000
0001
0000
0001
0000
0100
0000
0010
0000
,
0001
0001
0000
1000
0000
0000
0001
0000
0010
0100
0010
0001
0100
0000
0010
0000
,
2002
0000
0000
3003
,
0001
0000
0100
0000
0001
0100
0001
0100
,
0010
0000
1000
0000
0010
0100
0010
1000
,
0001
0000
0010
0000
0001
0010
0001
1000
,
0100
0010
0110
1000
,
0010
0000
1000
0001
1000
0000
0001
0100
,
0001
0000
1000
0000
1100
0000
0001
0100
,
0010
0000
1000
0100
0010
0001
0100
0000
,
0010
0000
1000
0000
0100
0010
0100
0000
,
1000
0000
0010
0000
0001
0010
1000
0010
,
0100
0001
1010
0100
,
0011
0000
1000
0000
0101
0000
0010
1000
,
0001
0100
0010
0000
1010
0000
0001
0000
,
0101
1100
0010
1001
,
0010
0100
0001
0000
1000
0100
0001
0000
,
0100
1000
0010
0100
0001
0000
0000
0000
,
1000
0100
1000
0000
,
0100
0001
0100
0000
,
0001
0010
0001
0000
,
0010
1000
0010
1100
,
0000
0011
0000
1010
,
0000
0101
0000
1001
,
0010
0100
0010
1000
,
0010
0000
0100
0001
,
1000
0100
0001
0100
,
1000
0001
0100
0001
,
0100
0010
0000
1010
,
0000
0101
0000
1001
,
0000
0100
0010
0001
,
1000
0010
0001
0010
,
1000
0000
0100
0000
0110
0000
1001
0001
,
0100
0010
0100
0001
0010
0100
0011
0001
,
1000
0010
0001
0010
1000
0001
0110
0100
,
0010
1000
0100
0001
0100
1000
0011
0001
,
0100
0000
0010
0000
0001
0000
0010
0000
1000
0000
0100
0000
1001
0000
0001
0100
,
0001
0000
1000
0000
0100
0000
0100
0000
0010
0001
0100
0000
1001
0000
1000
0100
,
1000
0000
0010
0000
0100
0000
0100
0000
0001
0010
0100
0000
1010
0000
0100
0010
,
0100
0000
0001
0000
1000
0000
1000
0000
0100
0010
0001
0000
0100
0010
0100
0001
,
1000
0100
0001
0100
1000
0010
0001
0010
0100
0001
1000
0000
0110
0000
0000
0000
,
0001
0000
0000
0000
1000
0100
0000
0000
1100
0000
0000
0000
0011
0000
0000
0000
,
0100
0000
0000
0000
0010
0100
0000
0000
0101
0000
0000
0000
1000
0000
0001
0000
,
0100
0000
0000
0000
0010
1000
0000
0000
0001
0000
0000
0000
0010
0000
0100
0000
,
0010
0000
0001
0000
1000
0010
0000
0000
0100
0000
0010
0000
1000
0000
0100
0000
,
0001
0100
1000
0100
0001
0000
0001
0010
,
1000
0010
0001
0010
0100
0000
1000
1000
,
0010
0010
0100
0100
0001
0001
0010
0100
,
0010
0000
0001
0000
0100
0010
0000
0000
1000
0000
0010
0000
0220
0000
0000
0000
,
0330
0000
1000
0001
0000
0001
0100
0000
,
0100
0010
0000
0010
1000
0000
1001
0000
,
0100
0010
0000
0010
0100
0000
0100
1000
,
0000
1000
0010
0000
0110
0000
0000
0000
,
0001
0010
0001
0000
,
1000
0100
1000
0100
,
0010
0001
0100
0000
,
0010
1000
0010
0100
,
0001
1000
0100
0000
,
0010
0001
0010
1000
,
0010
0100
0001
0100
,
1001
0000
0000
0000
,
0110
0000
0001
0100
,
1000
0100
0001
1000
,
0010
0100
0001
1000
,
0100
0010
0001
0000
,
0100
0010
0100
0001
,
1000
0100
0010
0001
,
0100
1000
0100
0010
,
1000
0100
0001
0100
,
1000
1000
0001
0001
0010
0010
0100
0100
,
1000
0010
0100
0001
,
0010
1000
0010
0001
,
0100
0010
0001
1000
,
0100
0001
0010
0100
,
2002
0000
0000
0000
,
0000
0000
0000
0000
,
3003
0000
0000
0000
;

//---------------dance-single - ----------------
#NOTES:
     dance-single:
     :
     Hard:
     11:
     0.844,1.000,0.343,0.053,0.532,627.000,39.000,6.000,0.000,0.000:
0000
0000
0000
0000
,
0000
0000
0000
0000
,
1000
1000
0010
0100
0101
0000
1000
0100
0000
0001
0100
0010
0110
0000
1001
0000
,
0010
0010
0100
1000
1010
0000
0001
0100
0000
0010
0010
1000
0010
0100
0001
0000
,
0010
0010
0001
1000
1100
0000
0001
0100
0000
0010
1000
0001
0101
0000
0110
0000
,
0001
0001
0010
0100
0110
0000
1000
0100
0000
0010
0010
0100
1000
0010
0100
0000
,
0001
0001
1000
0100
1100
0000
0001
0100
0000
0010
1000
0100
0110
0000
0101
0000
,
0010
0010
0001
1000
1100
0000
0010
0100
1000
0100
0010
1000
0100
0000
0010
0000
,
2002
0000
0000
0000
0000
0000
0000
3003
,
1000
0010
0100
0010
1000
0001
0100
0010
,
1000
0001
0010
0100
0010
0001
1000
0100
,
0001
0100
1000
0010
0100
0001
0010
1000
,
0010
0000
0001
0000
0100
0000
0010
1000
0010
0000
1000
0000
0100
0000
0001
0000
,
0100
0000
0010
0000
0001
0000
1000
0000
0010
0000
0100
0001
0100
0000
0001
0000
,
1000
0000
0100
0000
0010
0000
1000
0000
0010
0000
0001
0100
0001
0000
1000
0000
,
0010
0100
1000
0100
0001
0010
1000
1000
,
0100
0001
0100
1000
0010
0100
1000
0100
,
0001
0000
0010
0000
0100
0000
1000
0010
1000
0000
0001
0000
0010
0000
0001
0100
,
0001
1000
0010
0100
0010
0001
0010
0010
,
0001
0000
0010
0100
0010
0000
0001
0000
1000
0000
0010
0000
0010
0000
0100
0000
,
1000
0001
0100
0010
0010
0001
0100
0010
,
1000
0000
0001
0100
0001
0000
0010
0000
0100
0000
1000
0000
0010
0000
0001
0000
,
1000
0000
0100
0000
0010
0000
1000
0001
1000
0000
0100
0000
0010
0000
0001
0100
,
0001
0000
1000
0000
0010
0000
0100
0001
0100
0000
0000
0000
1000
0000
0000
0000
,
0100
0010
0001
0100
,
1000
0000
0100
0000
0001
0000
0010
0100
,
0010
0000
0001
0000
0100
0000
0010
1000
,
0010
0100
0001
0010
,
0100
0000
0010
0001
0010
0000
0001
0000
,
0100
0000
0010
1000
0010
0000
0110
0000
,
1000
1000
0100
0001
,
0100
0010
0011
0001
,
0100
0010
0100
0001
,
1100
0110
1000
0010
,
0100
0000
0001
0000
0010
0100
0010
0000
,
0100
0000
1000
0000
0010
0100
0010
0000
,
0100
0001
0010
1000
,
1000
0000
0100
0000
0010
0000
0001
0100
,
0001
0000
0100
0000
0010
0000
0000
0000
1000
0000
0000
0000
1001
0001
0100
0100
,
0010
0010
1000
1000
0100
0010
0100
1000
0010
0100
0101
0000
1000
0100
0100
0010
,
0001
1000
0001
0001
0010
0100
1000
0001
0010
0100
0101
0000
0100
0100
0010
0001
,
0010
1000
0100
0010
0010
0010
0100
1000
0001
0100
0110
0000
1000
1000
1000
0100
,
0010
0010
0010
0100
0001
0001
0001
0100
1000
0001
0011
0000
0001
0100
0100
1000
,
0001
0010
0010
1000
0001
0100
0100
1000
0001
0010
0011
0000
1000
0100
0100
0001
,
1000
0010
0010
0001
1000
0100
0100
0001
1000
0010
1010
0000
0001
0100
0100
0100
,
0010
0100
0100
0100
1000
0100
0100
0100
0010
1000
1100
0000
0010
0001
0010
1000
,
0001
0100
1000
0010
0100
0010
0001
1000
0100
0001
0010
0100
1000
0000
1000
0000
,
0001
0100
0001
0000
1000
0100
0000
0000
1001
0000
0000
0000
0010
0000
0010
0000
,
0001
0100
0001
0000
0100
0010
0000
0000
1010
0000
0100
0000
0001
0000
0001
0000
,
1000
0100
1000
0000
0001
0010
0000
0000
0101
0000
0000
0000
0010
0000
0010
0000
,
1000
0100
1000
0000
0001
0010
0000
0000
0101
0000
1000
0000
0010
0000
0010
0000
,
0100
1000
0100
0000
0001
0010
0000
0000
0110
0000
0000
0000
1000
0000
1000
0000
,
0100
0001
0100
0000
0010
0001
0000
0000
1001
0000
0010
0000
0100
0000
0100
0000
,
0010
1000
0010
0000
0100
0000
0100
0000
0001
0100
0001
0000
0010
0001
0010
0000
,
0001
0100
0001
0000
1000
0010
1000
0000
0010
0100
0010
0000
2002
0000
0000
0000
,
0000
3003
0000
0000
0000
0000
0000
0000
1000
0000
0000
0000
0000
0000
0000
0000
0010
0000
0000
0000
0000
0000
0000
0000
0100
0000
0000
0000
0000
0000
0000
0000
0010
0000
0000
0000
0000
0000
0000
0000
1000
0000
0000
0000
0000
0000
0000
0000
0001
0000
0000
0000
0000
0000
0000
0000
1000
0000
0000
0000
0000
0000
0000
0000
,
0100
0001
0100
0010
1000
0010
0110
0001
,
0100
0010
0001
0010
1000
0001
0100
0010
,
1000
0100
0001
0100
0110
0000
0000
0000
,
0001
0000
0100
0000
0010
1000
0010
0000
,
1000
0000
0100
0000
0010
0001
0010
0000
,
0100
0000
0001
0000
0100
1000
0100
0000
,
1000
0000
0010
0000
0100
1000
0100
0000
,
0001
0000
0010
0100
1000
0100
0010
0000
,
0001
0000
0100
0010
1000
0010
0100
0000
,
0001
0010
0001
0010
0100
1000
0100
1000
,
0001
0000
0000
0000
,
0100
0010
0100
0000
0001
0000
0010
0100
,
0010
1000
0010
0000
0001
0000
1000
0010
,
0100
0010
0001
0000
0010
0000
1000
0100
,
0010
0100
1000
0000
0001
0000
0010
0100
,
0001
0100
0010
0000
0001
0000
0100
0010
,
0100
1000
0100
0000
0010
0000
1000
0001
,
0010
0100
0010
0000
0001
0100
0001
0000
,
1000
0010
1000
0010
0100
0001
0100
0001
,
1000
0100
1100
0000
0001
0010
0011
0000
1000
0010
0110
0000
0001
0010
1100
0000
,
0010
0001
1000
0010
0100
0000
0001
0010
,
0100
1000
0001
0100
0010
0000
1000
0100
,
0010
0001
1000
0010
0100
0010
1000
0100
,
0010
0001
0100
0010
1000
0100
0010
0000
,
2002
0000
0000
0000
,
0000
0000
0000
0000
,
3003
0000
0000
0000
;

//---------------dance-double - ----------------
#NOTES:
     dance-double:
     :
     Easy:
     6:
     0.388,0.613,0.404,0.053,0.000,257.000,46.000,6.000,0.000,0.000:
00000000
00000000
00000000
00000000
,
00000000
00000000
00000000
00000000
,
00011000
00000000
00100000
00010000
00000000
01000000
00010000
00000000
,
00011000
00000000
00000010
00001000
00000000
00000100
00001000
00000000
,
00011000
00000000
01000000
00100000
00000000
00010000
00100000
00000000
,
00011000
00000000
00000100
00000010
00000000
00000100
00001000
00000000
,
00011000
00000000
00100000
01000000
00000000
00010000
00001000
00000000
,
00000110
00000000
00000001
00000100
00000000
00001000
00010000
00000000
,
20020000
00000000
00000000
30030000
,
10000000
10000000
10000000
00000000
,
00100000
00100000
00100000
00000000
,
00001000
00001000
00001000
00010000
,
00000100
00000010
00000100
00000001
,
00000001
00000001
00000100
00000010
,
00001000
00010000
00000000
01100000
,
10000000
01000000
10000000
00010000
,
00100000
00100000
00101000
00000000
,
00010100
00000000
00000010
00000001
,
00000110
00001000
00001000
00001000
,
00100000
00010000
00010000
00010000
,
00001000
00000010
00000010
00000010
,
00000100
00011000
01000000
00000000
,
01100000
10000000
00010000
10000000
,
01000000
00010000
00011000
00000000
,
00000010
00000000
00000010
00000000
,
00000010
00000000
00000001
00000000
,
00000100
00000000
00000100
00000000
,
00001000
00000000
00010000
00000100
,
00000000
00001000
00000000
00000100
,
00000000
00010000
00000000
00001000
,
00000000
00000000
01000000
00000000
,
01000000
00000000
00100000
00000000
,
00010000
00000000
00100000
00000000
,
10000000
00000000
00000000
00101000
,
00000000
00010000
00000000
00001100
,
00000000
00000010
00000000
00001001
,
00000000
00000100
00000000
00000110
,
00001000
00000000
00010000
00000000
,
00001000
00000000
00000000
00000000
00010000
00000000
00100000
00100000
,
00100000
00000000
10000000
10000000
10000000
00000000
01000000
01000000
,
01000000
00000000
00010000
00010000
00010000
00000000
00001000
00001000
,
00001000
00000000
00000100
00000100
00000100
00000000
00000001
00000001
,
00000001
00000000
00000010
00000010
00000010
00000000
00001000
00001000
,
00001000
01000000
00100000
01000000
00110000
00000000
01000000
01000000
,
01000000
00010000
01000000
00100000
00101000
00000000
00010000
00010000
,
00010000
00000100
00000010
00000001
00001010
00000000
00000001
00000001
,
00000001
00000100
00001000
00000100
00000010
00010000
00001000
00000000
,
00100000
00100000
10010000
01000000
,
01000000
00001000
00011000
00000010
,
00000010
00000001
00001100
00000010
,
00000010
00010000
00011000
01000000
,
01000000
00100000
10100000
01000000
,
01000000
00010000
00101000
00011000
,
00000100
00000110
00000001
00001010
,
00000100
00011000
01000000
20020000
,
30030000
00000000
00100000
00000000
00000000
00001000
00000000
00000000
,
00000100
00000000
00000000
00000010
00000000
00000000
00001000
00000000
,
00100000
00000000
00000000
01000000
00000000
00000000
00010000
00000000
,
00000000
00000100
00000000
00000000
00000010
00000000
00000000
00000000
,
00001001
00000000
00000100
00000000
,
00010000
00000000
00100000
00000000
,
01100000
00000000
10000000
00000000
,
00010000
00000000
00100000
00000000
,
01001000
00000000
00010000
00000000
,
00000100
00000000
00000010
00000000
,
00000100
00000000
00000011
00000000
,
00001100
00000000
00000000
00000000
,
00011000
00000000
00100000
00000000
,
01000000
00000000
00010000
00000000
,
11000000
00000000
00100000
00000000
,
00010000
00000000
00000100
00000000
,
00001001
00000000
00000010
00000000
,
00001000
00000000
00010000
00000000
,
01100000
00000000
10000000
00000000
,
01100000
00000000
00010000
00000000
,
00011000
00001001
00011000
10010000
,
00001000
00000000
00000100
00000000
,
00000010
00000001
00000010
00000000
,
00001000
00000000
00010000
00000000
,
00100000
10000000
01000000
00020000
,
00002000
00000000
00000000
00000000
,
00000000
00000000
00000000
00000000
,
00033000
00000000
00000000
00000000
;

//---------------dance-double - ----------------
#NOTES:
     dance-double:
     :
     Medium:
     9:
     0.515,0.685,0.413,0.053,0.066,357.000,47.000,6.000,0.000,0.000:
00000000
00000000
00000000
00000000
,
00000000
00000000
00000000
00000000
,
00011000
00000000
00000000
00000100
00000000
00000000
00000010
00000000
00000100
00000000
00001000
00000000
00010000
00000000
00100000
00000000
,
01010000
00000000
00000000
00100000
00000000
00000000
01000000
00000000
00100000
00000000
00010000
00000000
00001000
00000000
00000100
00000000
,
00001010
00000000
00000000
00000100
00000000
00000000
00000001
00000000
00000010
00000000
00001000
00000000
00010000
00000000
01000000
00000000
,
00110000
00000000
00000000
01000000
00000000
00000000
00100000
00000000
00010000
00000000
00001000
00000000
00000100
00000000
00000010
00000000
,
00001001
00000000
00000000
00000010
00000000
00000000
00000100
00000000
00000010
00000000
00001000
00000000
00010000
00000000
01000000
00000000
,
10010000
00000000
00000000
01010000
00000000
00000000
00100000
00000000
00001000
00000000
00010000
00000000
00000010
00000000
00000100
00000000
,
00022000
00000000
00000000
00033000
,
00100000
00100000
10000000
10000000
,
00010000
00000000
01000000
00000000
00100000
00010000
00100000
00000000
,
00001000
00000100
00000001
00000010
,
00000100
00001000
00000100
00001000
00000100
00000000
00010000
00000000
,
00001000
00000000
00100000
00001000
00010000
00000000
00000010
00000000
,
00001000
00000000
00000100
00010000
00001000
00000000
00000010
00000000
,
00001000
00000000
00010000
01000000
00100000
01000000
00010000
00000000
,
00001000
00010000
00100000
00010000
,
00001000
00000000
00000100
00000000
00000010
00000100
00000010
00001000
,
00000001
00000000
00000010
00000000
00000010
00000000
00001000
00010000
,
00001000
00000000
00010000
00000000
00010000
00000000
01000000
00100000
,
01000000
00000000
00100000
00001000
00010000
00000000
00000100
00010000
,
00001000
00011000
00000010
00000010
,
00000100
00010000
00000100
00000000
00001000
00000010
00000100
00000000
,
00001000
00100000
00001000
00010000
00000100
00000000
00000000
00000000
,
00010000
00000000
00011000
00000000
,
00100000
00000000
00010000
01000000
,
00100000
00000000
01000000
00000000
,
10000000
01000000
00010000
00100000
,
00001000
00010000
00000000
00000100
,
00000000
00000010
00000001
00000100
,
00000010
00000000
00000001
00000010
,
00001000
00000000
00000101
00000000
,
00001010
00000000
00010100
00000000
,
00101000
01100000
00000000
10010000
,
00000000
01000000
00100000
01000000
,
00000000
00010000
00100000
01000000
,
00000000
00010000
00000000
00011000
,
00000010
00000000
00000001
00000100
,
00000010
00000000
00001000
00000000
00000100
00000000
00010000
00010000
,
01000000
00000000
01000000
00000000
00010000
00000000
00010000
00000000
00001000
00000100
00000010
00000000
00001000
00000000
00001000
00000000
,
00000100
00000000
00000100
00000000
00010000
00000000
00010000
00000000
00001000
00100000
00010000
00000000
01000000
00000000
01000000
00000000
,
00010000
00000000
00010000
00000000
00001000
00000000
00001000
00000000
00000010
00000100
00000001
00000000
00000010
00000000
00000010
00000000
,
00000100
00000000
00000100
00000000
00001000
00000000
00001000
00000000
00010000
00100000
01000000
00000000
10000000
00000000
00100000
00000000
,
00010000
00000000
00100000
00000000
01000000
00000000
00001000
00000000
00010000
00000100
00000010
00000000
00000100
00000000
00000001
00000000
,
00000100
00000000
00001000
00000000
00000010
00000000
00000100
00000000
00001000
00010000
00000100
00000000
00010000
00000000
00001000
00000000
,
00100000
00000000
01000000
00000000
10000000
00000000
00100000
00000000
00010000
00100000
01000000
00000000
00010000
00000000
00100000
00000000
,
00001000
00000000
00100000
00000000
00010000
00000000
01000000
00000000
00001000
00010000
00000100
00010000
00001000
00000000
00000000
00000000
,
00001000
00010000
00011000
00000100
,
00000010
00000001
00001001
00000100
,
00000010
00010000
00001100
00010000
,
00100000
00001000
01010000
00100000
,
10000000
01000000
00110000
00001000
,
00000100
00000001
00001010
00000100
,
00001100
00010000
00110000
11000000
,
00101000
00010100
00001010
00000202
,
00000303
00010000
00001000
01000000
,
00100000
10000000
01000000
01010000
,
00001000
00000010
00000001
00000100
,
00000010
00001000
00011000
00000000
,
01100000
00000000
00001000
00010000
,
00000100
00000010
00000011
00000000
,
00001100
00000000
00000010
00010000
,
00000100
00001000
00001010
00000000
,
00010100
00000000
00001000
00100000
,
00010000
01000000
01001000
00000000
,
00100000
10000000
01000000
00010000
,
00011000
00000000
00000000
00000000
,
00001001
00000000
00000100
00010000
,
00001000
01000000
00100000
10000000
,
01010000
00000000
00100000
10000000
,
01000000
00010000
00001000
00000010
,
00011000
00000000
00000001
00000100
,
00001000
00010000
01000000
01000000
,
00100000
00010000
00001000
00000100
,
00000010
00001000
00010000
00100000
,
01000000
10100000
00010000
01001000
00010000
00001010
00000100
00000011
,
00000100
00001000
00010000
00100000
,
01000000
00010000
01000000
10000000
,
00100000
01000000
00010000
00001000
,
00000010
00000100
00000001
00001000
,
00022000
00000000
00000000
00000000
,
00000000
00000000
00000000
00000000
,
00033000
00000000
00000000
00000000
;

//---------------dance-double - ----------------
#NOTES:
     dance-double:
     :
     Hard:
     11:
     0.769,1.000,0.229,0.053,0.470,580.000,26.000,6.000,0.000,0.000:
00000000
00000000
00000000
00000000
,
00000000
00000000
00000000
00000000
,
00010000
00010000
00000000
00001000
00001000
00000000
00100000
00100000
00000000
00010000
01000000
00100000
00010000
00000000
00001000
00000000
,
00000010
00000010
00000000
00000100
00000100
00000000
00001000
00001000
00000000
00000010
00000100
00001000
00010000
00000000
00100000
00000000
,
10000000
10000000
00000000
01000000
01000000
00000000
00010000
00010000
00000000
01000000
00100000
00010000
00001000
00000000
00000100
00000000
,
00000010
00000010
00000000
00000001
00000001
00000000
00001000
00001000
00000000
00000010
00000100
00001000
00010000
00000000
00100000
00000000
,
01000000
01000000
00000000
00001000
00001000
00000000
00000010
00000010
00000000
00000100
00010000
00000100
00001000
00010000
00100000
00000000
,
01000000
01000000
00000000
10000000
10000000
00000000
00100000
00010000
00100000
01000000
00001000
00010000
00000010
00000100
00000001
00000000
,
00002002
00000000
00000000
00000000
00000000
00000000
00000000
00003003
,
00000010
00000100
00001000
00000010
00000100
00001000
00010000
00100000
,
01000000
00010000
00100000
01000000
00010000
00001000
00000100
00000000
,
00000001
00000010
00001000
00010000
01000000
10000000
01000000
00100000
,
00010000
01000000
10000000
01000000
00010000
10000000
10000000
01000000
,
00010000
01000000
00100000
00001000
00010000
00000100
00000100
00000010
,
00001000
00000010
00000001
00000100
00001000
00010000
00010000
00000100
,
00000010
00001000
00010000
01000000
01000000
00100000
00010000
10000000
,
00100000
01000000
00010000
00100000
00001000
00001000
00010000
00010000
,
00000100
00000010
00000100
00001000
00000001
00000100
00001000
00010000
,
00100000
10000000
00100000
00010000
00100000
01000000
00100000
00010000
,
00001000
00000100
00000010
00001000
00000010
00000100
00000001
00001000
,
00000010
00000100
00000001
00000010
00000100
00000001
00000100
00010000
,
00001000
00100000
00010000
00010000
01000000
10000000
00100000
01000000
,
00010000
00100000
00001000
00010000
00000100
00001000
00000010
00000100
,
00000001
00000010
00001000
00000010
00000001
00000000
00000100
00000000
,
00000010
00000000
00000100
00000000
00000001
00000000
00001000
00000100
,
00001000
00000010
00001000
00000100
,
00010000
00000000
00001000
00010000
00001000
00000000
01000000
00000000
,
00100000
10000000
01000000
00100000
,
00001000
00000000
01000000
00001000
01000000
00000000
00001000
00000000
,
00010000
00000000
00000010
00010000
00000010
00000000
00010000
00000000
,
00000100
00000010
00000001
00000100
,
00001000
00010000
00100000
00010000
,
00001000
00000000
00000100
00000010
00000100
00000000
00000001
00000000
,
00001000
00000100
00000010
00001000
,
00010000
00000000
01000000
00000000
00100000
00010000
00100000
00000000
,
00001000
00010000
00000010
00000100
,
00001000
00010000
00100000
10000000
,
10000000
01000000
00010000
00001000
,
00000010
00000000
00000000
00000000
00000001
00000000
00000000
00000000
00001001
00000000
00000000
00000000
00000110
00000000
00001000
00001000
,
00000100
00010000
00100000
00010000
00001000
00001000
00100000
00100000
01000000
00010000
00001000
00000000
00000010
00000010
00000001
00000001
,
00000100
00001000
00010000
00000100
00010000
00001000
01000000
00100000
10000000
01000000
01100000
00000000
00011000
00000000
00000100
00000100
,
00000010
00000001
00000010
00000100
00001000
00001000
00000010
00010000
00001000
00100000
00010000
00000000
01000000
01000000
00100000
00100000
,
10000000
01000000
00010000
01000000
00100000
00001000
00010000
00001000
00000010
00000100
00001100
00000000
00000010
00000010
00000100
00000100
,
00001000
00001000
00010000
00010000
01000000
10000000
00100000
01000000
00010000
10000000
01000000
00000000
00100000
00100000
00001000
00001000
,
00010000
00010000
00000100
00000100
00000010
00000001
00001000
00000010
00000001
00000010
00000110
00000000
00000001
00000010
00000001
00000100
,
00000010
00001000
00000100
00010000
00001000
00001000
00000100
00010000
00001000
00100000
00010000
00000000
01000000
00100000
10000000
00010000
,
01000000
00100000
00010000
00001000
00001000
00000010
00000100
00001000
00010000
00100000
01000000
00000000
00010000
00000000
00010000
00000000
,
10000000
01000000
10000000
00000000
00010000
00100000
00000000
00000000
01010000
00000000
00000000
00000000
00100000
00000000
00100000
00000000
,
00001000
00010000
00001000
00000000
00000010
00000100
00000000
00000000
00000011
00000000
00000000
00000000
00000100
00000000
00000100
00000000
,
00000010
00001000
00000010
00000000
00010000
00000100
00000000
00000000
00010100
00000000
00000000
00000000
00001000
00000000
00001000
00000000
,
00100000
00010000
00100000
00000000
00010000
01000000
00000000
00000000
01100000
00000000
10000000
00000000
01000000
00000000
01000000
00000000
,
00100000
00001000
00100000
00000000
00010000
00000100
00000000
00000000
00000011
00000000
00000000
00000000
00000100
00000000
00000100
00000000
,
00001000
00000010
00001000
00000000
00000100
00010000
00000000
00000000
00101000
00000000
00010000
00000000
01000000
00000000
01000000
00000000
,
00100000
10000000
00100000
00000000
01000000
00000000
01000000
00000000
00001000
00010000
00001000
00000000
00010000
00000000
00010000
00000000
,
00000010
00001000
00000010
00000000
00000100
00000001
00000100
00000000
00000001
00000010
00000001
00000000
00002002
00000000
00000000
00000000
,
00000000
00003003
00000000
00000000
00000000
00000000
00000000
00000000
00000001
00000000
00000000
00000000
00000000
00000000
00000000
00000000
00000100
00000000
00000000
00000000
00000000
00000000
00000000
00000000
00001000
00000000
00000000
00000000
00000000
00000000
00000000
00000000
00000100
00000000
00000000
00000000
00000000
00000000
00000000
00000000
00001000
00000000
00000000
00000000
00000000
00000000
00000000
00000000
00010000
00000000
00000000
00000000
00000000
00000000
00000000
00000000
00001000
00000000
00000000
00000000
00000000
00000000
00000000
00000000
,
00010000
00100000
00010000
00100000
10000000
00100000
10000000
01000000
,
00010000
00001000
00010000
00001000
00000010
00001000
00000010
00000001
,
00000010
00000001
00000100
00001000
00011000
00000000
00000000
00000000
,
00001000
00010000
00001000
00100000
00001000
00000000
00010000
00000000
,
01000000
00100000
00001000
00000010
,
00000100
00001000
00000010
00001000
00000100
00000000
00000010
00000000
,
00001000
00100000
01000000
10000000
,
00100000
00010000
00001000
00010000
00100000
00000000
01000000
00000000
,
00010000
00000100
00000010
00001000
,
00000100
00010000
00001000
00100000
00010000
00000000
01000000
00000000
,
10000000
00000000
00000000
00000000
,
00101000
00010000
00000100
00000010
,
00000011
00000100
00000010
00010000
,
00011000
00100000
00010000
01000000
,
01100000
00010000
10000000
01000000
,
00110000
00001000
00010000
00000010
,
00000101
00001000
00000001
00000010
,
00000110
00010000
00010010
00001000
,
00110000
10000000
01010000
00001000
,
00010000
01000000
00010000
00000000
00001000
00000010
00001000
00000000
00000100
00010000
00000100
00000000
00100000
00001000
00100000
00000000
,
00000100
00000010
00000001
00000010
00000100
00000000
00001000
00000010
,
00001000
00000100
00010000
00001000
00100000
00000000
00010000
01000000
,
00100000
10000000
00100000
01000000
00010000
00000000
10000000
01000000
,
00100000
00001000
00010000
00000100
00000010
00000001
00000100
00000000
,
00002002
00000000
00000000
00000000
,
00003003
00000000
00000000
00000000
;
