#TITLE:Gourmet Race 210;
#SUBTITLE:;
#ARTIST:Shroomer Starboy;
#TITLETRANSLIT:;
#SUBTITLETRANSLIT:;
#ARTISTTRANSLIT:;
#CREDIT:Kita Khyber;
#BANNER:../bn.png;
#BACKGROUND:../bg.png;
#LYRICSPATH:;
#CDTITLE:;
#MUSIC:Gourmet Race 210.ogg;
#OFFSET:1.148;
#SAMPLESTART:47.980;
#SAMPLELENGTH:18.480;
#SELECTABLE:YES;
#BPMS:0.000=210.000;
#STOPS:;
#BGCHANGES:;
// cache tags:
#FIRSTBEAT:4.000;
#LASTBEAT:334.000;
#SONGFILENAME:Songs/Cirque du Zonda/Zaia - Gourmet Race 210/Gourmet Race 210.sm;
#HASMUSIC:1;
#HASBANNER:1;
#MUSICLENGTH:96.071;
// end cache tags

//---------------dance-single - Zaia - 15.2----------------
#NOTES:
     dance-single:
     Zaia - 15.2:
     Challenge:
     15:
     1.000,1.000,0.042,0.604,1.000,972.000,4.000,58.000,0.000,0.000:
0000
0000
0000
0000
,
1010
0000
0010
1000
0001
1000
0200
0000
,
1300
0010
0100
0001
1000
0000
0001
0000
,
1000
0100
1000
0001
0010
0100
1000
0001
0100
0010
1000
0001
1000
0100
1000
0001
,
0100
0010
1000
0001
0010
0100
1000
0001
0100
0010
0100
0001
1000
0100
1000
0001
,
0100
0001
1000
0001
1000
0100
1000
0001
1000
0010
0100
0001
1000
0001
0010
0100
,
1000
0001
1000
0010
0100
0001
1000
0100
0010
0001
1000
0001
1000
0100
1000
0001
,
0010
0001
1000
0100
0010
0001
1000
0010
0100
0001
1000
0001
0010
0001
1000
0010
,
0100
0001
1000
0100
0010
0001
1000
0010
0100
0010
1000
0001
0200
0000
0320
0000
,
2030
3002
0023
0230
,
2300
0000
3002
0000
0203
0000
0310
0010
,
1000
0001
1000
0100
1000
0001
1000
0001
,
0010
0001
1000
0010
0100
0001
0010
0100
,
1000
0001
1000
0100
0010
0100
1000
0010
,
0100
0001
0010
0100
1000
0001
0010
0001
,
2000
3000
0000
0000
0000
0000
0020
0030
0200
0300
0000
0000
0002
0003
0200
0300
,
0020
0030
0000
0000
2000
3000
0000
0000
0002
0003
0000
0000
0000
0000
0000
0000
,
0010
0000
0100
1000
0001
0000
0100
0000
0002
0000
0000
0000
1003
0000
0100
0000
,
0020
0230
2300
3002
,
0103
0010
0100
0001
1000
0100
0010
0100
,
1000
0001
0100
0010
1000
0001
0010
0100
,
1000
0010
0100
0001
1000
0100
1000
0010
,
0100
0001
0010
0100
2000
0000
0000
0000
,
3001
0000
0000
1000
0010
0000
0100
0001
,
0020
0230
2300
3002
,
0103
0000
0000
0010
1000
0000
0001
0000
0010
0000
0100
0000
1000
0000
0010
0000
,
0100
0001
0100
0000
0001
1000
0001
0000
1000
0100
0000
0010
0001
0000
1000
0000
,
0001
0100
0010
1000
0001
0010
0100
1000
0001
1000
0100
1000
0001
1000
0001
0100
,
0001
1000
0010
0100
0001
1000
0100
0010
0001
1000
0010
1000
0001
1000
0001
0100
,
0010
0100
0001
1000
0100
0010
0001
1000
0001
0010
0001
1000
0001
1000
0010
1000
,
0001
0100
0010
1000
0001
0010
0100
1000
0001
0100
0001
1000
0001
1000
0100
1000
,
0001
0010
0100
1000
0001
0100
0010
1000
0001
1000
0010
1000
0001
1000
0001
0010
,
0001
1000
0100
0010
0001
1000
0010
0100
0001
1000
0100
1000
0001
1000
0001
0010
,
0100
0010
0001
1000
0010
0100
0001
1000
0001
0100
0001
1000
0001
1000
0100
1000
,
0001
0010
0100
1000
0001
0100
0010
1000
0001
0010
0001
1000
0001
1000
0010
1000
,
0001
0100
0010
1000
0001
1000
0100
0010
0001
1000
0001
0100
0001
1000
0100
1000
,
0001
0010
0100
1000
0001
1000
0010
0100
0001
1000
0001
0010
0001
1000
0010
1000
,
0010
0100
0001
1000
0001
0010
0100
1000
0001
1000
0010
1000
0001
0010
0001
1000
,
0100
0010
0001
1000
0001
0100
0010
1000
0001
1000
0100
1000
0001
0100
0001
1000
,
0001
0010
0100
1000
0001
1000
0010
0100
0001
1000
0001
0010
0001
1000
0010
1000
,
0001
0100
0010
1000
0001
1000
0100
0010
0001
1000
0001
0100
0001
1000
0100
1000
,
0001
0010
0100
1000
0010
0100
0001
0010
,
0001
0100
0010
1000
0100
0000
0000
0000
,
1000
0010
1000
0001
0100
0010
1000
0001
0010
0100
1000
0001
1000
0010
1000
0001
,
0010
0100
1000
0001
0100
0010
1000
0001
0010
0100
0010
0001
1000
0010
1000
0001
,
0010
0001
1000
0001
1000
0010
1000
0001
1000
0100
0010
0001
1000
0001
0100
0010
,
1000
0001
1000
0100
0010
0001
1000
0010
0100
0001
1000
0001
1000
0010
1000
0001
,
0100
0001
1000
0010
0100
0001
1000
0100
0010
0001
1000
0001
0100
0001
1000
0100
,
0010
0001
1000
0010
0100
0001
1000
0100
0010
0100
1000
0001
0020
0000
0230
0000
,
2300
3002
0203
0320
,
2030
0000
3002
0000
0023
0000
0031
0001
,
1000
0100
1000
0100
0010
0001
0010
0001
1000
0001
1000
0001
1000
0010
1000
0010
,
0100
0010
0100
0010
0100
0001
0100
0001
1000
0001
1000
0001
1000
0100
1000
0100
,
0010
0100
0010
0100
0010
0001
0010
0001
1000
0010
1000
0010
0100
0001
0100
0001
,
1000
0100
1000
0100
0010
0001
0010
0001
1000
0001
1000
0001
0100
0010
0100
0010
,
2000
3000
0000
0000
0000
0000
0200
0300
0020
0030
0000
0000
0002
0003
0020
0030
,
0200
0300
0000
0000
2000
3000
0000
0000
0002
0003
0000
0000
0000
0000
0000
0000
,
0100
0000
0010
1000
0001
0000
0010
0000
0002
0000
0000
0000
1003
0000
0010
0000
,
0200
0320
2030
3002
,
1003
0010
1000
0010
0100
0001
0100
0001
1000
0001
1000
0001
1000
0100
1000
0100
,
0010
0100
0010
0100
0010
0001
0010
0001
1000
0001
1000
0001
1000
0010
1000
0010
,
0100
0010
0100
0010
0100
0001
0100
0001
1000
0100
1000
0100
0010
0001
0010
0001
,
1000
0010
1000
0010
0100
0001
0100
0001
1000
0001
1000
0001
0010
0100
0010
0100
,
1000
0000
0000
0001
0100
0000
0010
1000
,
0200
0320
0032
2003
,
3010
0000
0000
0100
0001
0000
1000
0000
0100
0000
0010
0000
0001
0000
0100
0000
,
0020
0000
0000
2030
,
3001
0010
0100
1000
0001
0100
0010
1000
0001
1000
0010
1000
0001
1000
0001
0010
,
0001
1000
0100
0010
0001
1000
0010
0100
0001
1000
0100
1000
0001
1000
0001
0010
,
0100
0010
0001
1000
0010
0100
0001
1000
0001
0100
0001
1000
0001
1000
0100
1000
,
0001
0010
0100
1000
0001
0100
0010
1000
0001
0010
0001
1000
0001
1000
0010
1000
,
0001
0100
0010
1000
0001
0010
0100
1000
0001
1000
0010
0100
0001
1000
0001
0010
,
0001
1000
0010
0100
0001
1000
0100
0010
0001
1000
0010
1000
0001
1000
0001
0100
,
0010
0100
0001
1000
0100
0010
0001
1000
0001
0010
0001
1000
0001
1000
0010
1000
,
0001
0100
0010
1000
0001
0010
0100
1000
0001
0100
0001
1000
0001
1000
0100
1000
,
0001
0010
0100
1000
0001
1000
0010
0100
0001
1000
0001
0010
0001
1000
0010
1000
,
0001
0100
0010
1000
0001
1000
0100
0010
0001
1000
0001
0100
0001
1000
0100
1000
,
0100
0010
0001
1000
0001
0100
0010
1000
0001
1000
0100
1000
0001
0100
0001
1000
,
0010
0100
0001
1000
0001
0010
0100
1000
0001
1000
0010
1000
0001
0010
0001
1000
,
0001
0100
0010
1000
0001
1000
0100
0010
0001
1000
0001
0100
0001
1000
0100
1000
,
0001
0010
0100
1000
0001
1000
0010
0100
0001
1000
0001
0010
0001
1000
0010
1000
,
0001
0100
0010
1000
0100
0010
0001
0100
,
0001
0010
0100
1000
1010
0010
0101
0100
,
2002
0000
3003
0000
;
