#TITLE:LunaMarionette;
#SUBTITLE:;
#ARTIST:AKHT;
#TITLETRANSLIT:;
#SUBTITLETRANSLIT:;
#ARTISTTRANSLIT:;
#CREDIT:;
#BANNER:lunamarionette-bn.jpg;
#BACKGROUND:lunamarionette.jpg;
#LYRICSPATH:;
#CDTITLE:cdtitle.PNG;
#MUSIC:luna_mari_edit.mp3;
#OFFSET:-0.030;
#SAMPLESTART:84.980;
#SAMPLELENGTH:10.660;
#SELECTABLE:YES;
#BPMS:0.000=179.940,44.000=89.970,78.000=179.940;
#STOPS:;
#BGCHANGES:;
// cache tags:
#FIRSTBEAT:0.000;
#LASTBEAT:317.500;
#SONGFILENAME:Songs/Astronomic Metal Collection 2/(Zaghurim) LunaMarionette/LunaMarionette.sm;
#HASMUSIC:1;
#HASBANNER:1;
#MUSICLENGTH:124.656;
// end cache tags

//---------------dance-single - ----------------
#NOTES:
     dance-single:
     :
     Hard:
     12:
     1.000,1.000,1.000,0.136,0.670,724.000,200.000,17.000,0.000,6.000:
0001
0100
0001
0100
0001
0100
0001
0100
0001
0100
0001
0100
0001
0100
0001
0100
,
0001
0100
0001
0100
0001
0100
0001
0100
0001
0100
0001
0100
0001
0100
0001
0100
,
0010
0100
0010
0100
0010
0100
0010
0100
0010
0100
0010
0100
0010
0100
0010
0100
,
0010
0100
0010
0100
0010
0100
0010
0100
0010
0100
0010
0100
0001
0010
0100
1000
,
0011
0000
0010
0000
0110
0000
0100
0000
0010
1000
0010
0100
0001
0000
0010
0000
,
1010
0000
0010
0000
0110
0000
0100
0000
0100
1000
0010
0100
0001
0000
0010
0000
,
1001
0000
0001
0000
0101
0000
0100
0000
0010
0100
0001
0100
0010
0000
0001
0000
,
0101
0000
0100
0000
0110
0000
0010
0000
1010
0000
0001
0010
0100
0000
1000
0000
,
1100
0000
0100
0000
0110
0000
0010
0000
0100
0001
0100
0010
0100
0000
0010
0000
,
0101
0000
0100
0000
0110
0000
0010
0000
0100
0001
0100
0010
1000
0000
0100
0000
,
1001
0000
1000
0000
1010
0000
0010
0000
0100
0010
1000
0001
0100
0000
0010
0000
,
1010
0010
0010
0100
0010
0000
1000
0100
0010
1000
0001
0000
0010
0100
1000
1000
,
0000
1000
0001
0000
0100
0000
0010
0000
0210
0000
0010
0000
0001
0000
0010
0000
,
0010
0000
0010
0000
0001
0000
1300
0100
0010
0100
0001
0000
0010
0100
1000
1000
,
0000
1000
0010
0000
0100
0010
0001
0100
1020
0000
1000
0000
0100
0000
1000
0000
,
1000
0000
1000
0000
0100
0000
1030
0100
0010
0100
0001
0000
0010
0100
1000
1000
,
0000
1000
0001
0000
0010
0000
0100
0000
2010
0000
0010
0000
0001
0000
0010
0000
,
0010
0000
0010
0000
0001
0000
3100
0010
0001
0010
0100
0000
1000
0100
0010
1000
,
0000
0010
0001
0000
1000
0000
0100
0000
1020
0000
1000
0000
0100
0000
1000
0000
,
0032
0000
0000
0000
0113
1100
0011
0100
,
0011
1100
1010
0110
0001
1100
0011
0100
,
0110
0010
1010
1000
1100
0000
1100
0010
,
0000
0010
1100
0000
0100
0100
0101
0001
,
0000
0001
1001
1010
0101
0110
0011
1000
,
0101
1010
1100
1001
0100
1010
0101
0010
,
1100
0110
0011
1100
0110
0000
0110
0001
,
0000
0001
0110
0000
0001
0001
0101
0100
,
0000
0100
0110
0100
0011
0100
0011
1000
,
0010
0100
0011
1000
0011
0011
0010
0101
,
0000
1000
0100
0010
0101
0000
0010
1010
,
0000
0100
1100
0000
0000
0001
0010
0100
,
0010
0100
0010
0000
0010
0000
0010
0000
0011
0000
0110
0000
1100
0000
0100
0000
,
1010
0110
0101
1010
0100
0110
0101
1000
,
0110
0001
1100
0010
0110
0000
0110
0000
,
0010
0010
0110
0000
1001
0000
0000
0000
,
0001
0010
0100
1000
1001
1001
0000
0100
,
0010
0100
1000
0011
0000
0011
0101
0100
,
0010
0100
1000
0100
1001
1001
0100
0000
,
0011
0000
0011
0000
0100
0000
1001
0000
0000
0000
1001
0000
1000
0010
0100
0001
,
1000
0000
0000
0010
0000
0000
0100
0000
0000
0001
0000
0000
1000
0000
0000
0000
0010
0000
0000
0000
0100
0000
0000
0000
1001
0000
0000
0000
0000
0000
1001
0000
0000
0000
0000
0000
0000
0000
0000
0000
0000
0000
0100
0000
0000
0000
0000
0000
,
0010
0000
0100
0000
1000
0000
0011
0000
0000
0000
0011
0000
0001
0100
0010
1000
,
0010
0000
0000
0100
0000
0000
0001
0000
0000
0010
0000
0000
0100
0000
0000
0000
0010
0000
0000
0000
0100
0000
0000
0000
1001
0000
0000
0000
0000
0000
1001
0000
0000
0000
0000
0000
0010
0000
0000
0000
0000
0000
0000
0000
0000
0000
0000
0000
,
0101
1010
0010
0001
0000
0011
0010
0010
,
0110
0000
0110
0000
0001
1000
0001
1000
0011
0000
1000
0001
0100
0001
1100
0000
,
0000
0000
0010
0100
0001
0100
1010
0000
0000
0000
0010
0100
0001
0100
0011
0000
,
0010
0000
0001
0100
0010
1000
0010
0000
0100
0000
0010
1000
0010
0100
0011
0000
,
0000
0000
1000
0010
0100
0001
1100
0000
0000
0000
1000
0010
0100
0001
0100
0010
,
1100
0000
0010
0100
0001
0100
0011
0000
1010
0000
0100
0000
1000
0010
1100
0000
,
0010
0000
0100
0000
0010
0100
1001
0000
0010
0000
1100
0000
0010
0100
0011
0000
,
0100
0000
0010
0000
1000
0100
1010
0000
1100
0000
0000
1010
0000
0000
0101
0000
,
0011
0000
0000
0101
0000
0000
1001
0000
1010
0000
0010
0000
0100
0010
1100
0000
,
0001
0010
0100
1000
0001
0100
0001
0000
0100
0000
0010
0000
0100
0001
1010
0000
,
0100
0000
0010
0000
0001
0100
0001
0000
0001
0000
0001
0000
0001
0000
0001
0000
,
0001
0001
0001
0001
0020
0000
0000
0000
,
1030
0001
1000
0001
1000
0001
1000
0001
0000
0000
0000
0000
0000
0000
0000
0000
,
0000
0000
0000
0000
0100
0000
0010
0000
1001
0000
0100
0000
0011
0000
0010
0001
,
1010
0000
0100
0000
1010
0000
0010
0100
0011
0000
0100
0000
1010
0000
1000
0100
,
0011
0000
1000
0000
0011
0000
1000
0001
0110
0000
0001
0000
1100
0000
0010
1000
,
0101
0000
1000
0000
0110
0000
0001
0010
0101
0000
1000
0000
1010
0000
0100
1000
,
0110
0000
0000
0000
1001
0100
0010
0000
1001
0000
0010
0000
1010
0000
0100
1000
,
0101
0000
0010
0000
1010
0000
0100
0010
1100
0000
0001
0000
0101
0000
0010
0001
,
0110
0000
0000
0000
1010
0000
0100
0000
0101
0000
0010
0000
1010
0000
0010
0100
,
1001
0000
0100
0000
1010
0000
1000
0100
0011
0000
0100
0000
1000
0001
1000
0001
,
1100
0000
0000
0000
0001
0100
0001
0100
0011
0000
0110
0000
1000
0010
1100
0000
,
0100
0000
1010
0000
0001
0100
0011
0000
1000
0000
0110
0000
0001
0010
1100
0000
,
0010
0000
1100
0000
1000
0100
0011
0000
0100
0000
1001
0000
0010
0100
1010
0000
,
0100
0000
0011
0000
0100
0010
0101
0000
0010
0000
1010
0000
0100
1000
0110
0000
,
1000
0100
0010
0001
1000
0010
1000
0000
0010
0000
1100
0000
1000
0001
1010
0000
,
0001
0000
0110
0000
0001
1000
0101
0000
0010
0000
1100
0000
0010
0100
1001
0000
,
0100
0000
0011
0000
0100
0010
1001
0000
0010
0000
1001
0000
0010
0100
0011
0000
,
0100
0000
0011
0000
0100
0001
1100
0000
0010
0000
1100
0000
0010
0100
0011
0000
,
1000
0010
0100
0001
0100
0010
1000
0010
0100
0000
1010
0000
0001
0100
0011
0000
,
0100
0000
1010
0000
0100
0001
0110
0000
0001
0000
1100
0000
0010
1000
0110
0000
,
0100
0000
1001
0000
0100
0010
1001
0000
0100
0000
0011
0000
0100
0010
1001
0000
,
0100
0000
0011
0000
0100
0001
1100
0000
0001
0100
0001
0000
0001
0100
0010
1000
,
0010
0100
0002
0000
0000
0023
0000
0000
0231
0000
0000
0000
0000
0000
0000
0000
,
0000
2300
0000
3210
1302
0000
0023
0000
,
0230
0000
0320
0231
0000
1302
0000
0000
,
0000
0000
0000
0000
,
0000
0000
0000
0000
1000
0100
0013
0000
0000
0000
0000
0000
0000
0000
0000
0000
;
