#TITLE:Time Travel;
#SUBTITLE:lvidmar.newgrounds.com;
#ARTIST:lvidmar;
#TITLETRANSLIT:;
#SUBTITLETRANSLIT:;
#ARTISTTRANSLIT:;
#CREDIT:Owem;
#BANNER:../banner.png;
#BACKGROUND:../bg.png;
#LYRICSPATH:;
#CDTITLE:../cdtitleowem.png;
#MUSIC:lvidmar - Time Travel.ogg;
#OFFSET:-0.031;
#SAMPLESTART:75.904;
#SAMPLELENGTH:29.999;
#SELECTABLE:YES;
#DISPLAYBPM:155.000;
#BPMS:0.000=38.750,16.000=77.500,66.000=155.000,224.000=137.777,226.000=38.750,234.000=155.000,330.000=124.000,333.000=155.000;
#STOPS:;
#BGCHANGES:;
// cache tags:
#FIRSTBEAT:0.000;
#LASTBEAT:619.000;
#SONGFILENAME:Songs/Owem's Simfiles 08 - 1.2/Time Travel - [Owem] v1.0.0/Time Travel.sm;
#HASMUSIC:1;
#HASBANNER:1;
#MUSICLENGTH:289.123;
// end cache tags

//---------------dance-single - 13 (Owem)----------------
#NOTES:
     dance-single:
     13 (Owem):
     Hard:
     13:
     1.000,1.000,0.211,0.578,1.000,1790.000,61.000,167.000,18.000,0.000:
00M0
0000
0000
0000
0000
0000
0000
0000
0000
0000
0000
0000
0000
0000
0000
0000
0000
0M00
0000
0000
0000
0000
0000
0000
0000
0000
0000
0000
0000
0000
0000
0000
0000
000M
0000
0000
0000
0000
0000
0000
0000
0000
0000
0000
0000
0000
0000
0000
0000
M000
0000
0000
0000
0000
0000
0000
0000
0000
0000
0000
0000
0000
0000
0000
,
0000
0M00
0000
0000
0000
0000
0000
0000
0000
0000
0000
0000
0000
0000
0000
0000
0000
00M0
0000
0000
0000
0000
0000
0000
0000
0000
0000
0000
0000
0000
0000
0000
0000
000M
0000
0000
0000
0000
0000
0000
0000
0000
0000
0000
0000
0000
0000
0000
0000
M000
0000
0000
0000
0000
0000
0000
0000
0000
0000
0000
0000
0000
0000
0000
,
0000
0200
0000
0000
0000
0000
0000
0000
0000
0000
0000
0000
0000
0000
0000
0000
0000
0320
0000
0000
0000
0000
0000
0000
0000
0000
0000
0000
0000
0000
0000
0000
0000
0032
0000
0000
0000
0000
0000
0000
0000
0000
0000
0000
0000
0000
0000
0000
0000
0203
0000
0000
0000
0000
0000
0000
0000
0000
0000
0000
0000
0000
0000
0000
,
0000
0320
0000
0000
0000
0000
0000
0000
0000
0000
0000
0000
0000
0000
0000
0000
0000
0230
0000
0000
0000
0000
0000
0000
0000
0000
0000
0000
0000
0000
0000
0000
0000
0302
0000
0000
0000
0000
0000
0000
0000
0000
0000
0000
0000
0000
0000
0000
0000
2003
0000
0000
0000
0000
0000
0000
0000
0000
0000
0000
0000
0000
0000
0000
,
3100
0000
0010
0001
0000
1000
0000
0010
0100
0000
0001
1000
0001
0010
0100
1000
,
0010
0000
0100
0001
0000
1000
0000
0100
1000
0000
0010
0100
0001
1000
0001
0010
,
0100
0000
1000
0010
0000
0100
0000
0001
1000
0000
0100
1000
0010
1000
0001
1000
,
0100
0000
0010
0001
0000
1000
0000
0010
0100
0000
0001
1000
0001
0010
0100
1000
,
0100
0000
0010
0001
0000
1000
0000
0001
0100
0000
0010
1000
0010
0100
0001
1000
,
0100
0000
0010
0001
0000
1000
0000
0001
0100
0000
0010
1000
0001
0010
0100
0010
,
0001
0000
1000
0010
0000
0100
0000
0001
1000
0000
0001
0100
0010
1000
0001
0010
,
0100
0000
1000
0010
0000
0100
0000
0001
0010
0000
0001
1000
0010
0100
0001
0100
,
0010
0000
1000
0200
0300
0020
0030
0002
0203
0300
0020
2030
3020
0230
0302
2003
,
3200
0300
0020
0032
0003
2000
3000
0020
0230
0300
0002
2003
3002
0023
0230
2300
,
3020
0030
0200
0304
0003
4000
3000
0400
0320
0030
0004
0403
0340
0230
0304
4003
,
3200
0000
0000
0300
0000
0000
0040
0000
0000
0034
0000
0000
0003
0000
0000
4000
0000
0000
3000
0000
0000
0040
0000
0000
0230
0000
0000
0300
0000
0000
0004
0000
0000
4003
0000
0000
3200
0000
0000
0340
0000
0000
0034
0000
4003
0000
3004
0000
,
0M03
0000
0000
0000
00M0
0000
0000
0000
1000
0010
0100
0001
1000
0100
1000
0001
,
0010
0001
0100
0010
1000
0001
0100
0001
0010
0100
1000
0001
0010
0001
0100
0010
,
1000
0001
0100
0001
1000
0100
0010
0001
1000
0100
1000
0001
0010
0001
0100
0010
,
1000
0001
0100
0001
0010
0100
1000
0001
0010
0001
0100
0010
1000
0001
0100
0010
,
0100
0001
1000
0100
0010
0100
1000
0001
0010
0001
0100
0010
1000
0001
0100
0001
,
1000
0100
1000
0010
0100
0001
0100
0010
1000
0001
1000
0100
0010
0001
1000
0100
,
1000
0001
0010
0001
0100
0010
1000
0001
0100
0010
1000
0001
0100
0001
0010
0100
,
1000
0001
0010
0001
0100
0010
1000
0001
0100
0010
0100
0001
1000
0100
0010
0001
,
1000
0100
0010
0100
1000
0001
0010
0001
0100
0010
1000
0001
0100
0001
0010
0100
,
1000
0001
0010
0001
0100
0010
1000
0001
0100
0010
0100
0001
1000
0100
0010
0001
,
1000
0100
1000
0001
0010
0001
0100
0010
1000
0001
0100
0010
0100
0001
1000
0100
,
0010
0001
1000
0100
1000
0001
0010
0001
0100
0010
1000
0001
0100
0010
0100
0001
,
1000
0100
0010
0001
1000
0100
1000
0001
0010
0001
0100
0010
1000
0001
0100
0010
,
0100
0001
1000
0100
0010
0001
1000
0100
1000
0010
0100
0001
1000
0010
0100
0001
,
1000
0100
1000
0001
0010
0001
0100
0010
1000
0001
0100
0001
0010
0100
1000
0001
,
0010
0001
0100
0010
1000
0001
0100
0001
1000
0100
0010
0001
1000
0100
1000
0001
,
0010
0001
0100
0010
1000
0001
0100
0001
0010
0100
1000
0001
0010
0001
0100
0010
,
1000
0001
0100
0010
0100
0001
1000
0100
0010
0100
1000
0001
0010
0001
0100
0010
,
1000
0001
0100
0001
1000
0100
1000
0010
0100
0001
0100
0010
1000
0001
1000
0100
,
0010
0001
1000
0100
1000
0001
0010
0001
0100
0010
1000
0001
0100
0010
1000
0001
,
0100
0001
0010
0100
1000
0001
0010
0001
0100
0010
1000
0001
0100
0010
0100
0001
,
1000
0100
0010
0001
1000
0100
0010
0100
1000
0001
0010
0001
0100
0010
1000
0001
,
0100
0001
0010
0100
1000
0001
0010
0001
0100
0010
1000
0001
0100
0010
0100
0001
,
1000
0100
0010
0001
1000
0100
1000
0001
0010
0001
0100
0010
1000
0001
0100
0010
,
0100
0001
1000
0100
0010
0001
1000
0100
1000
0001
0010
0001
0100
0010
1000
0001
,
0100
0010
0100
0001
1000
0100
0010
0001
1000
0100
1000
0001
0010
0001
0100
0010
,
1000
0001
0100
0010
0100
0001
1000
0100
0010
0001
1000
0100
1000
0010
0100
0001
,
1000
0100
1000
0001
0010
0001
0100
0010
1000
0001
0100
0010
0100
0001
1000
0100
,
0010
0001
1000
0001
0010
0100
1000
0001
0010
0001
0100
0010
1000
0001
0100
0010
,
0100
0001
1000
0100
0010
0100
1000
0001
0010
0001
0100
0010
1000
0001
0100
0010
,
0100
0001
1000
0100
0010
0100
1000
0001
0010
0001
0100
0010
1000
0001
0100
0001
,
1000
0100
0010
0001
1000
0100
1000
0001
0010
0001
0100
0010
1000
0001
0100
0010
,
0100
0001
1000
0100
0010
0100
1000
0001
0010
0001
0100
0010
1000
0001
0100
0010
,
0100
0001
1000
0010
1000
0001
0100
0001
1000
0001
0010
0100
1000
0001
0010
0001
,
0100
0010
1000
0001
0100
0010
0100
0001
1000
0100
0010
0001
1000
0100
1000
0001
,
0010
0001
0100
0010
1000
0001
0100
0010
0100
0001
1000
0100
0010
0100
1000
0001
,
0010
0001
0100
0010
1000
0001
1000
0100
0010
0000
0000
0001
1000
0000
0001
0000
,
0000
0010
0100
0000
1000
0000
0001
0000
0100
0000
0000
0010
1000
0000
0010
0000
,
0100
0000
0001
0000
0010
0000
0100
0000
1000
0000
0000
0010
2000
0000
3002
0000
,
0003
0020
0200
0030
2000
0300
0002
3000
0200
0003
0300
0020
2030
0000
3001
0000
,
0200
0000
0300
00M0
M000
0000
0000
0000
0020
0000
0000
0000
0230
0000
0000
0000
,
0302
2003
3002
0023
,
0230
0000
2300
0000
3100
0000
0000
0110
,
0020
0030
0000
0101
0101
0000
0000
0110
,
0020
0030
0000
1001
1001
0000
0000
0011
,
0020
0030
0000
0110
0110
0000
0000
1100
,
2000
3000
0000
1010
1010
0000
0000
0110
,
0200
0300
0000
0101
0101
0000
0000
0011
,
0020
0030
0000
0110
0110
0000
0000
1100
,
2000
3000
0000
1001
1001
0000
0000
0001
,
0101
0000
0000
0100
0010
0000
1000
0000
1001
0000
0000
0000
0001
0000
0012
0000
,
0003
0000
0020
0000
0030
0000
0200
0300
2100
0000
3000
0000
0020
0030
0210
0000
,
0301
0000
2000
0000
3200
0300
0120
0030
0210
0300
0000
0000
0020
0030
0012
0000
,
0003
0000
2000
0000
3000
0000
0020
0030
0120
0000
0030
0200
0001
0300
1002
0000
,
0023
0000
0230
0300
1200
0300
2000
3000
1020
0000
0030
0000
0200
0300
0102
0000
,
0003
0000
2000
0000
3000
0000
0210
0300
0120
0000
0030
0000
2000
3000
1002
0003
,
0002
0000
0023
0000
0230
0300
1200
0300
2100
0000
3000
0000
0020
0030
0210
0000
,
0300
0000
0200
0000
0300
0000
0002
0003
2001
3000
0000
1002
0003
0000
1001
0000
,
1000
0000
0020
0030
0110
0000
0110
0000
0210
0000
0300
0000
0002
0003
0201
0000
,
0300
0000
0020
0000
0030
0000
2000
3000
1002
0000
0003
0000
2000
3000
1200
0300
,
0100
0000
0020
0000
0032
0003
2001
3000
1002
0000
0003
0000
0200
0300
0120
0000
,
0030
0000
2000
0000
3000
0000
0002
0003
0101
0000
0000
0110
0000
0000
1010
0000
,
0000
0000
2000
0000
3002
0000
0023
0000
0130
0000
0000
1000
0200
0300
0020
0000
,
0030
0001
0200
0000
0320
0000
2030
0000
3002
0000
0003
0010
0200
0000
2300
0000
,
3020
0000
2030
0000
3200
0000
0320
0000
0032
0000
0003
0100
0020
0000
2030
0000
,
3000
0001
0200
0000
0320
0000
0230
0000
0302
0000
0003
1000
0200
0000
0320
0000
,
0031
1000
0020
0000
0230
0000
0302
0000
0003
0000
0000
0000
0000
00M0
0000
0000
,
0000
0000
0000
0000
1000
0001
0010
0100
0010
0001
1000
0100
0010
0100
1000
0001
,
0010
0001
0100
0010
1000
0001
0100
0001
1000
0100
1000
0010
0100
0001
0100
0010
,
1000
0001
1000
0100
0010
0001
1000
0100
1000
0001
0010
0001
0100
0010
1000
0001
,
0100
0010
1000
0001
0100
0001
0010
0100
1000
0001
0010
0001
0100
0010
1000
0001
,
0100
0010
0100
0001
1000
0100
0010
0001
1000
0100
0010
0100
1000
0001
0010
0001
,
0100
0010
1000
0001
0100
0001
0010
0100
1000
0001
0010
0001
0100
0010
1000
0001
,
0100
0010
0100
0001
1000
0100
0010
0001
1000
0100
1000
0001
0010
0001
0100
0010
,
1000
0001
0100
0010
0100
0001
1000
0100
0010
0001
1000
0100
1000
0001
0010
0001
,
0100
0010
1000
0001
0100
0010
0100
0001
1000
0100
0010
0001
1000
0100
1000
0001
,
0010
0001
0100
0010
1000
0001
0100
0010
0100
0001
1000
0100
0010
0001
1000
0100
,
1000
0010
0100
0001
1000
0100
1000
0001
0010
0001
0100
0010
1000
0001
0100
0010
,
0100
0001
1000
0100
0010
0001
1000
0001
0010
0100
1000
0001
0010
0001
0100
0010
,
1000
0001
0100
0010
0100
0001
1000
0100
0010
0100
1000
0001
0010
0001
0100
0010
,
1000
0001
0100
0010
0100
0001
1000
0100
0010
0100
1000
0001
0010
0001
0100
0010
,
1000
0001
0100
0001
1000
0100
0010
0001
1000
0001
0100
0010
0100
0001
1000
0100
,
0010
0100
1000
0001
0010
0001
0100
0010
1000
0001
0100
0001
1000
0100
1000
0010
,
0100
0001
0100
0010
1000
0001
1000
0100
0010
0001
1000
0100
1000
0001
0010
0001
,
0100
0010
1000
0001
0100
0010
1000
0001
0100
0001
0010
0100
1000
0001
0010
0001
,
0100
0010
1000
0001
0100
0010
0100
0001
1000
0100
0010
0001
1000
0100
0010
0100
,
1000
0001
0010
0001
0100
0010
1000
0001
0100
0001
0010
0100
1000
0001
0010
0001
,
0100
0010
1000
0001
0100
0010
0100
0001
1000
0100
0010
0001
1000
0100
1000
0001
,
0010
0001
0100
0010
1000
0001
0100
0010
0100
0001
1000
0100
0010
0001
1000
0100
,
1000
0001
0010
0001
0100
0010
1000
0001
0100
0010
0100
0001
1000
0100
0010
0001
,
1000
0100
1000
0001
0010
0001
0100
0010
1000
0001
0100
0010
0100
0001
1000
0100
,
0010
0001
1000
0010
0100
0000
0010
0100
0001
0000
1000
0100
0010
0000
0001
0100
,
0001
0000
1000
0010
1000
0000
0001
0100
0010
0000
0100
0001
1000
0000
0100
0010
,
0001
0000
1000
0001
1000
0000
0100
0010
0001
0000
1000
0100
1000
0000
0001
0010
,
0001
0000
0100
0010
1000
0000
0001
0100
0001
0000
1000
0100
0010
0000
0001
1000
,
0001
0000
0100
0010
1000
0000
0001
0100
0001
0000
1000
0100
0010
0000
0001
1000
,
0001
0000
0100
0010
0100
0000
0001
1000
0100
0000
0010
0001
1000
0000
0001
0100
,
0010
0000
1000
0010
0100
0000
0001
1000
0001
0000
0010
0100
1000
0000
0100
0010
,
0001
0000
1000
0100
1000
0000
0001
0100
0010
0000
0100
0001
1000
0000
0100
0010
,
0001
0000
1000
0001
1000
0100
0010
0001
1000
0100
1000
0001
0010
0001
0100
0010
,
1000
0001
0100
0010
0100
0001
1000
0100
0010
0001
1000
0100
1000
0001
0010
0001
,
0100
0010
1000
0001
0100
0010
0100
0001
1000
0100
0010
0001
1000
0100
1000
0010
,
0100
0001
1000
0100
1000
0001
0010
0001
0100
0010
1000
0001
0100
0010
0100
0001
,
1000
0100
0010
0001
1000
0001
0010
0100
1000
0001
0010
0001
0100
0010
1000
0001
,
0100
0010
0100
0001
1000
0100
0010
0100
1000
0001
0010
0001
0100
0010
1000
0001
,
0100
0010
0100
0001
1000
0100
0010
0100
1000
0001
0010
0001
0100
0010
1000
0001
,
0100
0001
1000
0100
0010
0001
1000
0001
0100
0010
0100
0001
1000
0100
0010
0100
,
1000
0001
0010
0001
0100
0010
1000
0001
0100
0001
1000
0100
1000
0010
0100
0001
,
1000
0100
0010
0001
1000
0100
1000
0001
0010
0001
0100
0010
1000
0001
0100
0010
,
0100
0001
1000
0100
0010
0001
1000
0100
1000
0001
0010
0001
0100
0010
1000
0001
,
0100
0010
0100
0001
1000
0100
0010
0001
1000
0100
1000
0010
0100
0001
1000
0100
,
1000
0001
0010
0001
0100
0010
1000
0001
0100
0010
0100
0001
1000
0100
0010
0001
,
1000
0001
0010
0100
1000
0001
0010
0001
0100
0010
1000
0001
0100
0010
0100
0001
,
1000
0100
0010
0100
1000
0001
0010
0001
0100
0010
1000
0001
0100
0010
0100
0001
,
1000
0100
0010
0100
1000
0001
0010
0001
0100
0010
1000
0001
0100
0001
1000
0100
,
0010
0001
1000
0001
1000
0000
0000
0000
0100
0000
0010
0000
0000
0000
0001
0000
,
0000
0001
1000
0000
0001
0100
0010
0000
,
1000
0001
1000
0000
0100
0010
0000
0001
,
0000
0001
1000
0000
0010
0100
0001
1000
,
0100
1000
0010
0000
0100
0001
0000
1000
,
0000
1000
0100
0000
0010
0001
1000
0000
,
0100
0010
0001
0000
1000
0010
0000
0100
,
0000
0100
0001
0000
1000
0100
0010
0001
,
1000
0000
0000
0000
0010
0000
0000
0000
1000
0000
0000
0000
0010
0000
0000
0000
0000
0000
0000
0000
0000
0100
0000
0000
0001
0000
0000
0000
0000
0000
1000
0000
0000
0000
0000
0000
0000
0000
0000
0100
0000
0000
0010
0000
0000
0000
0000
0000
,
0001
0000
0100
0000
0010
0000
0000
1000
0010
0000
0100
0000
0001
0000
1000
0000
,
0001
0000
0010
0000
0100
0000
0000
1000
0010
0000
0100
0000
0000
0001
0100
0000
,
0010
0000
1000
0000
0001
0000
0000
0010
0100
0000
1000
0000
0001
0100
0001
0000
,
0010
0000
0100
0000
1000
0000
0000
0010
1000
0000
0010
0000
0000
0100
0001
0000
,
1000
0000
0100
0000
0010
0000
0000
0001
0100
0000
0010
0000
1000
0000
0001
0000
,
0100
0000
0001
0000
1000
0000
0000
0100
0010
0000
0001
0000
0000
0100
0010
0000
,
1000
0000
0010
0000
0100
0000
0000
0001
1000
0000
0100
0000
0010
0001
0010
0000
,
0100
0000
1000
0000
0010
0000
0000
0100
0001
0000
1000
0000
0000
0100
0010
0000
,
0001
0000
1000
0000
0010
0000
0000
0100
0001
0000
1000
0000
0100
0000
0010
0000
,
0001
0000
1000
0000
0010
0000
0000
0100
0001
0000
1000
0000
0000
0010
0100
0000
,
0001
0000
1000
0000
0001
0000
0000
0010
0100
0000
1000
0000
0010
0100
0001
0000
,
1000
0000
0100
0000
0040
0000
0030
0002
0203
0000
0320
0000
0030
2000
3200
0000
,
0320
0000
0032
0000
4003
0000
3000
0020
0230
0000
0302
0000
4003
0000
3200
0000
,
0320
0000
0032
0000
0203
0000
0300
0020
2030
0000
3002
0000
0003
2000
3020
0000
,
0230
0302
4003
3000
MMMM
0000
00M0
0000
;

//---------------dance-single - 19- (Owem)----------------
#NOTES:
     dance-single:
     19- (Owem):
     Challenge:
     19:
     1.000,1.000,0.211,0.578,1.000,2365.000,61.000,167.000,18.000,0.000:
00M0
0000
0000
0000
0000
0000
0000
0000
0000
0000
0000
0000
0000
0000
0000
0000
0000
0M00
0000
0000
0000
0000
0000
0000
0000
0000
0000
0000
0000
0000
0000
0000
0000
000M
0000
0000
0000
0000
0000
0000
0000
0000
0000
0000
0000
0000
0000
0000
0000
M000
0000
0000
0000
0000
0000
0000
0000
0000
0000
0000
0000
0000
0000
0000
,
0000
0M00
0000
0000
0000
0000
0000
0000
0000
0000
0000
0000
0000
0000
0000
0000
0000
00M0
0000
0000
0000
0000
0000
0000
0000
0000
0000
0000
0000
0000
0000
0000
0000
000M
0000
0000
0000
0000
0000
0000
0000
0000
0000
0000
0000
0000
0000
0000
0000
M000
0000
0000
0000
0000
0000
0000
0000
0000
0000
0000
0000
0000
0000
0000
,
0000
0200
0000
0000
0000
0000
0000
0000
0000
0000
0000
0000
0000
0000
0000
0000
0000
0320
0000
0000
0000
0000
0000
0000
0000
0000
0000
0000
0000
0000
0000
0000
0000
0032
0000
0000
0000
0000
0000
0000
0000
0000
0000
0000
0000
0000
0000
0000
0000
0203
0000
0000
0000
0000
0000
0000
0000
0000
0000
0000
0000
0000
0000
0000
,
0000
0320
0000
0000
0000
0000
0000
0000
0000
0000
0000
0000
0000
0000
0000
0000
0000
0230
0000
0000
0000
0000
0000
0000
0000
0000
0000
0000
0000
0000
0000
0000
0000
0302
0000
0000
0000
0000
0000
0000
0000
0000
0000
0000
0000
0000
0000
0000
0000
2003
0000
0000
0000
0000
0000
0000
0000
0000
0000
0000
0000
0000
0000
0000
,
3100
0000
0010
0001
0000
1000
0000
0010
0100
0000
0001
1000
0001
0010
0100
1000
,
0010
0000
0100
0001
0000
1000
0000
0100
1000
0000
0010
0100
0001
1000
0001
0010
,
0100
0000
1000
0010
0000
0100
0000
0001
1000
0000
0100
1000
0010
1000
0001
1000
,
0100
0000
0010
0001
0000
1000
0000
0010
0100
0000
0001
1000
0001
0010
0100
1000
,
0100
0000
0010
0001
0000
1000
0000
0001
0100
0000
0010
1000
0010
0100
0001
1000
,
0100
0000
0010
0001
0000
1000
0000
0001
0100
0000
0010
1000
0001
0010
0100
0010
,
0001
0000
1000
0010
0000
0100
0000
0001
1000
0000
0001
0100
0010
1000
0001
0010
,
0100
0000
1000
0010
0000
0100
0000
0001
0010
0000
0001
1000
0010
0100
0001
0100
,
0010
0000
1000
0200
0300
0020
0030
0002
0203
0300
0020
2030
3020
0230
0302
2003
,
3200
0300
0020
0032
0003
2000
3000
0020
0230
0300
0002
2003
3002
0023
0230
2300
,
3020
0030
0200
0304
0003
4000
3000
0400
0320
0030
0004
0403
0340
0230
0304
4003
,
3200
0000
0000
0300
0000
0000
0040
0000
0000
0034
0000
0000
0003
0000
0000
4000
0000
0000
3000
0000
0000
0040
0000
0000
0230
0000
0000
0300
0000
0000
0004
0000
0000
4003
0000
0000
3200
0000
0000
0340
0000
0000
0034
0000
4003
0000
3004
0000
,
0M03
0000
0000
0000
0000
0000
00M0
0000
0000
0000
0000
0000
1000
0100
0010
0001
1000
0001
0100
0010
1000
0001
0100
0001
,
1000
0010
0100
0001
1000
0100
0010
0100
1000
0001
1000
0010
0100
0001
1000
0001
0010
0100
1000
0001
0010
0001
1000
0100
,
0010
0100
1000
0001
0100
0001
1000
0010
0100
0001
1000
0100
0010
0001
0100
0001
1000
0100
0010
0001
1000
0100
1000
0010
,
0100
0001
1000
0010
0100
0001
0100
0010
1000
0001
1000
0100
0010
0100
1000
0001
0010
0001
1000
0100
1000
0001
1000
0010
,
0100
0001
1000
0100
1000
0001
0100
0010
1000
0001
0100
0001
1000
0010
1000
0001
0100
0010
0100
0001
1000
0100
0010
0001
,
1000
0100
1000
0010
0100
0001
1000
0100
1000
0001
0010
0001
1000
0100
0010
0100
1000
0001
0010
0001
0100
0010
1000
0001
,
0100
0001
1000
0010
1000
0001
0100
0001
0010
0100
1000
0001
0010
0001
1000
0100
0010
0001
1000
0100
1000
0001
0100
0010
,
1000
0001
0100
0010
0100
0001
1000
0100
0010
0100
1000
0001
0100
0001
0010
0100
1000
0001
1000
0010
0100
0001
1000
0010
,
1000
0000
0001
0000
0100
0000
0001
0000
0010
0000
0100
0000
1000
0000
0000
0000
0000
0000
0010
0000
0000
0100
0000
0000
0001
0000
1000
0000
0100
0000
1000
0000
0010
0000
0100
0000
0001
0000
1000
0000
0010
0000
1000
0000
0001
0000
0100
0000
,
0001
0010
0100
1000
0001
1000
0010
0100
0001
1000
0100
1000
0010
0100
0001
1000
0010
1000
0001
0100
0001
0010
0100
1000
,
0001
0010
0001
0100
0010
1000
0001
0100
0010
0100
0001
1000
0100
1000
0010
1000
0001
0100
0001
0010
0100
1000
0001
0010
,
0001
0100
0010
1000
0001
0100
0001
0010
0100
1000
0001
0010
0001
0100
0010
1000
0001
0100
0010
0100
0001
0010
0001
1000
,
0100
0000
0010
0000
0100
0000
1000
0000
0010
0000
0100
0000
0001
0000
0000
0000
0000
0000
1000
0000
0000
0010
0000
0000
0100
0000
0001
0000
1000
0000
0001
0000
0100
0000
0010
0000
1000
0000
0001
0000
0100
0000
0001
0000
0010
0000
0100
0000
,
1000
0001
0010
0001
0100
0010
0100
0001
1000
0010
1000
0100
0010
0001
1000
0100
1000
0001
1000
0010
0100
0001
1000
0100
,
0010
0100
1000
0001
0010
0001
0100
0010
1000
0001
0100
0001
0010
0100
1000
0001
0010
0001
0100
0010
1000
0001
0100
0010
,
0100
0001
1000
0010
1000
0100
0010
0001
1000
0100
1000
0001
0010
0001
0100
0010
1000
0001
0100
0001
1000
0100
0010
0100
,
1000
0000
0001
0000
1000
0000
0010
0000
0100
0000
0001
0000
1000
0000
0000
0000
0000
0000
0100
0000
0000
0010
0000
0000
0001
0000
1000
0000
0100
0000
1000
0000
0010
0000
0100
0000
0001
0000
1000
0000
0010
0000
1000
0000
0001
0000
0100
0000
,
0001
0010
0100
1000
0100
0010
0001
1000
0100
1000
0001
0010
0001
0100
0010
1000
0001
0100
0010
0100
0001
0010
0100
1000
,
0001
1000
0010
0100
0001
1000
0010
1000
0001
0100
0001
0010
0100
1000
0001
1000
0010
0100
0001
1000
0100
1000
0010
0100
,
0001
1000
0100
0010
0100
1000
0010
0100
0001
0100
0010
1000
0001
1000
0100
0010
0001
1000
0001
0100
0010
1000
0001
0100
,
0001
0000
1000
0000
0010
0000
1000
0000
0001
0000
0010
0000
0100
0000
0000
0000
0000
0000
1000
0000
0000
0010
0000
0000
0100
0000
0001
0000
1000
0000
0010
0000
1000
0000
0001
0000
0100
0000
0001
0000
0010
0000
0100
0000
1000
0000
0001
0000
,
0010
0001
0100
0010
1000
0001
0100
0001
1000
0100
0010
0100
1000
0001
0010
0001
0100
0010
1000
0001
0100
0010
0100
0001
,
0010
0001
1000
0100
0010
0100
1000
0001
1000
0010
0100
0001
1000
0010
1000
0100
0010
0001
0100
0001
1000
0100
0010
0100
,
1000
0001
0010
0001
1000
0100
0010
0001
1000
0001
0100
0010
1000
0001
0100
0001
1000
0010
1000
0001
0100
0010
0100
0001
,
1000
0100
0010
0100
1000
0001
0010
0001
0100
0010
1000
0001
0100
0001
1000
0100
0010
0100
1000
0001
0010
0001
0100
0010
,
1000
0001
0100
0010
1000
0001
0100
0001
0010
0100
1000
0001
0010
0001
1000
0100
0010
0100
1000
0001
0010
0001
0100
0010
,
1000
0001
0100
0010
0100
0001
0010
0001
1000
0100
0010
0100
1000
0001
0010
0001
0100
0010
1000
0001
0100
0001
1000
0100
,
0010
0001
1000
0100
1000
0001
0010
0001
0100
0010
1000
0001
0100
0010
0100
0001
1000
0100
1000
0001
0100
0001
0010
0100
,
1000
0001
0010
0001
1000
0100
1000
0001
0100
0010
0100
0001
1000
0100
0010
0100
1000
0001
0010
0001
0100
0010
1000
0001
,
0100
0001
1000
0010
1000
0001
0100
0010
0100
0001
1000
0100
0010
0100
1000
0001
0010
0001
0100
0010
1000
0001
0100
0001
,
1000
0100
0010
0100
1000
0001
0010
0001
0100
0010
1000
0001
0100
0001
1000
0100
0010
0001
1000
0001
0010
0100
1000
0001
,
0010
0001
0100
0010
1000
0001
0100
0001
1000
0100
1000
0010
0100
0001
1000
0100
0010
0100
1000
0001
0010
0001
0100
0010
,
1000
0100
1000
0001
0010
0001
0100
0010
1000
0001
0100
0001
0010
0100
1000
0001
0010
0001
0100
0010
1000
0001
0100
0010
,
0100
0001
1000
0100
0010
0001
1000
0100
1000
0001
0010
0001
0100
0010
1000
0001
0100
0001
1000
0100
0010
0100
1000
0001
,
0010
0001
0100
0010
1000
0001
0100
0001
1000
0001
0010
0100
1000
0001
0010
0001
0100
0010
1000
0001
0100
0010
0100
0001
,
0010
0001
1000
0100
0010
0100
1000
0001
0010
0001
0100
0010
1000
0001
0100
0001
1000
0100
0010
0001
1000
0100
1000
0001
,
0010
0000
0001
0000
0100
0000
0010
0000
1000
0000
0001
0000
0100
0000
0001
0000
1000
0000
0100
0000
0010
0000
0001
0000
0100
0000
0000
0000
0000
0000
0000
0000
0000
0010
0000
0000
1000
0000
0000
0000
0000
0000
0001
0000
0000
0000
0000
0000
,
0000
0010
0100
0000
1000
0000
0001
0000
0100
0000
0000
0010
1000
0000
0010
0000
,
0100
0000
0001
0000
0010
0000
0100
0000
1000
0000
0000
0010
2000
0000
3002
0000
,
0003
0020
0200
0030
2000
0300
0002
3000
0200
0003
0300
0020
2030
0000
3001
0000
,
0200
0000
0300
00M0
M000
0000
0000
0000
0020
0000
0000
0000
0230
0000
0000
0000
,
0302
2003
3002
0023
,
0230
0000
2300
0000
3100
0000
0000
0110
,
0020
0030
0000
0101
0101
0000
0000
0110
,
0020
0030
0000
1001
1001
0000
0000
0011
,
0020
0030
0000
0110
0110
0000
0000
1100
,
2000
3000
0000
1010
1010
0000
0000
0110
,
0200
0300
0000
0101
0101
0000
0000
0011
,
0020
0030
0000
0110
0110
0000
0000
1100
,
2000
3000
0000
1001
1001
0000
0000
0001
,
0101
0000
0000
0100
0010
0000
1000
0000
1001
0000
0000
0000
0001
0000
0012
0000
,
0003
0000
0020
0000
0030
0000
0200
0300
2100
0000
3000
0000
0020
0030
0210
0000
,
0301
0000
2000
0000
3200
0300
0120
0030
0210
0300
0000
0000
0020
0030
0012
0000
,
0003
0000
2000
0000
3000
0000
0020
0030
0120
0000
0030
0200
0001
0300
1002
0000
,
0023
0000
0230
0300
1200
0300
2000
3000
1020
0000
0030
0000
0200
0300
0102
0000
,
0003
0000
2000
0000
3000
0000
0210
0300
0120
0000
0030
0000
2000
3000
1002
0003
,
0002
0000
0023
0000
0230
0300
1200
0300
2100
0000
3000
0000
0020
0030
0210
0000
,
0300
0000
0200
0000
0300
0000
0002
0003
2001
3000
0000
1002
0003
0000
1001
0000
,
1000
0000
0020
0030
0110
0000
0110
0000
0210
0000
0300
0000
0002
0003
0201
0000
,
0300
0000
0020
0000
0030
0000
2000
3000
1002
0000
0003
0000
2000
3000
1200
0300
,
0100
0000
0020
0000
0032
0003
2001
3000
1002
0000
0003
0000
0200
0300
0120
0000
,
0030
0000
2000
0000
3000
0000
0002
0003
0101
0000
0000
0110
0000
0000
1010
0000
,
0000
0000
2000
0000
3002
0000
0023
0000
0130
0000
0000
1000
0200
0300
0020
0000
,
0030
0001
0200
0000
0320
0000
2030
0000
3002
0000
0003
0010
0200
0000
2300
0000
,
3020
0000
2030
0000
3200
0000
0320
0000
0032
0000
0003
0100
0020
0000
2030
0000
,
3000
0001
0200
0000
0320
0000
0230
0000
0302
0000
0003
1000
0200
0000
0320
0000
,
0031
1000
0020
0000
0230
0000
0302
0000
0003
0000
0000
0000
0000
00M0
0000
0000
,
0000
0000
0000
0000
0000
0000
0100
0010
0100
0001
1000
0001
0100
0010
1000
0001
0100
0001
1000
0010
0100
0001
1000
0100
,
0010
0100
1000
0001
1000
0010
0100
0001
1000
0001
0010
0100
1000
0001
0010
0001
1000
0100
0010
0100
1000
0001
0100
0001
,
1000
0010
0100
0001
1000
0100
0010
0001
0100
0001
1000
0100
0010
0001
1000
0100
1000
0010
0100
0001
1000
0010
0100
0001
,
0100
0010
1000
0001
1000
0100
0010
0100
1000
0001
0010
0001
1000
0100
1000
0001
1000
0010
0100
0001
1000
0100
1000
0001
,
0100
0010
1000
0001
0100
0001
1000
0010
1000
0001
0100
0010
0100
0001
1000
0100
0010
0001
1000
0100
1000
0010
0100
0001
,
1000
0100
1000
0001
0010
0001
1000
0100
0010
0100
1000
0001
0010
0001
0100
0010
1000
0001
0100
0001
1000
0010
1000
0001
,
0100
0001
0010
0100
1000
0001
0010
0001
1000
0100
0010
0001
1000
0100
1000
0001
0100
0010
1000
0001
0100
0010
0100
0001
,
1000
0100
0010
0100
1000
0001
0100
0001
0010
0100
1000
0001
1000
0010
0100
0001
1000
0010
1000
0001
0100
0001
0010
0100
,
1000
0000
0000
0000
0000
0000
0100
0000
0000
0010
0000
0000
0001
0000
1000
0000
0100
0000
1000
0000
0010
0000
0100
0000
0001
0000
1000
0000
0010
0000
1000
0000
0001
0000
0100
0000
0001
0000
0010
0000
0100
0000
1000
0000
0001
0000
1000
0000
,
0010
0100
0001
1000
0100
1000
0010
0100
0001
1000
0010
1000
0001
0100
0001
0010
0100
1000
0001
0010
0001
0100
0010
1000
,
0001
0100
0010
0100
0001
1000
0100
1000
0010
1000
0001
0100
0001
0010
0100
1000
0001
0010
0001
0100
0010
1000
0001
0100
,
0001
0010
0100
1000
0001
0010
0001
0100
0010
1000
0001
0100
0010
0100
0001
0010
0001
1000
0100
0010
0100
1000
0010
0100
,
0001
0000
0000
0000
0000
0000
1000
0000
0000
0010
0000
0000
0100
0000
0001
0000
1000
0000
0001
0000
0100
0000
0010
0000
1000
0000
0001
0000
0100
0000
0001
0000
0010
0000
0100
0000
1000
0000
0001
0000
0010
0000
0001
0000
0100
0000
0010
0000
,
0100
0001
1000
0010
1000
0100
0010
0001
1000
0100
1000
0001
1000
0010
0100
0001
1000
0100
0010
0100
1000
0001
0010
0001
,
0100
0010
1000
0001
0100
0001
0010
0100
1000
0001
0010
0001
0100
0010
1000
0001
0100
0010
0100
0001
1000
0010
1000
0100
,
0010
0001
1000
0100
1000
0001
0010
0001
0100
0010
1000
0001
0100
0001
1000
0100
0010
0100
1000
0001
1000
0010
0100
0001
,
1000
0000
0000
0000
0000
0000
0100
0000
0000
0010
0000
0000
0001
0000
1000
0000
0100
0000
1000
0000
0010
0000
0100
0000
0001
0000
1000
0000
0010
0000
1000
0000
0001
0000
0100
0000
0001
0000
0010
0000
0100
0000
1000
0000
0100
0000
0010
0000
,
0001
1000
0100
1000
0001
0010
0001
0100
0010
1000
0001
0100
0010
0100
0001
0010
0100
1000
0001
1000
0010
0100
0001
1000
,
0010
1000
0001
0100
0001
0010
0100
1000
0001
1000
0010
0100
0001
1000
0100
1000
0010
0100
0001
1000
0100
0010
0100
1000
,
0010
0100
0001
0100
0010
1000
0001
1000
0100
0010
0001
1000
0001
0100
0010
1000
0001
0100
0001
1000
0010
1000
0001
0010
,
0100
0000
0000
0000
0000
0000
1000
0000
0000
0010
0000
0000
0100
0000
0001
0000
1000
0000
0010
0000
1000
0000
0001
0000
0100
0000
0001
0000
0010
0000
0100
0000
1000
0000
0001
0000
0010
0000
0001
0000
0100
0000
0010
0000
1000
0000
0001
0000
,
0100
0001
1000
0100
0010
0100
1000
0001
0010
0001
0100
0010
1000
0001
0100
0010
0100
0001
0010
0001
1000
0100
0010
0100
,
1000
0001
1000
0010
0100
0001
1000
0010
1000
0100
0010
0001
0100
0001
1000
0100
0010
0100
1000
0001
0010
0001
1000
0100
,
0010
0001
1000
0001
0100
0010
1000
0001
0100
0001
1000
0010
1000
0001
0100
0010
0100
0001
1000
0100
0010
0100
1000
0001
,
0010
0000
0001
0000
0100
0000
0010
0000
1000
0000
0001
0000
0100
0000
0000
0000
0000
0000
0010
0000
0000
0100
0000
0000
0001
0000
0000
0000
0000
0000
1000
0000
0000
0100
0000
0000
0010
0000
0000
0000
0000
0000
0001
0000
0000
0100
0000
0000
,
0001
0000
1000
0010
1000
0000
0001
0100
0010
0000
0100
0001
1000
0000
0100
0010
,
0001
0000
1000
0001
1000
0000
0100
0010
0001
0000
1000
0100
1000
0000
0001
0010
,
0001
0000
0100
0010
1000
0000
0001
0100
0001
0000
1000
0100
0010
0000
0001
1000
,
0001
0000
0100
0010
1000
0000
0001
0100
0001
0000
1000
0100
0010
0000
0001
1000
,
0001
0000
0100
0010
0100
0000
0001
1000
0100
0000
0010
0001
1000
0000
0001
0100
,
0010
0000
1000
0010
0100
0000
0001
1000
0001
0000
0010
0100
1000
0000
0100
0010
,
0001
0000
1000
0100
1000
0000
0001
0100
0010
0000
0100
0001
1000
0000
0100
0010
,
0001
0000
0000
0000
0000
0000
1000
0000
0000
0001
0000
0000
0010
0000
0100
0000
1000
0000
0010
0000
1000
0000
0001
0000
0100
0000
0010
0000
1000
0000
0001
0000
0100
0000
0001
0000
1000
0000
0010
0000
0100
0000
0001
0000
1000
0000
0100
0000
,
0010
0100
1000
0001
1000
0010
0100
0001
1000
0001
0010
0100
1000
0001
0010
0001
1000
0100
0010
0100
1000
0001
0100
0001
,
1000
0010
0100
0001
1000
0100
0010
0001
0100
0001
1000
0100
0010
0001
1000
0100
1000
0010
0100
0001
1000
0010
0100
0001
,
0100
0010
1000
0001
1000
0100
0010
0100
1000
0001
0010
0001
1000
0100
1000
0001
1000
0010
0100
0001
1000
0100
1000
0001
,
0100
0010
1000
0001
0100
0001
1000
0010
1000
0001
0100
0010
0100
0001
1000
0100
0010
0001
1000
0100
1000
0010
0100
0001
,
1000
0100
1000
0001
0010
0001
1000
0100
0010
0100
1000
0001
0010
0001
0100
0010
1000
0001
0100
0001
1000
0010
1000
0001
,
0100
0001
0010
0100
1000
0001
0010
0001
1000
0100
0010
0001
1000
0100
1000
0001
0100
0010
1000
0001
0100
0010
0100
0001
,
1000
0100
0010
0100
1000
0001
0100
0001
0010
0100
1000
0001
1000
0010
0100
0001
1000
0010
1000
0001
0100
0001
0010
0100
,
1000
0000
0000
0000
0000
0000
0010
0000
0000
0100
0000
0000
0001
0000
1000
0000
0100
0000
1000
0000
0010
0000
0100
0000
0001
0000
1000
0000
0010
0000
1000
0000
0001
0000
0100
0000
0001
0000
0010
0000
0100
0000
1000
0000
0001
0000
1000
0000
,
0010
0100
0001
1000
0100
1000
0010
0100
0001
1000
0010
1000
0001
0100
0001
0010
0100
1000
0001
0010
0001
0100
0010
1000
,
0001
0100
0010
0100
0001
1000
0100
1000
0010
1000
0001
0100
0001
0010
0100
1000
0001
0010
0001
0100
0010
1000
0001
0100
,
0001
0010
0100
1000
0001
0010
0001
0100
0010
1000
0001
0100
0010
0100
0001
0010
0001
1000
0100
0010
0100
1000
0010
0100
,
0001
0000
0000
0000
0000
0000
1000
0000
0000
0010
0000
0000
0100
0000
0001
0000
1000
0000
0001
0000
0100
0000
0010
0000
1000
0000
0001
0000
0100
0000
0001
0000
0010
0000
0100
0000
1000
0000
0001
0000
0010
0000
0001
0000
0100
0000
0010
0000
,
0100
0001
1000
0010
1000
0100
0010
0001
1000
0100
1000
0001
1000
0010
0100
0001
1000
0100
0010
0100
1000
0001
0010
0001
,
0100
0010
1000
0001
0100
0001
0010
0100
1000
0001
0010
0001
0100
0010
1000
0001
0100
0010
0100
0001
1000
0010
1000
0100
,
0010
0001
1000
0100
1000
0001
0010
0001
0100
0010
1000
0001
0100
0001
1000
0100
0010
0100
1000
0001
1000
0010
0100
0001
,
1000
0000
0010
0100
0001
0000
0000
0000
1000
0000
0100
0000
0000
0000
0100
0000
,
0000
0100
0010
0000
0001
0100
0010
0000
,
1000
0001
1000
0000
0100
0010
0000
0001
,
0000
0001
1000
0000
0010
0100
0001
1000
,
0100
1000
0010
0000
0100
0001
0000
1000
,
0000
1000
0100
0000
0010
0001
1000
0000
,
0100
0010
0001
0000
1000
0010
0000
0100
,
0000
0100
0001
0000
1000
0100
0010
0001
,
1000
0000
0000
0000
0010
0000
0000
0000
1000
0000
0000
0000
0010
0000
0000
0000
0000
0000
0000
0000
0000
0100
0000
0000
0001
0000
0000
0000
0000
0000
1000
0000
0000
0000
0000
0000
0000
0000
0000
0100
0000
0000
0010
0000
0000
0000
0000
0000
,
0001
0000
0100
0000
0010
0000
0000
1000
0010
0000
0100
0000
0001
0000
1000
0000
,
0001
0000
0010
0000
0100
0000
0000
1000
0010
0000
0100
0000
0000
0001
0100
0000
,
0010
0000
1000
0000
0001
0000
0000
0010
0100
0000
1000
0000
0001
0100
0001
0000
,
0010
0000
0100
0000
1000
0000
0000
0010
1000
0000
0010
0000
0000
0100
0001
0000
,
1000
0000
0100
0000
0010
0000
0000
0001
0100
0000
0010
0000
1000
0000
0001
0000
,
0100
0000
0001
0000
1000
0000
0000
0100
0010
0000
0001
0000
0000
0100
0010
0000
,
1000
0000
0010
0000
0100
0000
0000
0001
1000
0000
0100
0000
0010
0001
0010
0000
,
0100
0000
1000
0000
0010
0000
0000
0100
0001
0000
1000
0000
0000
0100
0010
0000
,
0001
0000
1000
0000
0010
0000
0000
0100
0001
0000
1000
0000
0100
0000
0010
0000
,
0001
0000
1000
0000
0010
0000
0000
0100
0001
0000
1000
0000
0000
0010
0100
0000
,
0001
0000
1000
0000
0001
0000
0000
0010
0100
0000
1000
0000
0010
0100
0001
0000
,
1000
0000
0100
0000
0040
0000
0030
0002
0203
0000
0320
0000
0030
2000
3200
0000
,
0320
0000
0032
0000
4003
0000
3000
0020
0230
0000
0302
0000
4003
0000
3200
0000
,
0320
0000
0032
0000
0203
0000
0300
0020
2030
0000
3002
0000
0003
2000
3020
0000
,
0230
0302
4003
3000
MMMM
0000
00M0
0000
;
