#TITLE:Bass Kiks;
#SUBTITLE:;
#ARTIST:Ham;
#TITLETRANSLIT:;
#SUBTITLETRANSLIT:;
#ARTISTTRANSLIT:;
#CREDIT:;
#BANNER:kiks.banner.jpg;
#BACKGROUND:bass.bg.jpg;
#LYRICSPATH:;
#CDTITLE:CDTITLE.jpg;
#MUSIC:Ham - Bass Kiks.mp3;
#OFFSET:0.020;
#SAMPLESTART:100.000;
#SAMPLELENGTH:12.000;
#SELECTABLE:YES;
#BPMS:0.000=180.220,2.500=90.100,74.500=180.220,202.500=90.100,234.500=180.220;
#STOPS:;
#BGCHANGES:;
// cache tags:
#FIRSTBEAT:0.500;
#LASTBEAT:297.500;
#SONGFILENAME:Songs/Definitive Keyboard Megapack/Bass Kiks - Ham(Leone510)/Ham - Bass Kiks.sm;
#HASMUSIC:1;
#HASBANNER:1;
#MUSICLENGTH:133.622;
// end cache tags

//---------------dance-single - ----------------
#NOTES:
     dance-single:
     :
     Hard:
     11:
     0.871,1.000,1.000,0.471,0.232,530.000,222.000,63.000,0.000,7.000:
0000
0001
0000
0010
0200
2000
0000
0000
,
0000
0000
3000
0020
0030
2000
3000
0020
,
0030
2000
3000
0020
0330
0200
0300
0002
,
0003
2000
3000
0020
0030
0200
0300
0020
,
0030
0000
2000
0000
3000
0000
0002
0000
1003
0100
0020
0000
0000
0000
0200
0000
,
0300
2000
3000
0200
0300
0002
0003
0200
,
0300
2000
3000
0002
0033
0020
0030
0200
,
0300
0000
0000
2000
0000
0000
3000
0000
0000
0002
0000
0000
0003
0000
0000
0200
0000
0000
0300
0000
0000
0010
0000
0010
,
0000
0010
0000
0000
0100
0000
0000
0000
0000
0000
0000
0000
1000
0000
0000
0000
0200
0000
0000
0000
2000
0000
0000
0000
0000
0000
0000
0000
0010
0000
0000
0000
,
0000
0000
3001
0020
0030
2000
3000
0020
,
0030
1000
0001
0020
0330
0200
0300
0002
,
0003
2000
3100
0020
0030
0200
0310
0020
,
0130
0000
2000
0000
3100
0000
0002
0000
1003
0100
0020
0000
0000
0000
0200
0000
,
0300
2000
3001
0200
0300
0002
0003
0200
,
0300
2000
3100
0002
0033
0020
0030
0200
,
0300
0000
0000
2000
0000
0000
3000
0000
0000
0002
0000
0000
0003
0000
0000
0200
0000
0000
0300
0000
0000
0010
0000
0010
,
0000
0010
0000
0000
0100
0000
0000
0000
0011
0000
0000
0000
1000
0000
0000
0000
0101
0000
0000
0000
0200
0000
0000
0000
0000
0000
0000
0000
0000
0000
0000
0000
,
0000
0000
0000
0000
,
0000
0300
0000
0000
0000
1001
0100
0011
,
0100
1010
0100
0011
0100
0110
1000
1010
,
0100
0011
1000
0101
0100
1010
0010
0101
,
0010
0110
1000
0101
0010
1100
0001
1010
,
0100
0011
0100
0011
0101
1001
0100
0011
,
0100
1010
0100
0011
0100
0110
1000
1010
,
0100
0011
1000
0101
0100
1010
0010
0101
,
0010
0000
0110
0000
1000
0000
0101
0000
0010
0000
1100
0010
0001
0000
1010
0000
,
0101
0000
0011
0000
0100
0000
0011
1000
0001
0000
1001
0000
0100
0000
0011
0000
,
0100
1010
0100
0011
0100
0110
1000
1010
,
0100
0011
1000
0101
0100
1010
0010
0101
,
0010
0110
1000
0101
0010
1100
0001
1010
,
0100
0011
0100
0011
0101
1001
0100
0011
,
0100
1010
0100
0011
0100
0110
1000
1010
,
0100
0011
1000
0101
0100
1010
0010
0101
,
0010
0000
0110
0000
1000
0000
0101
0000
0010
0000
1100
0000
0001
0100
1010
0000
,
1001
0000
0011
1000
0100
0000
0011
0000
0101
0000
0110
0000
0000
0000
0000
0000
,
1100
0101
1100
0101
,
0110
1010
0000
1001
0000
0101
0000
0000
,
0101
0000
0110
0000
1010
0001
0110
1000
,
0101
0000
0010
0000
1010
0000
0100
0010
1001
0000
0110
0000
0000
0000
0000
0000
,
1100
0101
1100
0101
,
0110
1010
0000
1001
0000
0101
0000
0000
,
0101
0000
0000
0000
0110
0000
0000
0000
0100
0000
1001
0010
0100
0000
1010
0000
,
0101
0000
0011
0000
1000
0000
0101
0010
1000
0000
0110
0000
0000
0000
0000
0000
,
1100
0101
1100
0101
,
0110
1010
0000
1001
0000
0101
0000
0000
,
0101
0000
0110
0000
1010
0001
0110
1000
,
0101
0000
0010
0000
1010
0000
0100
0010
1001
0000
0110
0000
0010
0000
0101
0000
,
1000
0110
0001
1010
1000
0110
0001
1001
,
0100
1010
0100
1001
0010
0101
1000
0011
,
0100
0000
1010
0000
0100
0000
0011
0000
0100
0000
1001
0000
0100
0010
1000
0000
,
0101
0000
0011
0100
1000
0000
0101
0000
1010
0000
0100
0000
0000
0010
0000
1000
,
0001
0000
0100
0000
0000
0100
0000
0010
1000
0000
0100
0000
0000
0001
0000
0001
,
1000
0000
0010
0000
0000
0100
0000
0100
0010
0000
0100
0000
0000
0010
0000
1000
,
0001
0000
0100
0000
0000
0100
0000
0010
1000
0000
0100
0000
0000
0001
0000
0001
,
1000
0000
0010
0000
0000
0100
0000
0100
0010
0000
0202
0000
0013
0000
1310
0000
,
0100
0101
0010
2020
3100
0130
0001
1000
,
0001
0000
0100
0000
0000
0101
0000
0001
1010
0000
0110
0000
0101
0000
1010
0000
,
1001
0000
0110
0000
0011
0000
1010
0000
0110
0000
1100
0101
0110
1001
0101
1010
,
1001
0000
0101
0000
0100
1000
0100
0010
0001
0010
0100
1000
0010
0100
0010
0001
1000
0000
0000
0000
0101
0000
0000
0000
0010
0000
0000
0000
1100
0000
0000
0000
,
0010
0101
1000
0110
0001
0110
0100
1010
,
0100
0011
1001
1010
0100
1001
0010
0101
,
0010
1100
0010
0110
1000
0101
0010
1100
,
0001
1010
0101
1010
0100
0101
0010
1100
,
0010
0101
1000
0110
0001
0110
0100
1010
,
0100
0011
1001
1010
0100
1001
0010
0101
,
0010
0000
1100
0000
0010
0000
0110
0000
1000
0000
0101
1000
0010
0000
1100
0000
,
0101
0000
1010
0000
0101
0000
0001
1000
0100
0000
0101
0000
0010
0000
1100
0000
,
0010
0101
1000
0110
0001
0110
0100
1010
,
0100
0011
1001
1010
0100
1001
0010
0101
,
0010
1100
0010
0110
1000
0101
0010
1100
,
0001
1010
0101
1010
0100
0101
0010
1100
,
0010
0000
0101
0000
1000
0000
0110
0000
0001
0000
0110
1000
0100
0010
1000
0001
,
0100
1000
0011
0100
0001
0100
1000
0010
0100
0010
1001
0100
0010
0100
0001
1000
,
0010
0001
1100
0000
0010
0000
0101
0010
1000
0000
0102
0000
0000
0000
2003
0000
,
0000
3002
0000
0103
0000
0000
0000
0000
;

//---------------dance-single - Copied from----------------
#NOTES:
     dance-single:
     Copied from:
     Challenge:
     12:
     1.000,1.000,1.000,0.771,0.228,529.000,268.000,103.000,0.000,206.000:
0000
2001
0000
3011
0200
2000
0000
0000
,
0000
0000
3000
0020
0030
2000
3000
0020
,
0030
2000
3000
0020
0330
0200
0300
0002
,
0003
2000
3000
0020
0030
0200
0300
0020
,
0030
0000
2000
0000
3000
0000
0002
0000
1013
0100
0020
0000
0000
0000
0200
0000
,
0300
2000
3000
0200
0300
0002
0003
0200
,
0300
2000
3000
0002
0033
0020
0030
0200
,
0300
0000
0000
2000
0000
0000
3000
0000
0000
0002
0000
0000
0003
0000
0000
0200
0000
0000
0300
0000
0000
1010
0000
0110
,
0000
0110
0000
0000
0200
0000
0000
0000
0300
0000
0000
0000
2000
0000
0000
0000
3200
0000
0000
0000
2000
0000
0000
0000
0000
0000
0000
0000
0011
0000
0000
0000
,
0000
0000
3011
1020
0030
2000
3000
0020
,
0030
1010
1001
1020
0330
0200
0300
0002
,
0003
2000
3101
0020
0030
0200
0310
0020
,
0130
0000
2000
0000
3100
0000
0002
0000
1013
0100
0020
0000
0000
0000
0200
0000
,
0300
2000
3101
0200
0300
0002
0003
0200
,
0300
2000
3101
0002
0033
0020
0030
0200
,
0300
0000
0000
2000
0000
0000
3000
0000
0000
0002
0000
0000
0003
0000
0000
0200
0000
0000
1301
0000
0000
1010
0000
0110
,
0000
0011
0000
0000
1100
0000
0000
0000
0011
0000
0000
0000
1000
0000
0000
0000
0101
0000
0000
0000
0200
0000
0000
0000
0000
0000
0000
0000
0000
0000
0000
0000
,
0000
0000
0000
0000
,
0000
0300
0000
0000
0000
1011
0100
1011
,
0100
1101
0100
1011
0100
0111
1000
1011
,
0100
0111
1000
1101
0100
1011
0010
1101
,
0010
0111
1000
0111
0010
1110
0001
1110
,
0100
1011
0100
1011
1101
1011
0100
1011
,
0100
1011
0100
0111
0100
1110
1000
1011
,
0100
0111
1000
0111
0100
1011
0010
1101
,
0010
0000
0111
0000
1000
0000
0111
0000
0010
0000
1101
0010
0101
0000
1011
0000
,
1101
0000
1011
0000
1100
0000
0011
1000
0101
0000
1011
0000
0100
0000
1011
0000
,
0100
1101
0100
1011
0100
0111
1000
1011
,
0100
0111
1000
1101
0100
1011
0010
1101
,
0010
0111
1000
0111
0010
1110
0001
1110
,
0100
1011
0100
1011
1101
1011
0100
1011
,
0100
1011
0100
0111
0100
1110
1000
1011
,
0100
0111
1000
0111
0100
1011
0010
1101
,
0010
0000
0111
0000
1000
0000
0111
0000
0010
0000
1101
0010
0101
0000
1011
0000
,
1101
0010
1001
0000
1100
0000
0011
1000
0101
0000
0111
0000
0000
0000
0000
0000
,
1101
0111
1110
1101
,
0111
1110
0000
1101
0000
0111
0000
0000
,
1101
0000
0111
0000
1110
0001
1110
1000
,
0111
0000
0010
0000
1011
0000
0100
0010
1101
0000
0111
0000
0000
0000
0000
0000
,
1101
0111
1110
1101
,
0111
1011
0000
1011
0000
1101
0000
0000
,
1101
0000
0000
0000
1110
0000
0000
0000
0111
0000
1001
0010
0100
0000
1011
0000
,
0101
0000
0111
0000
1000
0000
1101
0010
1100
0000
0111
0000
0000
0000
0000
0000
,
1101
0111
1110
1101
,
0111
1110
0000
1101
0000
0111
0000
0000
,
1101
0000
0111
0000
1110
0001
1110
1000
,
0111
0000
0010
0000
1011
0000
0100
0010
1101
0000
1110
0000
0010
0000
0111
0000
,
1000
0111
0001
1110
1000
1110
0001
1011
,
0100
1011
0100
1101
0010
0111
1000
0111
,
0100
0000
1011
0000
0100
0000
1011
0000
0100
0000
1101
0000
0101
0010
1001
0000
,
0111
0000
0011
0100
1000
0000
0111
0000
1011
0000
0200
0000
0000
0320
0000
2030
,
3002
0000
0203
0000
0300
0200
0000
0320
2030
0000
3200
0000
0000
0302
0003
0002
,
2003
0000
3020
0000
0000
0230
0300
0200
0320
0000
0230
0000
0000
0320
0000
2030
,
3002
0000
0203
0000
0300
0200
0000
0320
2030
0000
3200
0000
0000
0302
0003
0002
,
2003
0000
0000
0000
3020
0000
0000
0000
0000
0200
0030
0000
0300
0000
0200
0000
0320
0000
0030
0000
0202
0000
0000
0000
0013
0000
0000
0000
1310
0000
0000
0000
,
0100
0101
0010
2020
3100
0130
0001
1000
,
0001
0000
0100
0000
0000
0101
0000
0001
1010
0000
0110
0000
0101
0000
1010
0000
,
1001
0000
0110
0000
0011
0000
1010
0000
0110
0000
1100
0101
0110
1001
0101
1010
,
1001
0000
0101
0000
0100
1000
0100
0010
0001
0010
0100
1000
0010
0100
0010
0001
1000
0000
0000
0000
1011
0000
0000
0000
0100
0000
0000
0000
1011
0000
0000
0000
,
0100
1101
0100
1011
0100
0111
1000
1011
,
0100
0111
1000
1101
0100
1011
0010
1101
,
0010
0111
1000
0111
0010
1110
0001
1110
,
0100
1011
0100
1011
1101
1011
0100
1011
,
0100
1011
0100
0111
0100
1110
1000
1011
,
0100
0111
1000
0111
0100
1011
0010
1101
,
0010
0000
0111
0000
1000
0000
0111
0000
0010
0000
1101
0010
0101
0000
1011
0000
,
1101
0000
1011
0000
1100
0000
0011
1000
0101
0000
1011
0000
0100
0000
1011
0000
,
0100
1101
0100
1011
0100
0111
1000
1011
,
0100
0111
1000
1101
0100
1011
0010
1101
,
0010
0111
1000
0111
0010
1110
0001
1110
,
0100
0000
1011
0000
0100
0000
1011
0000
1101
0010
1100
0000
0101
0000
1011
0000
,
0110
0000
1011
0000
1100
0000
0111
1000
0101
0000
1110
0001
1100
0000
1011
0100
,
0011
0000
0111
1000
0101
0000
0111
1000
0110
0000
1011
0100
1010
0001
1100
0001
,
1010
0000
0000
0000
0111
0000
0000
0000
0110
0000
0000
0000
1011
0000
0100
0000
0010
0000
0001
0000
2220
0000
0000
0000
0000
0000
0000
3330
2202
0000
0000
0000
,
0000
0000
0000
3303
2200
0000
0000
0000
0000
3300
0000
0000
0000
0000
0000
0000
0000
0000
0000
0000
0000
0000
0000
0000
0000
0000
0000
0000
0000
0000
0000
0000
;
