#TITLE:Fall;
#SUBTITLE:;
#ARTIST:KgZ;
#TITLETRANSLIT:;
#SUBTITLETRANSLIT:;
#ARTISTTRANSLIT:;
#CREDIT:;
#BANNER:fall-banner.png;
#BACKGROUND:fall-background.png;
#LYRICSPATH:;
#CDTITLE:moches sulfer-cdtitle.png;
#MUSIC:Fall.mp3;
#OFFSET:-0.056;
#SAMPLESTART:37.380;
#SAMPLELENGTH:15.100;
#SELECTABLE:YES;
#BPMS:0.000=179.980,176.000=89.990,220.000=179.980,292.000=89.990;
#STOPS:;
#BGCHANGES:176.000=fall-2.png=1.000=1=0=0,
223.500=fall-background.png=1.000=1=0=1,
308.000=fall-2.png=1.000=1=0=1,
99999=-nosongbg-=1.000=0=0=0 // don't automatically add -songbackground-
;
// cache tags:
#FIRSTBEAT:0.000;
#LASTBEAT:296.250;
#SONGFILENAME:Songs/KBU/Fall (moches + SulferDragon)/Fall.sm;
#HASMUSIC:1;
#HASBANNER:1;
#MUSICLENGTH:117.420;
// end cache tags

//---------------dance-single - ----------------
#NOTES:
     dance-single:
     :
     Hard:
     11:
     1.000,1.000,1.000,0.009,0.890,618.000,283.000,1.000,0.000,0.000:
1001
0000
0000
1000
0000
0000
1000
0000
0100
0000
0000
0100
0000
0000
0100
0000
,
0010
0000
0000
0010
0000
0000
0010
0000
0001
0000
0000
0001
0000
0000
0011
1100
,
0011
0000
0000
0001
0000
0000
0001
0000
0010
0000
0000
0010
0000
0000
0010
0000
,
0100
0000
0000
0100
0000
0000
0100
0000
1000
0000
0000
1000
0000
0000
1000
0000
,
0101
0010
1001
0010
0100
1000
0101
1000
,
0100
0000
0010
0000
1100
0000
0010
0000
0001
0000
0110
0000
0110
0000
1100
0011
,
1100
0010
1001
0010
0100
1000
0101
0010
,
0001
0000
0010
0000
1001
0000
0100
0000
1000
0000
0101
0000
1010
0000
0011
1100
,
0011
0100
0011
0100
1000
0100
1001
0010
,
0100
0000
1000
0000
0101
0000
1000
0000
0100
0000
0011
0000
1100
0000
1001
0110
,
1001
0001
1001
0001
,
1001
0000
0000
0000
1001
0000
0000
0000
0001
1000
0001
1000
0001
1000
0001
1000
,
0011
0000
0000
0011
0000
0000
0011
0000
0110
0000
0000
0110
0000
0000
0110
0000
,
0101
0000
0000
0101
0000
0000
0101
0000
1001
0000
0000
1001
0000
0000
1001
0100
,
1010
0000
0000
1010
0000
0000
1010
0000
0110
0000
0000
0110
0000
0000
0110
0000
,
1001
0000
0000
0000
0000
0000
0000
0000
0000
0000
1001
0000
1001
0000
1001
0010
,
1100
0000
0000
1100
0000
0000
1100
0000
0110
0000
0000
0110
0000
0000
0110
0000
,
1010
0000
0000
1010
0000
0000
1010
0000
1001
0000
0000
1001
0000
0000
1001
0010
,
0101
0000
0000
0101
0000
0000
0101
0000
0110
0000
0000
0110
0000
0000
0110
0000
,
1001
0000
0000
0000
0000
0000
0000
0000
0000
0000
1001
0000
1001
0000
1001
0010
,
1100
0101
0101
0101
0001
1001
1001
1001
,
1000
0000
1010
0000
1010
0000
1010
0000
0010
0000
0110
0000
0110
0000
0110
0001
,
1010
1100
1100
1100
1000
1001
1001
1001
,
0001
0000
0101
0000
0101
0000
0101
0000
0100
0000
0110
0000
0110
0000
0110
1000
,
0101
1100
1100
1100
1000
1010
1010
1010
,
0010
0000
0011
0000
0011
0000
0011
0000
0001
0000
0101
0000
0101
0000
0101
1000
,
0110
0100
0110
0100
,
0110
0000
0000
0000
0110
0000
0000
0000
0100
0010
0100
0010
0100
0010
0100
0010
,
1100
0000
0000
1100
0000
0000
0000
0000
,
0101
0000
0000
0101
0000
0000
0101
0000
1001
0000
0000
1001
0000
0000
1001
0110
,
1001
0000
0000
1100
0010
0000
0000
0000
,
1000
0010
0100
0001
1000
0100
0010
0001
1000
0010
0100
0001
1000
0100
0010
0001
,
1000
0001
1000
0001
1000
0001
1000
0001
1000
0001
1000
0100
0010
0001
0010
0100
,
1001
0000
0000
0000
0000
0000
0110
0000
0000
0000
0000
0000
0000
0000
1001
0110
,
1001
0100
0010
0001
1000
0100
0010
0001
1000
0010
0100
0001
1000
0010
0100
0001
,
1000
0000
0100
0000
0010
0000
0001
0000
0010
0000
0100
0000
1000
0000
0100
0010
,
0101
0000
0000
0101
0000
0000
0101
0000
0011
0000
0000
0011
0000
0000
0011
0000
,
1001
0000
0000
1001
0000
0000
1001
0000
1010
0000
0000
1010
0000
0000
1010
0001
,
0110
0000
0000
0110
0000
0000
0110
0000
0011
0000
0000
0011
0000
0000
0011
0000
,
1001
0000
0000
0000
0000
0000
0000
0000
0000
0000
0101
0000
0101
0000
0101
0010
,
1001
0000
0000
1001
0000
0000
1001
0000
1100
0000
0000
1100
0000
0000
1100
0000
,
0110
0000
0000
0110
0000
0000
0110
0000
1010
0000
0000
1010
0000
0000
1010
0001
,
1010
1000
1010
1000
,
1010
0000
0000
0000
1010
0000
0000
0000
1000
0010
1000
0010
1000
0010
1000
0010
,
0100
0000
0010
0001
0010
0000
0010
0000
0010
0000
0010
0000
0100
0000
0100
0000
0100
0000
1000
0000
1000
0000
1000
0000
,
1000
0000
0100
0001
0100
0000
0100
0000
0100
0000
0100
0000
0010
0000
0010
0100
0000
0000
0001
0000
0001
1000
0100
0010
,
1001
0000
0000
0000
0000
0000
0000
0000
0000
0000
1010
0000
0101
0000
0000
0000
0000
0000
0000
0000
0000
1001
0000
0000
0000
0000
0000
0110
0000
0000
0000
0000
0000
1100
0000
0011
0000
0000
0000
0000
0000
0000
0110
0000
1001
0000
0110
0000
,
1001
0000
0000
0000
0000
0000
0000
0000
0000
0000
1001
0000
0110
0000
0000
0000
0000
0000
0000
0000
0000
0101
0000
0000
0000
0000
0000
1010
0000
0000
0000
0000
0000
1100
0000
0011
0000
0000
0000
0000
0000
0000
0101
0000
1010
0000
0101
0000
,
1010
0000
0100
0010
0001
0000
0001
0000
0001
0000
0001
0000
0010
0000
0010
0000
0010
0000
1000
0000
1000
0000
1000
0000
,
1000
0000
1000
0100
0010
0000
0010
0000
0010
0000
0010
0000
0001
0000
0001
0010
0000
0000
0100
0000
0100
0001
0010
1000
,
0101
0000
0000
0000
0000
0000
0000
0000
0000
0000
0101
0000
1010
0000
0000
0000
0000
0000
0000
0000
0000
1100
0000
0000
0000
0000
0000
1010
0000
0000
0000
0000
0000
1010
0000
0101
0000
0000
0000
0000
0000
0000
1100
0000
0011
0000
1100
0000
,
0011
0000
0000
0000
0000
0000
0000
0000
0000
0000
0101
0000
1010
0000
0000
0000
0000
0000
0000
0000
0000
0110
0000
0000
0000
0000
0000
0110
0000
0000
0000
0000
0000
0110
0000
1001
0000
0000
0000
0000
0000
0000
1100
0000
0011
0000
1100
0000
,
0011
0000
0100
1000
0100
0000
0010
0000
0010
0000
0010
0000
0100
0000
0100
0000
0100
0000
1000
0000
1000
0000
1000
0000
,
0100
0000
0001
0010
0001
0000
0100
0000
0100
0000
0100
0000
1000
0000
1000
0100
0000
0000
0010
0000
0010
0100
1000
0100
,
1000
0000
0100
0010
0001
0000
0100
0000
0100
0000
0100
0000
1000
0000
1000
0000
1000
0000
0010
0000
0010
0000
0010
0000
,
1001
0000
0000
0000
0000
0000
0001
0000
0000
0000
0110
0000
1001
0000
0000
0000
0000
0000
0001
0000
0000
0010
0000
0000
,
1001
0000
0000
0010
0000
0000
1001
0000
0000
0000
0110
0000
1001
0000
0000
0000
0000
0000
1001
0000
0010
0000
1000
0000
,
0110
0000
0000
0110
0000
0000
0000
0000
,
1100
0000
0000
1100
0000
0000
1100
0000
0110
0000
0000
0110
0000
0000
0110
1001
,
0110
0000
0000
1010
0100
0000
0000
0000
,
0100
0010
0001
1000
0010
0100
0001
0010
0100
1000
0010
0100
0001
0010
0100
1000
,
0010
0100
0010
0100
0010
0100
0010
0100
0010
0100
0010
1000
0100
0010
0001
0010
,
1001
0000
0000
0000
0000
0000
1001
0000
0000
0000
0000
0000
0000
0000
1001
0110
,
1001
0010
0100
1000
0001
0010
0100
1000
0001
0100
0010
1000
0001
0100
0010
1000
,
0001
0000
0010
0000
0100
0000
1000
0000
0100
0000
0010
0000
0001
0000
0100
0010
,
0101
0011
0011
0011
0010
0110
0110
0110
,
0100
0000
1100
0000
1100
0000
1100
0000
1000
0000
1001
0000
1001
0000
1001
0100
,
0011
0101
0101
0101
0100
0110
0110
0110
,
0010
0000
0011
0000
0011
0000
0011
0000
0001
0000
1001
0000
1001
0000
1001
0100
,
0011
0101
0101
0101
0100
1100
1100
1100
,
1000
0000
1010
0000
1010
0000
1010
0000
0010
0000
0011
0000
0011
0000
0011
1000
,
0101
0001
0101
0001
,
0101
0000
0000
0000
0101
0000
0000
0000
0001
0100
0001
0100
0001
0100
0001
0100
,
1001
0000
0020
0000
,
0000
0030
0000
0000
0000
0000
0000
0000
0000
0000
0000
0000
0000
0000
0000
0000
;

//---------------dance-single - ----------------
#NOTES:
     dance-single:
     :
     Challenge:
     13:
     1.000,1.000,1.000,0.009,1.000,762.000,350.000,1.000,0.000,40.000:
0110
0000
0000
0100
0000
0000
0100
0000
0001
0000
0000
0001
0000
0000
0001
0000
,
0010
0000
0000
0010
0000
0000
0010
0000
0001
0000
0000
0001
0000
0000
0101
1010
,
0101
0000
0000
0100
0000
0000
0100
0000
0001
0000
0000
0001
0000
0000
0001
0000
,
0010
0000
0000
0010
0000
0000
0010
0000
0001
0000
0000
0001
0000
0000
0001
0000
,
0110
0000
0000
0100
1010
0000
0100
0000
0001
0000
0000
0001
1010
0000
0001
0000
,
0010
0000
0000
0010
1100
0000
0010
0000
0001
0000
1100
0001
1100
0000
0101
1010
,
0101
0000
0000
0100
1010
0000
0100
0000
0001
0000
0000
0001
1010
0000
0001
0000
,
0010
0000
0000
0010
1100
0000
0010
0000
0001
0000
1100
0001
1100
0000
0101
1010
,
0101
0000
0000
0100
1010
0000
0100
0000
0001
0000
0000
0001
1010
0000
0001
0000
,
0010
0000
0000
0010
1100
0000
0010
0000
0001
0000
1100
0001
1100
0000
0101
1010
,
1101
0000
0000
0100
1010
0000
0100
0000
1011
0000
0000
0001
1010
0000
0001
0000
,
1011
0000
0000
0010
1101
0000
0010
0000
1011
0100
1000
0010
1101
0010
0100
0001
,
0110
0000
0000
0110
1000
0000
0101
0000
0110
0000
0000
0110
1000
0000
0101
0000
,
0110
0000
0000
0110
1000
0000
0101
0000
0110
0000
1000
0110
1000
0000
1001
0110
,
1001
0000
0000
1001
0010
0000
0101
0000
1001
0000
0000
1001
0100
0000
1010
0000
,
1100
0000
0000
0000
0010
0000
0000
0000
0000
0000
0010
0000
0010
0000
0110
1001
,
0110
0000
0000
0110
1000
0000
0101
0000
0110
0000
0000
0110
1000
0000
0101
0000
,
0110
0000
0000
0110
1000
0000
0101
0000
0110
0000
1000
0110
1000
0000
1001
0110
,
1001
0000
0000
1001
0010
0000
0101
0000
1001
0000
0000
1001
0100
0000
1010
0000
,
1100
0000
0000
0000
0010
0000
0000
0000
0000
0000
0010
0000
0010
0000
0110
1001
,
0110
0000
0001
0110
0001
0000
0101
0000
0110
0000
0001
0110
0001
0000
0101
0000
,
0110
0000
0001
0110
0001
0000
0101
0000
0110
0000
0001
0110
0001
0000
1001
0110
,
1001
0000
0100
1001
0100
0000
0101
0000
1001
0000
0010
1001
0010
0000
1010
0000
,
1100
0000
0010
0000
0010
0000
0010
0000
0000
0000
0100
0000
0100
0000
0110
1001
,
0110
0000
0001
0110
0001
0000
0101
0000
0110
0000
0001
0110
0001
0000
0101
0000
,
0110
0000
0001
0110
0001
0000
0101
0000
0110
0000
0001
0110
0001
0000
1001
0110
,
1101
0000
0100
1001
0100
0000
0101
0000
1101
0000
0010
1001
0010
0000
1010
0000
,
1101
0000
0010
0000
1011
0000
0010
0000
1101
0010
0001
0100
1011
0100
0010
1000
,
0111
0000
0100
1011
0100
0000
0100
0000
,
0110
0000
0000
0110
1000
0000
0101
0000
0110
0000
1000
0110
1000
0000
1100
0011
,
1100
0000
0100
1010
0100
0000
0100
0000
,
1000
0100
0010
0100
0001
0010
0001
0100
1000
0100
0010
0100
0001
0010
0100
1000
,
0101
0010
0001
0010
0001
0010
0001
0010
0001
0010
0001
0010
0100
1000
0010
0100
,
1011
0000
0000
0000
1000
0000
0111
0000
1000
0000
0001
0000
0001
0000
1001
0110
,
1001
0010
0100
1000
0001
0010
0100
1000
0001
0100
0010
1000
0001
0100
0010
1000
,
0110
0000
1100
0000
0101
0000
1001
0000
0110
0000
1010
0000
0011
0000
0110
1001
,
0110
0000
0000
0110
1000
0000
0101
0000
0110
0000
0000
0110
1000
0000
0101
0000
,
0110
0000
0000
0110
1000
0000
0101
0000
0110
0000
1000
0110
1000
0000
1001
0110
,
1001
0000
0000
1001
0010
0000
0101
0000
1001
0000
0000
1001
0010
0000
1010
0000
,
1100
0000
0000
0000
0010
0000
0000
0000
0000
0000
0010
0000
0010
0000
0110
1001
,
0110
0000
0000
0110
1000
0000
0101
0000
0110
0000
0000
0110
1000
0000
0101
0000
,
0110
0000
0000
0110
1000
0000
0101
0000
0110
0000
1000
0110
1000
0000
1001
0110
,
1011
0000
0000
1001
0010
0000
0101
0000
1011
0000
0000
1001
0010
0000
1010
0000
,
1101
0000
0000
0000
1011
0000
0000
0000
1101
0010
1000
0100
1011
0100
0010
0001
,
1000
0000
0010
0001
0010
0000
0100
0000
0100
0000
0100
0000
1000
0000
1000
0000
1000
0000
0010
0000
0010
0000
0010
0000
,
1000
0000
0010
0001
0010
0000
0100
0000
0100
0000
0100
0000
1000
0000
1000
0100
0000
0000
0100
0000
0001
1000
0010
0100
,
1001
0000
0000
0000
0000
0000
0000
0000
0000
0000
1001
0000
0110
0000
0000
0000
0000
0000
0000
0000
0000
1100
0000
0000
0000
0000
0000
1010
0000
0000
0000
0000
0000
1100
0000
0011
0000
0000
0000
0000
0000
0000
1100
0000
1010
0000
0101
0000
,
1001
0000
0000
0000
0000
0000
0000
0000
0000
0000
1001
0000
0110
0000
0000
0000
0000
0000
0000
0000
0000
1100
0000
0000
0000
0000
0000
1010
0000
0000
0000
0000
0000
1100
0000
0011
0000
0000
0000
0000
0000
0000
1100
0000
1010
0000
0101
0000
,
1001
0000
0010
0001
0010
0000
0100
0000
0100
0000
0100
0000
1000
0000
1000
0000
1000
0000
0010
0000
0010
0000
0010
0000
,
1000
0000
0010
0001
0010
0000
0100
0000
0100
0000
0100
0000
1000
0000
1000
0100
0000
0000
0100
0000
0001
1000
0010
0100
,
1001
0000
0000
0000
0010
0000
0001
0000
0010
0000
1001
0000
0110
0000
0000
0000
0100
0000
0000
0000
0100
1010
0000
0000
1000
0000
0000
0101
1000
0000
0000
0000
1000
0011
0000
1100
0010
0000
0000
0000
0010
0000
1100
0000
1010
0000
0101
0000
,
1001
0000
0000
0000
0010
0000
0001
0000
0010
0000
1001
0000
0110
0000
0000
0000
0100
0000
0000
0000
0100
1010
0000
0000
1000
0000
0000
0101
1000
0000
0010
0000
0000
0011
0000
1100
0010
0000
0000
0000
0001
0000
1100
0000
1010
0000
0101
0000
,
1001
0000
0000
0000
0010
0000
0001
0000
0010
0000
1001
0000
0110
0000
0000
0000
0100
0000
0000
0000
0100
1010
0000
0000
1000
0000
0000
0101
1000
0000
0000
0000
1000
0011
0000
1100
0010
0000
0000
0000
0010
0000
1100
0000
1010
0000
0101
0000
,
1001
0000
0000
0000
0010
0000
0001
0000
0010
0000
1001
0000
0110
0000
0000
0000
0100
0000
0000
0000
0100
1010
0000
0000
1000
0000
0000
0101
1000
0000
0010
0000
0000
0011
0000
1100
0010
0000
0000
0000
0010
0000
1100
0000
1010
0000
0101
0000
,
1001
0000
0000
0000
0010
0000
0001
0000
0010
0000
1001
0000
0110
0000
0000
0000
0100
0000
0000
0000
0100
1010
0000
0000
1000
0000
0000
0101
1000
0000
0000
0000
1000
0011
0000
1100
0010
0000
0000
0000
0010
0000
1100
0000
1010
0000
0101
0000
,
1011
0000
0000
0000
0000
0000
0100
0000
0000
0000
0110
0000
1011
0000
0000
0000
0000
0000
0100
0000
0000
1010
0000
0000
,
1101
0000
0000
0000
0000
0000
1010
0000
0000
0000
0000
0000
1011
0000
0000
0000
0000
0000
1010
0000
0100
0000
0000
0000
1101
0000
0000
0010
0000
0000
0001
0000
0000
0100
0000
0000
1011
0000
0000
0100
0000
0000
0010
0000
0000
1000
0000
0000
,
0111
0000
0100
1011
0100
0000
0100
0000
,
0110
0000
0000
0110
1000
0000
0101
0000
0110
0000
1000
0110
1000
0000
1100
0011
,
1100
0000
0100
1010
0100
0000
0100
0000
,
1000
0100
0010
0100
0001
0010
0001
0100
1000
0100
0010
0100
0001
0010
0100
1000
,
0101
0010
0001
0010
0001
0010
0001
0010
0001
0010
0001
0010
0100
1000
0010
0100
,
1011
0000
0000
0000
1000
0000
0111
0000
1000
0000
0001
0000
0001
0000
1001
0110
,
1001
0010
0100
1000
0001
0010
0100
1000
0001
0100
0010
1000
0001
0100
0010
1000
,
0110
0000
1100
0000
0101
0000
1001
0000
0110
0000
1010
0000
0011
0000
0110
1001
,
0110
0000
0001
0110
0001
0000
0101
0000
0110
0000
0001
0110
0001
0000
0101
0000
,
0110
0000
0001
0110
0001
0000
0101
0000
0110
0000
0001
0110
0001
0000
1001
0110
,
1001
0000
0100
1001
0100
0000
0101
0000
1001
0000
0010
1001
0010
0000
1010
0000
,
1100
0000
0010
0000
0010
0000
0010
0000
0000
0000
0100
0000
0100
0000
0110
1001
,
0110
0000
0001
0110
0001
0000
0101
0000
0110
0000
0001
0110
0001
0000
0101
0000
,
0110
0000
0001
0110
0001
0000
0101
0000
0110
0000
0001
0110
0001
0000
1001
0110
,
1101
0000
0100
1001
0100
0000
0101
0000
1101
0000
0010
1001
0010
0000
1010
0000
,
1101
0000
0010
0000
1011
0000
0010
0000
1101
0010
0001
0100
1011
0100
0010
1000
,
1111
0000
0121
0000
,
0000
0030
0000
0000
0000
0000
0000
0000
0000
0000
0000
0000
0000
0000
0000
0000
;
