#TITLE:The Imperial March;
#SUBTITLE:(Darth Vader's Theme);
#ARTIST:Metallica;
#TITLETRANSLIT:;
#SUBTITLETRANSLIT:;
#ARTISTTRANSLIT:;
#CREDIT:Wavanova;
#BANNER:Imperial March Banner.png;
#BACKGROUND:Metallica - Imperial March1.png;
#LYRICSPATH:;
#CDTITLE:wavanova06.jpg;
#MUSIC:Metallica - Star Wars Imperial March.mp3;
#OFFSET:0.000;
#SAMPLESTART:124.300;
#SAMPLELENGTH:12.000;
#SELECTABLE:YES;
#BPMS:0.000=66.000,20.000=111.000,90.833=75.000,155.500=111.000,183.625=150.000,206.000=111.000;
#STOPS:;
#BGCHANGES:20.250=Metallica - Imperial March2.png=1.000=1=0=1,
189.667=Metallica - Imperial March1.png=1.000=0=0=1,
192.333=Metallica - Imperial March2.png=1.000=0=0=1,
194.667=Metallica - Imperial March1.png=1.000=0=0=1,
196.000=Metallica - Imperial March2.png=1.000=0=0=1,
198.667=Metallica - Imperial March1.png=1.000=0=0=1,
201.000=Metallica - Imperial March2.png=1.000=0=0=1,
203.667=Metallica - Imperial March1.png=1.000=0=0=1,
206.000=Metallica - Imperial March2.png=2.000=0=0=1,
233.750=Metallica - Imperial March1.png=1.000=1=0=1,
99999=-nosongbg-=1.000=0=0=0 // don't automatically add -songbackground-
;
// cache tags:
#FIRSTBEAT:0.250;
#LASTBEAT:237.500;
#SONGFILENAME:Songs/keyboard/new metalica/Metallica - Star Wars Imperial March.sm;
#HASMUSIC:1;
#HASBANNER:1;
#MUSICLENGTH:149.141;
// end cache tags

//---------------dance-single - ----------------
#NOTES:
     dance-single:
     :
     Hard:
     10:
     0.568,0.677,0.570,0.885,0.660,359.000,85.000,132.000,0.000,21.000:
0000
0000
2000
0000
3000
0000
0000
0000
0002
0000
0000
0000
0003
0000
0000
2000
0000
0000
3000
0000
0000
0000
0020
0000
,
0000
0000
0130
0000
0002
0000
0000
0000
0000
0000
0003
0000
0000
0000
0000
0000
0000
0000
0000
0000
0000
0010
0000
0000
,
0100
0000
0000
0001
0000
0000
0000
2000
0000
0000
3000
0000
0000
0000
0020
0000
0000
0000
0030
0000
0200
0000
0000
0000
,
0300
0000
0000
0002
0000
0003
0000
0000
1000
0000
0020
0000
0000
0000
0030
0000
0100
0000
0000
0000
0002
0000
1000
0000
,
0000
0000
1000
0000
0000
0100
0000
0000
0010
0000
0003
0000
0000
0000
0000
1000
0000
0000
0001
0000
0000
1001
0000
0000
,
0000
0110
0000
0000
0002
0000
0003
0000
2020
0000
0000
3030
0001
0000
0000
0202
,
0000
0000
0000
0000
0000
0303
0000
0010
0000
0000
0000
0000
0000
1000
0002
0000
,
0100
0000
0010
0000
0000
0000
0000
0003
0000
2020
0000
0000
3030
0202
0000
0000
,
0000
0000
0000
0303
0000
0020
0000
0000
0000
0000
0030
1000
1000
0000
0001
0000
,
0010
0000
0000
0000
0001
0000
0000
1001
0000
0000
0000
0110
0000
0000
0002
0000
,
0000
0000
1000
0000
0000
0000
0000
0003
0010
0000
0110
0000
0000
0000
0010
0000
,
0000
1000
0000
0000
0000
0001
0000
1010
0000
1010
0000
0000
0100
0000
0000
0000
,
0020
0000
0000
0000
0002
0030
0000
0000
0000
0000
0000
2003
0000
0000
3020
0000
,
0000
0230
0000
0000
0300
0002
0000
2003
,
0000
0000
0000
0000
0000
0000
0000
0000
0000
0000
0000
0000
3020
0000
0000
0000
0000
0000
0000
0000
0000
0000
0000
0000
0000
0000
0000
0000
0000
0000
0000
0000
0000
0000
0000
0000
0000
0000
0000
0000
0000
0000
0000
0000
0000
0000
0000
0000
0000
0000
0000
0000
0000
0000
0000
0000
0000
0000
0000
0000
0230
0000
0000
0000
0000
0000
0000
0000
0000
0000
0000
0000
0000
0000
0000
0000
0000
0000
0000
0000
0000
0000
0000
0000
0000
0000
0000
0000
0000
0000
0000
0000
0000
0000
0000
0000
0302
0000
0000
0000
0000
0000
0000
0000
0000
0000
0000
0000
0000
0000
0000
0000
0000
0000
0000
0000
0000
0000
0000
0000
0000
0000
0000
0000
0000
0000
0000
0000
0000
0000
0000
0000
0000
0000
0000
0000
0000
0000
0000
0000
0000
0000
0000
0000
0023
0000
0000
0000
0000
0000
0000
0000
0000
0000
0000
0000
0000
0000
0000
0000
0000
0000
0000
0000
0000
0000
0000
0000
0000
0030
0000
0000
0000
0000
0000
0000
0000
0000
0000
0000
0000
0000
0000
0000
0000
0000
0000
0000
0000
0000
0000
0000
,
0200
0000
0300
0000
1001
0000
0000
0010
0000
0100
0000
0110
0000
0000
0000
0001
,
0000
0001
0000
1010
0000
0000
0200
0000
0000
0000
0302
0000
0000
0000
0000
0003
,
1000
0020
0000
0000
0000
0000
0000
0030
0000
0100
0000
0000
0000
0000
0002
0000
,
2000
0003
0000
0000
3001
0100
0010
1001
0000
0100
0010
0010
0000
0000
0000
2002
,
0000
0000
0000
3003
0000
0000
0220
0000
0000
0000
0000
0330
0000
0000
2002
0000
,
0000
0000
0000
3003
0000
2200
0000
0000
0000
3300
0000
0011
0000
2200
0000
0000
,
0000
0300
3000
0000
0022
0000
0000
0000
0033
2200
0000
0011
0000
0001
3300
0010
,
0000
0101
0000
1000
0000
1001
0000
0100
0000
0011
0000
0200
0000
0300
0000
0000
,
0000
0000
0000
0000
0000
1100
0000
0011
0010
0100
0010
1001
0000
1100
0100
0011
,
0000
0110
0010
0001
1000
1100
0100
0010
0001
0110
0000
0011
0010
0100
1000
1001
,
0100
0010
0011
0000
0100
0001
2000
0000
3000
0010
0100
0002
0000
0000
1003
0010
,
0100
0001
0000
0010
0100
2000
0000
0000
3001
0010
0200
0000
0300
0001
1000
0200
,
0000
0300
1000
0001
0010
0001
0000
1000
1001
0100
0000
0002
0000
0000
0000
0100
,
0003
1000
0010
0000
0100
0000
1001
0010
0100
0010
0000
0001
1000
2002
3003
0000
,
0100
0001
0010
0000
0000
0100
0010
0001
0000
2000
0000
0010
3200
0000
0301
0010
,
0001
0000
2000
0000
3010
0100
0002
0000
0000
0013
0100
2000
0000
0000
3001
0100
,
0000
0000
0000
0010
0000
0000
0100
0000
0000
0001
0000
0000
1000
0000
0000
0200
0000
0000
0000
0000
0000
0000
0000
0000
1300
0000
0000
0001
0000
0000
0000
0000
0020
0000
0000
0000
0000
0000
0000
0000
1031
0000
0000
0000
0000
0000
0000
0000
,
0010
0000
0011
1000
0000
1101
0010
0001
0000
1010
0101
0011
,
0000
1001
1010
0101
0000
1011
0000
0101
1011
1001
1000
0010
,
0100
0001
0012
0100
1000
0100
0010
0003
0110
0100
0000
1001
,
0020
0000
0030
0000
0002
0000
1003
0000
0020
0000
0000
0130
,
0000
0002
0000
1000
0000
0000
0000
0003
0000
0000
0000
0000
,
0000
0001
0000
0000
1000
0000
0010
0000
1000
0000
0100
0020
0000
0000
0030
0002
,
0000
0000
0000
0000
0000
0000
0000
0000
1000
0100
1000
0000
0000
0000
0000
0000
0000
0000
0000
0000
2220
0000
0000
0000
3000
0000
0003
0000
0330
0000
1001
0000
,
0000
0000
0000
0000
0000
0000
0000
0000
0000
0010
0000
0000
0000
0000
0000
0000
0000
0000
0000
0000
0000
1102
0000
0000
0000
0000
0000
0000
0000
0000
0010
0000
0000
0000
0000
0000
0000
0000
0100
0000
0000
0000
1013
0000
0000
0000
0000
0000
,
0000
0000
0000
0000
0000
0000
1100
0000
0000
0000
0000
0000
0101
0000
0000
0000
2002
0000
3003
0000
0000
0000
0000
0000
0000
0000
0000
0000
0000
0000
0000
0000
0000
0000
0000
0000
0000
0000
0000
0020
0000
0000
0000
0000
0000
0000
0000
0000
,
0230
0000
0000
0300
0002
0000
0000
0000
1003
0000
0000
0210
0000
0000
0000
0301
,
0000
0000
0010
0002
0000
0000
0000
0000
0000
0003
0000
2020
0000
0030
3000
0100
,
0000
0000
0202
0000
0003
0300
0010
0000
1000
0001
0100
0002
0000
0000
0003
0010
,
0200
0000
0000
0000
1300
0000
0000
0001
0010
0002
0000
0000
0000
0003
1000
0200
,
0000
0000
0300
1000
0000
0000
1101
1110
0000
0000
0001
0000
0000
1111
1111
0000
,
0000
0000
0000
0000
0000
0000
0000
0000
0001
0000
0010
0000
0000
0222
0000
0000
,
0003
0000
1331
0000
0000
0001
0000
2020
3000
0000
0100
0032
0000
2000
0000
0003
,
0000
3120
0000
0000
0030
1002
0000
0000
0000
1000
0000
1000
0003
0000
0010
0000
,
0100
0000
0020
0000
0030
0002
0000
0003
2000
0000
0100
0000
3020
0000
0000
2002
,
3030
0000
0000
1003
0200
0000
0000
0000
0000
0300
0010
0000
0000
0001
2000
0000
,
0000
0010
0000
0010
0000
0000
0010
3000
2202
3300
0000
0000
1010
0000
0003
0000
,
0110
0000
0000
0001
0000
0000
1000
0100
1000
0001
0000
0000
0010
0002
0000
0000
,
0000
0003
1000
0000
0100
0000
1001
0200
0300
0010
0000
0002
0000
0010
0000
0000
,
0000
0103
1000
0000
0100
0020
0000
0000
0130
0000
0000
0001
0012
0000
0000
0000
,
0000
0000
0000
0000
2003
0000
3000
0010
0000
0100
0002
0000
0000
0000
0003
2000
,
3000
0100
0010
0002
0000
0000
0000
0003
1000
0200
0000
0000
0300
0010
0000
0000
,
0001
1000
0100
0020
0000
0000
0030
0001
2000
0000
0000
3000
0100
0000
0000
0010
,
0011
0000
0000
0100
0000
0000
1111
2222
0000
0000
0000
0000
0000
0000
0000
0000
,
0000
0000
0000
3333
0000
0000
0000
0000
;

//---------------dance-single - ----------------
#NOTES:
     dance-single:
     :
     Medium:
     8:
     0.359,0.358,0.054,0.583,0.396,280.000,8.000,87.000,0.000,0.000:
0000
2000
0000
0000
3000
0000
0002
0000
0000
0003
2000
0000
0000
3000
0000
0001
,
0000
0000
0000
1000
0000
0000
0000
0000
0000
0000
0000
0000
0000
0000
0001
0000
,
0000
0000
0000
1000
0000
0200
0000
0000
0300
0002
0000
0000
0003
0000
2000
0000
,
3000
0000
0002
0000
0003
0000
1000
0000
0000
0000
0000
0001
0000
0000
0000
1000
,
0000
0001
0000
0000
1000
0000
0001
0000
0000
0000
1001
0000
0100
0000
0001
0000
,
0000
1000
0000
0000
0000
0000
0000
0000
0000
0001
0000
0000
0000
0000
0000
1000
,
0000
0000
0000
0000
1000
0000
0000
0001
0000
0000
0000
0000
2000
0000
0000
3002
,
0000
0000
2003
0000
0000
0000
0000
3000
0000
0001
0000
0000
0000
1001
0000
0000
,
0000
0000
0000
0000
0002
0000
0000
0000
0000
0000
0013
0000
0000
0100
1000
0000
,
0200
0000
0000
0000
0300
0000
0000
0001
0000
0000
0000
2000
0000
0000
0000
0000
,
3000
0000
0000
1000
0000
0000
0000
0000
0001
0000
0020
0000
0000
0000
0030
0000
,
0000
0002
0000
0000
0000
0000
0103
0000
0002
0000
0000
0000
0003
0100
0000
0000
,
0020
0000
0000
0032
0000
0000
0000
0000
0000
0000
0000
2003
0000
0000
0000
3200
,
0000
2300
0000
0000
0000
3002
0000
2003
,
0000
0020
3000
0000
0000
0032
0000
0000
0200
0003
0000
0000
0302
0000
0000
0000
,
2003
0000
0000
3000
1001
0000
0000
0000
0100
0000
0001
0000
0020
0000
0030
0000
,
0001
0010
0000
0002
0000
0000
0003
0010
0000
0001
0001
0010
0000
0000
0100
0000
,
0002
0000
0000
0000
0000
0000
0000
0003
0000
0020
0000
0000
0000
0030
0001
0000
,
0020
0000
0000
0030
0100
0000
1000
0000
0100
0000
0001
0000
0010
0002
0000
0010
,
0000
0000
0000
0000
0000
0003
0200
0000
0000
0000
0000
0300
0000
2000
0000
0000
,
0000
0000
0000
0000
0000
3200
0000
0000
0000
0000
0000
0320
0000
0032
0000
0000
,
0000
0000
0003
0000
0020
0000
0000
0000
0030
1000
0000
0100
0000
0000
0000
0000
,
0001
0000
0000
0010
0000
0000
0001
0000
0000
0000
1001
0000
0000
0000
0000
0000
,
0000
0000
0000
0000
0000
0001
0000
1000
0000
0000
0001
0000
1000
0000
0000
0002
,
0000
0000
0010
0000
0000
0000
0010
0000
0000
0000
0000
0010
0000
0000
0000
0000
,
0010
0000
0000
0003
1000
0000
0100
0010
0000
0001
0000
0010
0100
0000
0001
0010
,
0000
0100
1000
0000
0100
0000
0000
0000
0001
0010
0100
0000
0000
1000
0100
0000
,
0010
0000
0001
1000
0000
0000
0100
0000
0000
0000
0000
0000
0001
2000
0000
3000
,
0000
0001
2000
0000
0000
3000
0001
2000
0000
0000
0000
0000
0000
0000
3000
0000
,
0001
2000
0000
0000
3000
0001
0200
0000
0000
0300
0001
0000
0020
0000
0030
0000
,
0020
0000
0000
0030
0000
0000
0002
0003
0000
0000
1000
0000
0000
0000
0000
0001
,
0000
0000
2000
0000
0000
3000
0000
0000
0000
0002
0000
0003
0000
0000
0200
0000
,
0300
0000
0000
0020
0000
0030
0002
0003
2000
0000
3000
0000
0000
0002
0000
0003
,
0000
0000
2000
3000
0000
0000
0100
0000
0000
0000
0001
0000
1000
0000
0000
0000
,
0002
0000
0003
0000
0000
2000
3000
0000
0000
0000
0100
0001
0000
0000
1000
0000
,
0002
0000
0000
0003
0000
0000
0010
0000
0001
0000
0000
1000
0001
1000
0000
0000
,
0001
1000
0001
0000
0000
0000
0000
0001
0000
0000
0010
0000
0001
0000
1000
0000
,
0000
0001
0000
1000
0000
0000
0001
0000
1000
0000
0002
0010
0000
0000
0000
0000
,
0100
0000
0000
1000
0000
0100
0000
0000
0000
0000
0010
0000
0000
0003
0000
0000
,
1001
0000
0000
0000
0100
0000
0000
0001
0000
0000
0001
1000
0000
0100
0010
0000
,
0000
0000
0001
0000
1000
0000
0001
0000
0000
0000
0000
0000
0000
0200
0000
0000
,
0300
0002
0000
0000
2003
0000
0000
3000
1001
0000
0000
0100
0002
0000
0000
0003
,
0010
0000
0010
0000
0001
0000
0000
0000
0000
0000
0000
1000
0000
0000
0002
0000
,
0000
0003
1000
0000
0000
0002
0000
0000
0013
0000
0001
0010
0002
0000
0003
0010
,
0002
0000
0000
0003
1000
0000
0000
0100
1000
0100
0002
0000
0000
0003
1000
0100
,
0000
0000
0000
0002
0000
0010
0003
0200
0000
0300
0001
0000
0000
1000
0002
0000
,
0000
0000
0000
0000
0000
0000
0000
0000
0000
0000
0000
0000
0000
2003
0000
0000
,
0000
0000
3001
0000
0010
0000
0000
0002
0000
0000
0103
0000
1000
0000
0000
0100
,
0000
0100
0001
0000
0020
0000
0000
0000
0032
0000
0000
0013
0000
0001
0000
0000
,
0010
0000
0001
0000
0000
0010
0000
0000
0001
0000
0010
0000
0000
0001
0000
0010
,
0000
0001
0100
0000
0001
0000
1000
0100
,
0000
0010
0001
0010
0002
0000
1000
0000
0000
0010
0000
0000
0100
0000
1000
0100
,
0000
0000
0000
0010
0000
0000
0103
1000
0100
0001
0000
0000
0000
0010
0100
0000
,
0000
0000
0001
0000
1000
0000
0001
1000
0002
0000
0000
0000
0003
0010
0000
0000
,
0000
0100
0000
0000
0001
0000
0000
0000
0100
0000
0000
0000
2000
0000
0000
0000
,
0000
3000
0000
0002
0000
0000
0003
2000
0000
0000
3002
0000
0000
0000
0000
0000
,
0003
0000
2000
0000
0000
3000
0000
0000
0001
2000
0000
0000
0000
3000
0000
0000
,
0000
0001
0000
0000
0000
0000
0000
0001
0000
1000
0000
0000
0001
0000
0000
0000
,
0110
0000
0000
0000
0000
0000
0000
2002
0000
0000
0000
0000
0000
0000
0000
0000
,
0000
0000
0000
3003
0000
0000
0000
0000
;

//---------------dance-single - ----------------
#NOTES:
     dance-single:
     :
     Easy:
     4:
     0.278,0.318,0.154,0.362,0.000,213.000,23.000,54.000,0.000,0.000:
0000
0000
0000
0000
0000
1000
0000
0001
,
0000
0020
0000
0000
0000
0000
0030
1000
,
0000
0001
2000
0000
3000
0002
0003
2000
,
3000
0020
0030
0002
0000
2003
0000
3000
,
0200
0001
1000
0001
0000
0100
0001
1000
,
0000
1001
0000
0000
1001
0000
0000
0000
,
0110
0000
0000
0000
0002
0000
2003
3002
,
0000
0000
0000
0000
0000
0000
0003
1000
,
0000
0000
0000
0001
0000
0000
2000
0000
,
3002
0000
0000
2003
0000
3020
0000
0000
,
0000
0032
0000
0000
0103
0020
0000
0030
,
0000
0001
0000
1000
0001
0000
1000
0000
,
1001
0000
0100
0000
0000
0010
0100
0001
,
0000
0010
0000
0000
0000
0001
0000
0010
,
0000
0100
0000
1000
0100
0000
0010
0000
,
0001
1000
0001
1000
,
0000
0000
0001
0000
0000
2000
0000
0000
,
0001
0010
0000
0000
0000
0001
0000
0010
,
0100
3001
0000
0010
,
0200
0000
0000
0302
0000
0000
2003
0000
,
0000
0000
0002
3000
0000
0013
0200
0000
,
0000
0300
0002
0000
0003
1000
0002
0000
,
0000
0000
0000
0000
0003
2000
0000
0000
,
0000
0000
3001
0000
1000
0001
1000
0000
,
0000
1000
0001
0000
1000
0000
0001
1000
,
0001
0000
0010
0100
0000
1001
0000
0001
,
0000
1000
1001
0000
0000
0001
0000
1000
,
0000
0000
0110
0001
1000
0000
0000
0110
,
0000
0001
0000
0000
1000
0001
1000
0000
,
0000
1000
0000
0010
0000
0000
0010
1000
,
0010
0001
0000
1000
0001
1000
0010
0000
,
0100
0001
1000
0002
0000
1000
0003
0020
,
0030
0000
0002
0000
0000
0000
0000
1000
,
0000
1000
0000
0000
1000
0000
0000
0003
,
0000
1000
0000
0001
0000
0000
0100
0000
,
0001
0001
1000
0000
0100
0000
0000
1001
,
0000
1001
0000
0100
0000
0001
1000
0001
,
0000
1000
0100
0001
1000
2002
0000
3003
,
0010
0000
0002
0000
2003
0000
0000
3000
,
1001
0000
0100
0000
0001
1000
0000
0000
,
0000
0001
0000
1001
0000
0100
0002
0000
,
2003
0000
3002
0000
2003
3001
2000
0000
,
3001
1000
0002
0000
0003
0200
0000
0302
,
0000
0103
0000
0002
0103
1000
0200
0300
,
0002
0103
0002
0003
,
0020
0000
0030
0000
0001
0000
0000
0001
,
0000
0000
0000
0000
1000
0000
0000
0001
,
0000
1000
0000
0000
1001
0001
1000
0000
,
0000
0001
1000
0001
1000
0000
0001
1000
,
0002
0000
0000
0010
0000
0010
0003
0000
,
1001
0100
0001
0000
0000
0010
0001
1000
,
0001
0000
1000
0001
0002
0000
0013
0000
,
0200
0300
0001
2000
0000
3000
0000
0001
,
0000
1000
0000
1001
0000
0000
0100
0000
,
0001
1100
0000
0001
,
0000
0000
1000
0000
0001
0011
0000
0000
,
0000
1100
0000
0000
0000
1100
0000
1100
,
0000
1100
0000
0000
0002
0000
0003
0000
,
0200
0000
0300
2002
0000
0000
0000
0000
,
0000
0000
0000
3003
0000
0000
0000
0000
;

//---------------dance-single - ----------------
#NOTES:
     dance-single:
     :
     Beginner:
     1:
     0.109,0.159,0.007,0.040,0.000,107.000,1.000,6.000,0.000,0.000:
0000
0000
0000
0000
,
1000
0000
0000
0000
,
0000
0001
0000
0000
,
0100
0000
0000
0001
,
1000
0000
0000
0000
,
0001
0000
0000
0000
,
1000
0000
0000
0000
,
0002
0000
0000
0000
,
0000
0000
0003
0000
,
0000
0000
0000
1000
,
0000
0000
0000
0010
,
0000
0000
0001
0000
,
1000
0000
0000
0001
,
0000
0000
1000
0000
,
0000
0001
0000
1000
,
0000
0001
0000
0001
,
0000
0001
0000
0100
,
1000
0000
0001
0000
,
0001
0000
1000
0000
,
0001
0000
0001
0000
,
0001
0001
0000
1000
,
0000
0001
0000
1000
,
0000
0000
0001
0000
,
0000
0000
0000
0000
,
0000
0000
0000
0000
,
0000
1000
0001
1000
,
0010
0000
0100
0100
,
0100
0010
0100
0100
,
0001
0000
1000
0100
,
0001
0000
1000
0100
,
0001
1000
0000
0100
,
0001
0000
1000
0000
,
1000
0010
0001
1000
,
0000
0100
0001
1000
,
0001
0000
0100
0001
,
1000
0010
0000
0001
,
1000
0001
1000
0000
,
0001
1000
0002
0000
,
0000
0000
0000
0000
,
0003
0000
0000
1000
,
1000
0000
0000
0001
,
0000
0000
0001
0000
,
1000
0000
0000
0000
,
0000
0001
0000
0000
,
1000
0000
0100
0000
,
0001
0000
1000
0000
,
0000
0000
0001
1000
,
0000
0001
1000
0001
,
1000
0000
0001
0000
,
1000
0001
0000
1000
,
0001
1000
0001
0000
,
1000
0000
0002
0000
,
0000
0000
0003
0000
,
1000
0020
0000
0000
,
0000
0030
0000
0000
0000
0000
0000
0000
0000
0000
0000
0000
0000
0000
0000
0000
0000
0000
0000
0000
0000
0000
0000
0000
0000
0000
0000
0000
0000
0000
0000
0000
0000
0000
0000
0000
0000
0000
0000
0000
0000
0000
0000
0000
0000
0000
0000
0000
0000
0000
0000
0000
0000
0000
0000
0000
0000
0000
0000
0000
0000
0000
0000
0000
0000
0000
0000
0000
0000
0000
0000
0000
0000
0000
0000
0000
0000
0000
0000
0000
0000
0000
0000
0000
0000
0000
0000
0000
0000
0000
0000
0000
0000
0000
0000
0000
0000
0000
0000
0000
0000
0000
0000
0000
0000
0000
0000
0000
0000
0000
0000
0000
0000
0000
0000
0000
0000
0000
0000
0000
0000
0000
0000
0000
0000
0000
0000
0000
0000
0000
0000
0000
0000
0000
0000
0000
0000
0000
0000
0000
0000
0000
0000
0000
0001
0000
0000
0000
0000
0000
0000
0000
0000
0000
0000
0000
0000
0000
0000
0000
0000
0000
0000
0000
0000
0000
0000
0000
0000
0000
0000
0000
0000
0000
0000
0000
0000
0000
0000
0000
0000
0000
0000
0000
0000
0000
0000
0000
0000
0000
0000
0000
,
0000
1000
0000
0001
,
0000
0000
1000
0000
,
0010
0000
0100
0000
,
0001
0000
2002
0000
,
0000
3003
0000
0000
;
