#TITLE:Dark Comet's Reign;
#SUBTITLE:;
#ARTIST:Luca Turilli;
#TITLETRANSLIT:;
#SUBTITLETRANSLIT:;
#ARTISTTRANSLIT:;
#CREDIT:Arvin;
#BANNER:../bn-Rhapsody.png;
#BACKGROUND:../Rhapsody-bg.png;
#LYRICSPATH:;
#CDTITLE:;
#MUSIC:11.Dark Comet's Reign (Bonus Track).ogg;
#OFFSET:0.140;
#SAMPLESTART:33.293;
#SAMPLELENGTH:12.000;
#SELECTABLE:YES;
#BPMS:0.000=190.000;
#STOPS:;
#BGCHANGES:;
// cache tags:
#FIRSTBEAT:3.000;
#LASTBEAT:883.000;
#SONGFILENAME:Songs/Rhapsody of Fire/Dark Comet's Reign - [Arvin]/cometreign.sm;
#HASMUSIC:1;
#HASBANNER:1;
#MUSICLENGTH:283.820;
// end cache tags

//---------------dance-single - ----------------
#NOTES:
     dance-single:
     :
     Challenge:
     14:
     1.000,1.000,0.433,0.416,1.000,2141.000,123.000,118.000,80.000,0.000:

0000
0000
0000
2MMM
,
0000
3001
0200
0000
0000
0000
M0MM
0000
,
0301
0010
0100
2MMM
,
0000
3001
0020
0000
0000
0000
0000
0000
,
0130
0000
0000
0000
1100
0000
1100
0000
1000
0001
1000
0001
M2M0
0000
0000
0000
,
0000
0000
0000
0302
,
0000
0000
1003
0001
1MM1
0000
2MMM
0000
,
0000
3001
0200
0000
0000
0000
M0MM
0000
,
0301
0010
0100
2MMM
,
0000
3001
0020
0000
0000
0000
0000
0000
,
0130
0000
0000
0000
1100
0000
1100
0000
1000
0001
1000
0001
M2M0
0000
0000
0000
,
0000
0000
0000
M3M2
,
0000
0000
0000
0000
1003
0010
1000
0001
0100
0001
1000
0100
1000
0010
1000
0010
,
0100
0001
0100
0001
0010
0100
1000
0001
1000
0001
1000
0100
0010
0001
1000
0001
,
1000
0100
0010
0001
0100
0010
1000
0100
0010
0001
1000
0010
1000
0001
0100
0001
,
1000
0010
0100
0001
1000
0001
1000
0100
0010
0001
1000
0010
0100
0001
0010
0100
,
1000
0001
1000
0100
0010
0001
0100
0010
1000
0100
0010
0001
1000
0100
1000
0100
,
0010
0001
0010
0001
0100
0010
1000
0001
1000
0001
1000
0010
0100
0001
1000
0001
,
1000
0010
0100
0001
0010
0100
1000
0010
0100
0001
1000
0100
1000
0001
0010
0001
,
1000
0100
0010
0001
1000
0001
1000
0010
0100
0001
1000
0100
0010
0001
0100
0010
,
1000
0001
1000
0010
0100
0001
0010
0100
1000
0010
0100
0001
1000
0100
0010
0100
,
1000
0010
0100
0001
0100
0010
1000
0001
0010
0100
1000
0001
0010
0100
1000
0100
,
0010
0001
1000
0001
0010
0001
1000
0100
0010
0001
0100
0010
1000
0100
0010
0001
,
1000
0100
1000
0010
0100
0001
0010
0100
1000
0001
0010
0001
0100
0010
1000
0100
,
0010
0001
1000
0001
1000
0100
0010
0100
1000
0001
1000
0001
2MM0
0000
0000
0000
,
3200
0320
0230
2300
,
3002
0203
0000
0320
,
2030
0000
3020
0000
0230
0000
0301
0010
,
0110
0000
0100
1100
000M
0000
0002
0000
,
0023
0230
0320
0032
,
2003
3020
0230
0302
,
0023
0230
2300
3002
,
2003
0000
0000
0000
3010
0000
1000
0000
0010
0000
1000
0000
0001
0000
1000
0100
,
1000
0000
0001
0010
0001
0000
0100
0010
0100
0000
0001
0100
0001
0000
1000
0010
,
1000
0000
0010
0100
0010
0000
1000
0001
1000
0000
0100
0010
0100
0000
1000
0001
,
1000
0000
0010
0100
0010
0000
1000
0100
1000
0000
0001
0010
0001
0000
1000
0100
,
1000
0000
0001
0100
0001
0000
1000
0001
1000
0000
0010
0100
M01M
0000
1000
0100
,
0010
0000
0001
0100
0010
0000
1000
0001
0010
0000
0001
1000
0010
0000
1000
0100
,
0010
0000
0001
0100
0010
0000
1000
0001
0100
0000
0001
1000
0100
0000
0010
0001
,
0100
0000
0010
1000
0100
0000
1000
0100
0010
0000
0001
0010
0100
0000
1000
0001
,
0100
0000
0010
1000
0001
0000
1000
0100
1000
0100
1000
0100
1000
0000
0001
0010
,
0001
0000
1000
0100
1000
0000
0010
0100
0010
0000
1000
0010
1000
0000
0001
0100
,
0001
0000
0100
0010
0100
0000
0001
1000
0001
0000
0010
0100
0010
0000
0001
1000
,
0001
0000
0100
0010
0100
0000
0001
0010
0001
0000
1000
0100
1000
0000
0001
0010
,
0001
0000
1000
0010
1000
0000
0001
1000
0001
0000
0100
0010
M10M
0000
0001
0010
,
0100
0000
1000
0010
0100
0000
0001
1000
0100
0000
1000
0001
0100
0000
0001
0010
,
0100
0000
1000
0010
0100
0000
0001
1000
0010
0000
1000
0001
0010
0000
0100
1000
,
0010
0000
0100
0001
0010
0000
0001
0010
0100
0000
1000
0100
0010
0000
0001
1000
,
0010
0000
0100
0001
1000
0000
0001
0010
0001
1000
0010
1000
0001
0000
0010
0000
,
0001
1000
1001
0001
0010
0100
1100
0100
,
0010
0001
1001
1000
1010
0010
0110
0100
,
0001
1000
1100
0100
0010
0001
1001
1000
,
1010
0010
0110
0100
0001
1000
0002
0000
,
0000
0203
0000
0000
0320
0000
2030
0000
,
0000
3000
0001
0000
0010
0000
0100
0000
,
1000
0001
0100
0020
,
0000
0000
1030
0001
1000
0001
1001
1000
,
0100
1000
0010
0100
0101
0001
0100
0010
,
0100
0001
0010
0100
1100
0100
0010
0001
,
0010
0100
1000
0001
1001
0001
1000
0001
,
0010
0100
1000
1001
1001
1001
1000
0100
,
1000
0001
1001
1000
0100
0010
0011
0010
,
0100
1000
1001
0001
0101
0100
0110
0010
,
1000
0001
0011
0010
0100
1000
1001
0001
,
0101
0100
0110
0010
1000
0001
2000
0000
,
0000
3020
0000
0000
0230
0000
0302
0000
,
0000
2003
0000
0000
3100
0000
0010
0000
,
0001
1000
0010
0200
,
0000
0302
0000
0003
1001
1001
1001
0001
,
0010
0001
0100
0010
1010
1000
0010
0100
,
0010
1000
0100
0010
0011
0010
0100
1000
,
0100
0010
0001
1000
0002
0000
2003
0000
,
0000
0000
0000
0000
0000
0000
0000
0000
3002
0000
0000
0000
1003
0100
1000
0100
,
0010
0001
0010
0001
0100
0010
0100
0010
1000
0001
1000
0001
1000
0100
1000
0010
,
0100
0001
0010
0001
0100
0010
1000
0100
0010
0001
0100
0010
1000
0100
0010
0001
,
1000
0100
1000
0001
0010
0100
1000
0010
0100
0001
0010
0100
1000
0001
0010
0001
,
0100
0010
1000
0100
1000
0010
0100
0001
0010
0100
1000
0010
0100
0001
0010
0100
,
1000
0001
0010
0001
1000
0100
0010
0001
0100
0010
1000
0100
0010
0001
1000
0100
,
1000
0010
0100
0001
0010
0001
1000
0100
0010
0001
1000
0001
0100
0010
1000
0001
,
0010
0001
1000
0100
1000
0010
0100
0001
0010
0100
1000
0001
1000
0010
1000
0100
,
0010
0001
0100
0001
0010
0100
1000
0010
0100
0001
0010
0100
1000
0010
0100
0001
,
1000
0010
1000
0001
0100
0010
1000
0100
0010
0001
0100
0010
1000
0001
0100
0001
,
0010
0100
1000
0010
1000
0100
0010
0001
0100
0010
1000
0100
0010
0001
0100
0010
,
1000
0001
0100
0001
1000
0010
0100
0001
0010
0100
1000
0010
0100
0001
1000
0010
,
1000
0100
0010
0001
0100
0001
1000
0010
0100
0001
1000
0001
0010
0100
1000
0001
,
0100
0001
1000
0010
1000
0100
0010
0001
0100
0010
1000
0001
2MM0
0000
0000
0000
,
3200
0320
0230
2300
,
3002
0203
0000
0320
,
2030
0000
3020
0000
0230
0000
0301
0010
,
0011
0000
0000
0010
0100
1000
0002
0000
,
0023
0230
0320
0032
,
2003
3020
0230
0302
,
0023
0000
0230
0000
2300
0000
3001
0010
,
0100
0000
1000
0001
1000
0000
0001
0010
0001
0100
0010
0100
0001
0000
1000
0010
,
1000
0000
0001
0100
0001
0000
0010
0100
0010
0000
0001
0010
0001
0000
1000
0100
,
1000
0000
0100
0010
0100
0000
1000
0001
1000
0000
0010
0100
0010
0000
1000
0001
,
1000
0000
0100
0010
0100
0000
1000
0010
1000
0000
0001
0100
0001
0000
1000
0010
,
1000
0000
0001
0010
0001
0000
1000
0001
1000
0000
0100
0010
M10M
0000
1000
0010
,
0100
0000
0001
0010
0100
0000
1000
0001
0100
0000
0001
1000
0100
0000
1000
0010
,
0100
0000
0001
0010
0100
0000
1000
0001
0010
0000
0001
1000
0010
0000
0100
0001
,
0010
0000
0100
1000
0010
0000
1000
0010
0100
0000
0001
0100
0010
0000
1000
0001
,
0010
0000
0100
1000
0001
0000
1000
0010
0100
0000
0001
0100
M01M
0000
1000
0010
,
1000
0000
0001
0100
0001
0000
0010
0100
0010
0000
0001
0010
0001
0000
1000
0100
,
1000
0000
0100
0010
0100
0000
1000
0001
1000
0000
0010
0100
0010
0000
1000
0001
,
1000
0000
0100
0010
0100
0000
1000
0010
1000
0000
0001
0100
0001
0000
1000
0010
,
1000
0000
0001
0010
0001
0000
1000
0001
1000
0000
0010
0100
M01M
0000
1000
0010
,
0100
0000
0001
0010
0100
0000
1000
0001
0100
0000
0001
1000
0100
0000
1000
0010
,
0100
0000
0001
0010
0100
0000
1000
0001
0010
0000
0001
1000
0010
0000
0100
0001
,
0010
0000
0100
1000
0010
0000
1000
0010
0100
0000
0001
0100
0010
0000
1000
0001
,
0010
0000
0100
1000
0001
0000
1000
0100
1000
0100
1000
0100
1000
0000
0010
0000
,
1000
0001
1001
1000
0010
0100
0101
0100
,
0010
1000
1001
0001
0011
0010
0110
0100
,
1000
0001
0101
0100
0010
1000
1001
0001
,
0011
0010
0110
0100
1000
0001
2000
0000
,
0000
3200
0000
0000
0320
0000
0032
0000
,
0000
2003
0000
0000
3010
0000
0100
0000
,
0001
1000
0100
0020
,
0000
0032
0000
1003
0001
1000
1001
1000
,
0100
1000
0010
0100
0101
0001
0100
0010
,
0100
0001
0010
0100
1100
0100
0010
0001
,
0010
0100
1000
0001
1001
0001
1000
0001
,
0010
0100
1000
1001
1001
1001
1000
0100
,
1000
0001
1001
1000
0100
0010
0011
0010
,
0100
1000
1001
0001
0101
0100
0110
0010
,
1000
0001
0011
0010
0110
0100
1100
1000
,
1001
0001
0101
0100
0001
1000
0002
0000
,
0000
0203
0000
0000
0320
0000
2030
0000
,
0000
3001
0010
0100
,
1000
0001
0100
0020
,
0000
2030
0000
3000
1001
1001
1001
1000
,
0100
1000
0010
0100
0101
0001
0100
0010
,
0100
0001
0010
0100
1100
0100
0010
0001
,
0010
0100
1000
0001
2000
0000
3002
0000
,
0000
0000
0000
0000
0000
0000
0000
0000
2003
0000
0000
0000
3001
0010
0001
0010
,
0100
1000
0100
1000
0010
0100
0010
0100
0001
1000
0001
1000
0001
0010
0001
0100
,
0010
1000
0100
1000
0010
0100
0001
0010
0100
1000
0010
0100
0001
0010
0100
1000
,
0001
0010
0001
1000
0100
0010
0001
0100
0010
1000
0100
0010
0001
1000
0100
1000
,
0010
0100
0001
0010
0001
0100
0010
1000
0100
0010
0001
0100
0010
1000
0100
0010
,
0001
1000
0100
1000
0001
0010
0100
1000
0010
0100
0001
0010
0100
1000
0001
0010
,
0001
0100
0010
1000
0100
1000
0001
0010
0100
1000
0001
1000
0010
0100
0001
1000
,
0100
1000
0001
0010
0001
0100
0010
1000
0100
0010
0001
1000
0001
0100
0001
0010
,
0100
1000
0010
1000
0100
0010
0001
0100
0010
1000
0100
0010
0001
0100
0010
1000
,
0001
0100
0001
1000
0010
0100
0001
0010
0100
1000
0010
0100
0001
1000
0010
1000
,
0100
0010
0001
0100
0001
0010
0100
1000
0010
0100
0001
0010
0100
1000
0010
0100
,
0001
1000
0010
1000
0001
0100
0010
1000
0100
0010
0001
0100
0010
1000
0001
0100
,
0001
0010
0100
1000
0010
1000
0001
0100
0010
1000
0001
1000
0100
0010
0001
1000
,
0010
1000
0001
0100
0001
0010
0100
1000
0010
0100
0001
1000
0MM2
0000
0000
0000
,
1003
0010
1000
0001
0010
0001
1000
1001
,
1100
1010
1001
0001
0010
0100
1100
1000
,
0001
0100
0001
1000
0100
0010
0011
0001
,
1000
0010
1000
0001
0010
0100
1000
1001
,
1100
1001
1010
0010
0100
0001
0011
0010
,
0100
1000
0010
1000
1001
1001
M1M1
0000
,
0001
0000
0010
0001
0011
0000
1000
0000
,
1100
0000
1000
0010
1010
0000
1000
1001
,
0001
0010
0100
1000
1001
1001
1MM1
0000
,
1100
0000
0000
0000
0100
0000
0010
0000
0110
0000
0010
0001
1MM0
0000
0000
0000
,
0001
0000
0000
0000
0000
0000
0010
0000
0000
0000
0000
0000
0001
0000
0000
0010
0000
0000
0001
0000
0000
0010
0000
0000
0001
0000
0000
1000
0000
0000
0100
0000
0000
1000
0000
0000
0001
0000
0000
0000
0010
0000
0000
0000
0100
0000
0000
0000
,
0010
0000
0000
0001
0000
0000
1000
0000
0000
0100
0000
0000
0010
0000
0000
0000
0000
0000
0001
0000
0000
1000
0000
0000
0100
0000
0000
0000
0010
0000
0000
0000
0100
0000
0000
0000
1000
0000
0000
0000
0100
0000
0000
0000
0010
0000
0000
0000
,
0001
0000
0000
0100
0000
0000
0010
0000
0000
1000
0000
0000
0001
0000
0000
0010
0000
0000
0100
0000
0000
1000
0000
0000
0100
0000
0000
0010
0000
0000
0001
0000
0000
1000
0000
0000
0010
0000
0000
0000
1000
0000
0000
0000
0010
0000
0000
0000
,
1000
0000
0000
0000
0001
0000
0000
0000
1000
0000
0000
0000
0100
0000
0000
0010
0000
0000
0001
0000
0000
1000
0000
0000
0010
0000
0000
0000
0000
0000
0200
0000
0000
0000
0000
0000
0301
0000
0000
0000
0000
0000
1000
0000
0000
0000
0000
0000
,
0001
0000
0000
0100
0000
0000
0004
0000
0000
0000
0000
0000
2003
0000
0000
0000
0000
0000
3MM1
0000
0100
0000
0010
0000
,
0100
0000
0000
0001
0000
0000
1000
0000
0000
0010
0000
0000
0100
0000
0000
0000
0000
0000
0001
0000
0000
1000
0000
0000
0010
0000
0000
0000
0100
0000
0000
0000
0010
0000
0000
0000
1000
0000
0000
0000
0010
0000
0000
0000
0100
0000
0000
0000
,
0001
0000
0000
0010
0000
0000
0100
0000
0000
1000
0000
0000
0001
0000
0000
0010
0000
0000
0100
0000
0000
0010
0000
0000
0001
0000
0000
0010
0000
0000
0100
0000
0000
1000
0000
0000
0001
0000
0000
0000
1000
0000
0000
0000
0010
0000
0000
0000
,
1000
0000
0001
0000
1000
0000
0400
0000
0000
0000
0000
0000
0000
0000
0000
0300
0000
0000
0200
0000
0000
0300
0000
0000
,
0100
0000
0000
1000
0000
0000
0002
0000
0000
0000
0000
0000
0000
0000
0000
0000
0000
0000
1MM3
0000
0100
0000
0010
0000
,
0100
0000
0000
1000
0000
0000
0001
0000
0000
0010
0000
0000
0100
0000
0000
0000
0000
0000
1000
0000
0000
0001
0000
0000
0010
0000
0000
0000
0100
0000
0000
0000
0010
0000
0000
0000
0001
0000
0000
0000
0010
0000
0000
0000
0100
0000
0000
0000
,
1000
0000
0000
0010
0000
0000
0100
0000
0000
0001
0000
0000
1000
0000
0000
0100
0000
0000
0010
0000
0000
0001
0000
0000
0010
0000
0000
0100
0000
0000
1000
0000
0000
0001
0000
0000
1000
0000
0000
0000
0001
0000
0000
0000
0100
0000
0000
0000
,
0001
0000
0000
0000
0010
0000
0000
0000
0001
0000
0000
0000
0100
0000
0000
0010
0000
0000
1000
0000
0000
0001
0000
0000
0100
0000
0000
0000
0000
0000
0020
0000
0000
0000
0000
0000
1030
0000
0000
0000
0000
0000
0001
0000
0000
0000
0000
0000
,
1000
0000
0000
0010
0000
0000
4000
0000
0000
0000
0000
0000
3002
0000
0000
0000
0000
0000
1MM3
0000
0010
0000
0100
0000
,
0010
0000
0000
1000
0000
0000
0001
0000
0000
0100
0000
0000
0010
0000
0000
0000
0000
0000
1000
0000
0000
0001
0000
0000
0100
0000
0000
0000
0010
0000
0000
0000
0100
0000
0000
0000
0001
0000
0000
0000
0100
0000
0000
0000
0010
0000
0000
0000
,
1000
0000
0000
0100
0000
0000
0010
0000
0000
0001
0000
0000
1000
0000
0000
0010
0000
0000
0100
0000
0000
0001
0000
0000
0100
0000
0000
0010
0000
0000
1000
0000
0000
0001
0000
0000
1000
0000
0000
0000
0001
0000
0000
0000
0010
0000
0000
0000
,
0001
0000
1000
0000
0001
0000
0400
0000
0000
0000
0000
0000
0000
0000
0000
0300
0000
0000
0200
0000
0000
0000
0000
0000
,
0310
0000
1000
0000
2000
0000
0000
0000
0000
0000
0000
0000
3M01
0010
0001
0010
,
0100
1000
0100
1000
0001
0100
0001
0100
0010
1000
0010
1000
0001
1000
0001
1000
,
0001
0010
0001
0010
0100
1000
0100
1000
0100
1000
0100
1000
0MM2
0000
0000
0000
,
0000
0000
1003
0000
1001
0000
1001
0000
0001
0010
0100
1000
0001
0000
0010
0000
,
0001
1000
0001
0010
0100
1000
0001
0100
,
0001
1000
0001
0010
0100
1000
0001
0100
,
0010
0100
0001
0010
0100
1000
0001
0010
,
0100
0010
0001
0010
0100
1000
0101
0100
,
0001
1000
0001
0100
0010
1000
0001
0010
,
0001
1000
0001
0100
0010
1000
0001
0010
,
0100
0010
0001
0100
0010
1000
0001
0100
,
0010
0100
0001
0100
0010
1000
1001
0001
,
0010
0001
0010
0100
1000
0001
0100
0001
,
1000
0001
0100
0010
1000
0001
0010
0100
,
0010
0001
0010
0100
1000
0001
0100
0010
,
0100
0001
0100
0010
1000
0001
0011
0001
,
0010
0001
0010
0100
1000
0001
0100
0010
,
0100
0001
0100
0010
1000
0100
0010
0001
,
1000
0010
1000
0001
0100
0010
1000
0010
,
0100
0000
0010
0000
2000
0000
0000
0000
3001
0010
0100
0010
0002
0000
0000
0000
,
1003
0100
0010
0100
2000
0000
0000
0000
3001
0100
0010
0100
0001
0000
1000
0000
,
0001
0100
0010
0100
0001
1000
1MM1
0000
,
0000
0000
M1M1
0001
0010
0100
1000
0010
,
0100
0000
0001
0000
1001
0000
1001
0000
1001
0000
1100
0000
1001
0000
1000
0100
,
0010
0001
1000
0100
1000
0100
1000
0010
0100
0001
0010
0001
0100
0010
1000
0100
,
0010
0001
0100
0010
1000
0100
0010
0001
1000
0100
1000
0001
0010
0100
1000
0010
,
0100
0001
0010
0100
1000
0001
0010
0001
0100
0010
1000
0100
1000
0010
0100
0001
,
0010
0100
1000
0010
0100
0001
0010
0100
1000
0001
0010
0001
1000
0100
0010
0001
,
0100
0010
1000
0100
0010
0001
1000
0100
1000
0010
0100
0001
0010
0001
1000
0100
,
0010
0001
1000
0001
0100
0010
1000
0001
0010
0001
1000
0100
1000
0010
0100
0001
,
0010
0100
1000
0001
1000
0010
1000
0100
0010
0001
0100
0001
0010
0100
1000
0010
,
0100
0001
0010
0100
1000
0010
0100
0001
1000
0010
1000
0001
0100
0010
1000
0100
,
0010
0001
0100
0010
1000
0001
0100
0001
0010
0100
1000
0010
1000
0100
0010
0001
,
0100
0010
1000
0100
0010
0001
0100
0010
1000
0001
0100
0001
1000
0010
0100
0001
,
0010
0100
1000
0010
0100
0001
1000
0010
1000
0100
0010
0001
0100
0001
1000
0010
,
0100
0001
1000
0001
0010
0100
1000
0001
0100
0001
1000
0010
1000
0100
0010
0001
,
0100
0010
1000
0001
1MM0
0000
0100
0000
0010
0000
0100
0000
1000
0000
0001
0000
,
0100
0001
0010
0110
1100
1100
2MM2
0000
,
0000
0000
3003
0000
M2M2
0303
0001
0000
1000
0000
0010
0000
1000
0000
0001
0000
,
0100
0000
0001
0000
2MM2
0000
0000
0000
0000
0000
3003
0000
22MM
3300
1000
0000
,
0001
0000
0010
0000
0001
0000
1000
0100
1000
0100
1000
0010
0200
0000
0000
0000
,
0000
0000
0300
0000
M2M2
0303
0001
0000
0010
0000
0001
0000
1000
0000
0001
0000
,
1001
1001
0001
0000
1000
0000
1000
0010
,
1010
0000
1000
0000
1MM1
0000
0001
0010
,
0011
0000
1000
0010
1010
0000
0001
0000
,
1000
0000
11MM
0000
1000
0010
1000
0010
,
1000
0000
0010
0000
1010
0000
0000
0000
1000
0000
0000
0000
0001
0010
0001
1000
,
0100
1000
0010
0100
0002
0000
0003
0000
2MM2
0000
0000
0000
3003
0000
0000
0000
;
