#TITLE:Super Mario Bros. Theme;
#SUBTITLE:(Original Nintendo Is Awesome Remix);
#ARTIST:SONGSTOWEARPANTSTO.COM;
#TITLETRANSLIT:;
#SUBTITLETRANSLIT:;
#ARTISTTRANSLIT:;
#CREDIT:;
#BANNER:Super Mario Bros. Theme.png;
#BACKGROUND:Super Mario Bros. Theme-bg.png;
#LYRICSPATH:;
#CDTITLE:!danceguyTitle.png;
#MUSIC:Super Mario Bros. Theme (Original Nintedo Is Awesome Remix).mp3;
#OFFSET:-0.103;
#SAMPLESTART:11.999;
#SAMPLELENGTH:12.000;
#SELECTABLE:YES;
#BPMS:0.000=125.450,52.000=126.400,100.000=178.500,128.000=125.450;
#STOPS:;
#BGCHANGES:;
// cache tags:
#FIRSTBEAT:0.000;
#LASTBEAT:146.938;
#SONGFILENAME:Songs/VGMP 2/Super Mario Bros. Theme (dAnceguy117)/Super Mario Bros. Theme (Original Nintedo Is Awesome Remix).sm;
#HASMUSIC:1;
#HASBANNER:1;
#MUSICLENGTH:70.948;
// end cache tags

//---------------dance-single - Heavy----------------
#NOTES:
     dance-single:
     Heavy:
     Hard:
     10:
     0.795,0.854,0.211,0.000,1.000,380.000,15.000,0.000,0.000,0.000:




1001
0001
0000
0001
0000
1000
0001
0000
0010
0100
0010
0000
0001
1000
0010
0000
,
0100
0000
0000
0000
0000
0000
0010
0000
1000
0000
0001
1000
0010
0100
0001
1000
,
0100
0000
0000
0000
0000
0000
0010
0000
0000
0001
0010
0100
1000
0000
0000
0001
0000
0000
0100
0000
0000
0000
0000
0000
,
0001
0000
0000
0000
0000
0000
0100
0000
0000
0000
0000
0000
0010
0000
0000
0000
0000
0000
1000
0000
0001
0000
0010
0000
0100
0000
0000
1000
0000
0000
0010
0000
0000
0000
0000
0000
1000
0000
0000
0001
0000
0000
1000
0000
0000
0000
0000
0000
,
0010
0000
0000
0000
0000
0000
0100
0000
0000
0000
0000
0000
0000
0000
0000
0000
0000
0000
0001
0000
0000
0000
0000
0000
1000
0000
0000
0000
0000
0000
0100
0000
0000
0000
0000
0000
0010
0000
0001
0000
1000
0000
0010
0000
0000
0100
0000
0000
,
0001
0000
1000
0001
0010
0000
0100
0000
0000
0000
1000
0010
0100
0000
0001
0000
0000
0000
0010
0100
1000
0000
0010
0000
0000
0000
0100
0001
1000
0000
1000
0000
,
0100
0000
0010
0001
0100
0000
0010
0000
0000
0000
1000
0100
0010
0000
0001
0000
0000
0000
1001
0000
0000
0000
1001
0000
1001
0000
0000
0000
0100
0000
0000
0000
,
0100
0000
0001
0010
0100
0000
1000
0000
0000
0000
0010
0100
0001
0000
0010
0000
0000
0000
0100
1000
0010
0000
0100
0000
0000
0000
0001
0100
0010
0000
1000
0000
,
0000
0000
0000
0000
0011
0000
0000
0000
0000
0000
0110
0000
0001
0000
0000
0000
1100
0000
0000
0000
0010
0100
0001
0010
0000
0000
0100
0000
1000
0000
0000
0000
,
0001
0100
1001
0010
0010
0100
1001
1000
,
0100
0010
1001
0100
0100
0010
1001
0001
,
1000
0010
1001
0001
0001
0010
1001
0100
,
1001
0000
0000
0001
0000
0000
0000
0000
0000
0001
0000
0000
0000
0000
0000
1000
0000
0000
0001
0000
0000
0000
0000
0000
0010
0000
0100
0000
1000
0000
0001
0000
0000
0100
0000
0000
0010
0000
0000
0000
0000
0000
1000
0000
0000
0000
0000
0000
,
0010
0100
0001
1000
0100
0010
0001
0000
1000
0000
0001
0100
0010
0000
1000
0000
,
0100
0010
0001
1000
0010
0100
0001
0100
0010
1000
0001
0010
0100
0000
1000
0000
,
0001
0100
0010
1000
0001
0010
0100
0000
1000
0000
0001
0100
0010
0000
1000
0000
,
0100
0000
0000
0010
0000
0000
0001
0000
0000
1000
0000
0000
0010
0000
0000
0100
0000
0000
0010
0000
0000
1000
0000
0000
0001
0000
0000
0000
0000
0000
0010
0000
0000
0000
0000
0000
0100
0000
0000
1000
0000
0000
0001
0000
0100
0000
0010
0000
,
1000
0000
0000
0000
0000
0000
0100
0000
0000
0010
0000
0000
0001
0000
0000
1000
0000
0000
0010
0000
0000
0000
0000
0000
0100
0000
0000
0000
0000
0000
0001
0000
0000
1000
0000
0000
0001
0000
0100
0000
0010
0000
1000
0000
0001
0000
0010
0000
,
0100
0010
0001
0001
1000
0100
0000
0000
0000
0000
0000
0000
,
1000
0010
0100
0010
1000
0001
0100
0001
0010
0100
1000
0001
0100
0000
0010
0000
,
0100
0001
0010
0100
1000
0001
0100
0010
1000
0000
0001
0010
0100
0000
1000
0000
,
0001
1000
0100
0010
0001
0100
0010
0000
1000
0000
0100
0000
0010
0000
0001
0000
,
1000
0000
0000
0001
0000
0000
0010
0000
0000
0100
0000
0000
1000
0000
0000
0001
0000
0000
0100
0000
0000
0010
0000
0000
1000
0000
0000
0000
0000
0000
0001
0000
0000
0010
0000
0000
0100
0000
0000
0000
0000
0000
1000
0000
0010
0000
0100
0000
,
0001
0000
0000
0010
0000
0000
0100
0000
0000
0000
0000
0000
1000
0000
0000
0000
0000
0000
0001
0000
0000
0100
0000
0000
0010
0000
0000
0000
0000
0000
1000
0000
0000
0000
0000
0000
0001
0000
1000
0000
0010
0000
0100
0000
0001
0000
1000
0000
,
0001
0001
0000
0001
0000
0100
0001
0000
0010
0000
0000
0000
0100
0000
0000
0000
,
0010
0000
0010
0000
0010
0000
0100
0010
0000
0010
0000
0100
0010
0100
0010
0000
,
1000
0000
1000
0000
1000
0000
0100
1000
0000
1000
0000
0100
1000
0100
1000
0000
,
0010
0000
0010
0000
0010
0000
0100
0010
0000
0010
0000
0100
0010
0100
0010
0000
,
1000
0000
1000
0000
1000
0000
0100
1000
0000
1000
0000
0100
1000
0100
1000
0000
,
0010
0000
0010
0000
0010
0000
0100
0010
0000
0010
0000
0100
0010
0100
0010
0000
,
1000
0000
1000
0000
1000
0000
0100
1000
0000
1000
0000
0100
1000
0100
1000
0000
,
0010
0000
0010
0000
0010
0000
0100
0010
0000
0010
0000
0100
0010
0100
0010
0000
,
1001
0001
0000
0001
0000
1000
0001
0000
0010
0000
0000
0000
0100
0000
0000
0000
,
0000
0000
0000
0000
0000
0000
0000
0000
0000
0000
0000
0000
0000
0000
0000
0000
0000
0000
0000
0000
0000
0000
0000
0000
0000
0000
0000
0000
0000
0000
0000
0000
0000
0000
0000
1000
0000
0000
0000
0000
0000
0000
0000
0000
0000
0000
0000
0000
0000
0000
0000
0000
0000
0000
0000
0000
0000
0000
0000
0000
0000
0000
0000
0000
,
0000
0000
0000
0000
0000
0000
0001
0000
0000
0000
0000
0000
0000
0000
0000
0000
0000
0000
0000
0000
0000
0000
0000
0000
0000
0000
0000
0000
0000
0000
0000
0000
0000
0000
0000
0000
0000
0000
0000
0000
0000
0000
0000
0000
0000
0000
0000
0000
0000
0000
0000
0000
0000
0000
0000
0000
0000
0000
0000
0000
0000
0000
0000
0000
0000
0000
0000
0000
0000
0000
0000
0000
0000
0000
0000
0000
0000
0000
0100
0000
0000
0000
0000
0000
0000
0000
0000
0000
0000
0000
0000
0000
0000
0000
0000
0000
0000
0000
0000
0000
0000
0000
0000
0000
0000
0000
0000
0000
0000
0000
0000
0000
0000
0000
0000
0000
0000
0000
0000
0000
0000
0000
0000
0000
0000
0000
0000
0000
0000
0000
0000
0000
0000
0000
0000
0000
0000
0000
0000
0000
0000
0000
0000
0000
0000
0000
0000
0000
0000
0000
0000
0000
0010
0000
0000
0000
0000
0000
0000
0000
0000
0000
0000
0000
0000
0000
0000
0000
0000
0000
0000
0000
0000
0000
0000
0000
0000
0000
0000
0000
0000
0000
0000
0000
0000
0000
0000
0000
0000
0000
0000
0000
,
0000
0000
0000
0000
1000
0000
0000
0000
0000
0000
0000
0000
0000
0000
0000
0000
0000
0000
0010
0000
0000
0000
0000
0000
0000
0000
0000
0000
0000
0000
0000
0000
0000
0000
0000
0100
0000
0000
0000
0000
0000
0000
0000
0000
0000
0000
0000
0000
0000
0000
0000
0000
0000
0000
0001
0000
0000
0000
0000
0000
0000
0000
0000
0000
,
0000
0000
0000
0000
0000
0000
0000
0000
0000
0000
0000
0000
0000
0000
0000
0000
0000
0000
0000
0000
0000
0000
0000
0000
0100
0000
0000
0000
0000
0000
0000
0000
0000
0000
0000
0000
0000
0000
0000
0000
0000
0000
0000
0000
0000
0000
0000
0000
0000
0000
0000
0000
0000
0000
0000
0000
0000
0000
0000
0000
0000
0000
0000
0000
0000
0000
0000
0000
0000
0000
0000
0000
0000
0000
0000
0000
0000
0000
0000
0000
0000
0000
0000
0000
0000
0000
0000
0000
0000
0000
0000
0000
0000
0000
0000
0000
0000
0000
0000
0000
0000
0000
0000
0000
0000
0000
0000
0000
0010
0000
0000
0000
0000
0000
0000
0000
0000
0000
0000
0000
0000
0000
0000
0000
0100
0000
0000
0000
0000
0000
0000
0000
0000
0000
0000
0000
0000
0000
0000
0000
0000
0010
0000
0000
0000
0000
0000
0000
0000
0000
0000
0000
0000
0000
0000
0000
0000
0000
0000
0000
0000
0000
0000
0000
0000
0000
0000
0000
0000
0000
0000
0000
0000
0000
0000
0000
0000
0000
0000
0000
0000
0000
0000
0000
0000
0000
0000
0000
0000
0000
0000
0000
;

//---------------dance-single - Challenge----------------
#NOTES:
     dance-single:
     Challenge:
     Challenge:
     12:
     1.000,1.000,1.000,0.014,1.000,390.000,144.000,1.000,0.000,3.000:




1111
0001
0000
0001
0000
1000
0001
0000
0010
0100
0010
0000
0011
1000
0110
0000
,
0101
0000
1000
0000
0010
0000
0110
0000
1100
0000
0011
1000
0110
0001
1100
0010
,
0101
0000
0000
1000
0000
0000
0011
0000
0000
0101
0010
0100
1001
0000
0000
0011
0000
0000
1100
0000
0000
0010
0000
0000
,
1001
0000
0000
0000
0000
0000
0110
0000
0000
0000
0000
0000
0011
0000
0000
0000
0000
0000
1100
0000
0001
0000
0010
0000
0101
0000
0000
1000
0000
0000
0110
0000
0000
0000
0000
0000
0011
0000
0000
1000
0000
0000
0101
0000
0000
0000
0000
0000
,
1010
0000
0000
0000
0000
0000
0000
0000
0000
0000
0000
0000
0000
0000
0000
0000
0000
0000
0000
0000
0000
0000
0000
0000
1100
0000
0000
0000
0000
0000
0000
0000
0000
0000
0000
0000
0000
0000
0000
0000
0000
0000
0000
0000
0000
0000
0000
0000
0010
0000
0000
0000
0000
0000
0000
0000
0000
0000
0000
0000
0000
0000
0000
0000
0000
0000
0000
0000
0000
0000
0000
0000
0101
0000
0000
0000
0000
0000
0000
0000
0000
0000
0000
0000
0000
0000
0000
0000
0000
0000
0000
0000
0000
0000
0000
0000
1001
0000
0000
0000
0000
0000
0000
0000
0000
0000
0000
0000
0000
0000
0000
0000
0000
0000
0000
0000
0000
0000
0000
0000
0110
0000
0000
0000
0000
0000
0000
0000
0000
0000
0000
0000
0000
0000
0000
0000
0000
0000
0000
0000
0000
0000
0000
0000
0010
0000
0000
0000
0000
0000
0000
0000
0001
0000
0000
0000
0000
0000
0000
0000
1000
0000
0000
0000
0000
0000
0000
0000
0001
0000
0000
0000
0000
0000
0100
0000
0000
0000
0000
0000
0001
0000
0000
0000
0000
0000
0000
0000
0000
0000
0000
0000
,
0010
0000
0100
1000
0010
0000
0100
0000
0000
0000
0100
1000
0010
0000
0100
0000
0000
0000
0100
1000
0010
0000
0100
0000
0000
0000
0100
1000
0010
0000
0010
0000
,
1001
0000
0100
1000
0010
0000
0100
0000
0000
0000
0100
1000
0010
0000
0100
0000
0000
0000
0110
0000
0000
0000
0110
0000
0110
0000
0000
0000
1001
0000
0000
0000
,
1001
0000
0100
1000
0010
0000
0100
0000
0000
0000
0100
1000
0010
0000
0100
0000
0000
0000
0100
1000
0010
0000
0100
0000
0000
0000
0100
1000
0010
0000
0010
0000
,
0000
0000
0000
0000
1010
0000
0000
0000
0000
0000
1001
0000
0010
0000
0000
0000
1100
0000
0000
0000
0010
0100
0001
0010
0100
0000
0001
0000
1000
0000
0000
0000
,
0100
1001
0010
1100
0100
1001
0010
1001
,
0100
1001
0010
1100
0100
1001
0010
1001
,
0100
1001
0010
1100
0100
1001
0010
1001
,
0011
0000
0000
0001
0000
0000
0000
0000
0000
0001
0000
0000
0000
0000
0000
1000
0000
0000
0001
0000
0000
0000
0000
0000
0010
0000
0100
0000
1000
0000
0001
0000
0000
0100
0000
0000
0011
0000
0000
0000
0000
0000
1000
0000
0000
0000
0000
0000
,
1010
0100
0001
1100
0011
0110
1000
0000
0001
0000
0100
0001
0010
0000
0100
0000
,
1100
0010
0001
1000
0011
1100
0001
0100
0010
1000
0001
0010
0100
0000
1000
0000
,
0011
0100
0010
1100
1001
0010
0100
0000
0001
0000
1000
0100
0010
0000
0001
0000
,
1100
0000
0000
0010
0000
0000
0001
0000
0000
1000
0000
0000
0011
0000
0000
0100
0000
0000
0010
0000
0000
1000
0000
0000
0001
0000
0000
0000
0000
0000
0010
0000
0000
0000
0000
0000
0100
0000
0000
1000
0000
0000
0011
0000
0100
0000
0010
0000
,
1001
0000
0000
0000
0000
0000
0100
0000
0000
0010
0000
0000
1001
0000
0000
0100
0000
0000
1010
0000
0000
0000
0000
0000
0101
0000
0000
0000
0000
0000
1001
0000
0000
0100
0000
0000
1010
0000
0001
0000
1000
0000
0110
0000
0001
0000
0010
0000
,
1001
0010
1100
0011
1010
1100
0000
0000
0000
0000
0000
0000
,
1000
0011
1100
0110
1010
0101
1000
0001
0010
0100
1000
0001
0100
0010
1000
0000
,
0100
1001
0110
0101
1010
0001
1100
0011
1000
0000
0001
0010
0100
0000
1000
0000
,
0001
1000
0110
1010
0101
0010
1000
0000
0001
0000
0100
0000
0010
0000
1000
0000
,
0011
0000
0000
1100
0000
0000
1001
0000
0000
0110
0000
0000
1010
0000
0000
0101
0000
0000
0011
0000
0000
0110
0000
0000
1000
0000
0000
0000
0000
0000
0001
0000
0000
0010
0000
0000
0100
0000
0000
0000
0000
0000
1001
0000
0010
0000
0100
0000
,
0001
0000
0000
0010
0000
0000
0101
0000
0000
0000
0000
0000
1010
0000
0000
0000
0000
0000
1100
0000
0000
0001
0000
0000
0110
0000
0000
0000
0000
0000
1010
0000
0000
0000
0000
0000
0011
0000
1000
0100
0010
0000
1100
0000
0001
0000
1000
0000
,
0111
0001
0000
0001
0000
0100
0001
0000
0010
0000
0000
0001
1200
0000
0300
0000
,
0011
0000
0010
0000
1010
0000
0100
0011
0000
0010
0000
0100
1010
0100
0011
0000
,
1001
0000
1000
0000
1010
0000
0100
1001
0000
1000
0000
0100
1010
0100
1001
0000
,
0011
0000
0010
0000
1010
0000
0100
0011
0000
0010
0000
0100
1010
0100
0011
0000
,
1001
0000
1000
0000
1010
0000
0100
1001
0000
1000
0000
0100
1010
0100
1001
0000
,
0011
0000
0010
0000
1010
0000
0100
0011
0000
0010
0000
0100
1010
0100
0011
0000
,
1001
0000
1000
0000
1010
0000
0100
1001
0000
1000
0000
0100
1010
0100
1001
0000
,
0011
0000
0010
0000
1010
0000
0100
0011
0000
0010
0000
0100
1010
0100
0011
0000
,
1111
0001
0000
0001
0000
1000
0001
0000
0010
0000
0000
0000
0100
0000
0000
0000
,
0000
0000
0000
0000
0000
0000
0000
0000
0000
0000
0000
0000
0000
0000
0000
0000
0000
0000
0000
0000
0000
0000
0000
0000
0000
0000
0000
0000
0000
0000
0000
0000
0000
0000
0000
1000
0000
0000
0000
0000
0000
0000
0000
0000
0000
0000
0000
0000
0000
0000
0000
0000
0000
0000
0000
0000
0000
0000
0000
0000
0000
0000
0000
0000
,
0000
0000
0000
0000
0000
0000
0001
0000
0000
0000
0000
0000
0000
0000
0000
0000
0000
0000
0000
0000
0000
0000
0000
0000
0000
0000
0000
0000
0000
0000
0000
0000
0000
0000
0000
0000
0000
0000
0000
0000
0000
0000
0000
0000
0000
0000
0000
0000
0000
0000
0000
0000
0000
0000
0000
0000
0000
0000
0000
0000
0000
0000
0000
0000
0000
0000
0000
0000
0000
0000
0000
0000
0000
0000
0000
0000
0000
0000
0100
0000
0000
0000
0000
0000
0000
0000
0000
0000
0000
0000
0000
0000
0000
0000
0000
0000
0000
0000
0000
0000
0000
0000
0000
0000
0000
0000
0000
0000
0000
0000
0000
0000
0000
0000
0000
0000
0000
0000
0000
0000
0000
0000
0000
0000
0000
0000
0000
0000
0000
0000
0000
0000
0000
0000
0000
0000
0000
0000
0000
0000
0000
0000
0000
0000
0000
0000
0000
0000
0000
0000
0000
0000
0010
0000
0000
0000
0000
0000
0000
0000
0000
0000
0000
0000
0000
0000
0000
0000
0000
0000
0000
0000
0000
0000
0000
0000
0000
0000
0000
0000
0000
0000
0000
0000
0000
0000
0000
0000
0000
0000
0000
0000
,
0000
0000
0000
0000
1000
0000
0000
0000
0000
0000
0000
0000
0000
0000
0000
0000
0000
0000
0010
0000
0000
0000
0000
0000
0000
0000
0000
0000
0000
0000
0000
0000
0000
0000
0000
0100
0000
0000
0000
0000
0000
0000
0000
0000
0000
0000
0000
0000
0000
0000
0000
0000
0000
0000
0001
0000
0000
0000
0000
0000
0000
0000
0000
0000
,
0000
0000
0000
0000
0000
0000
0000
0000
0000
0000
0000
0000
0000
0000
0000
0000
0000
0000
0000
0000
0000
0000
0000
0000
0100
0000
0000
0000
0000
0000
0000
0000
0000
0000
0000
0000
0000
0000
0000
0000
0000
0000
0000
0000
0000
0000
0000
0000
0000
0000
0000
0000
0000
0000
0000
0000
0000
0000
0000
0000
0000
0000
0000
0000
0000
0000
0000
0000
0000
0000
0000
0000
0000
0000
0000
0000
0000
0000
0000
0000
0000
0000
0000
0000
0000
0000
0000
0000
0000
0000
0000
0000
0000
0000
0000
0000
0000
0000
0000
0000
0000
0000
0000
0000
0000
0000
0000
0000
0010
0000
0000
0000
0000
0000
0000
0000
0000
0000
0000
0000
0000
0000
0000
0000
0100
0000
0000
0000
0000
0000
0000
0000
0000
0000
0000
0000
0000
0000
0000
0000
0000
0010
0000
0000
0000
0000
0000
0000
0000
0000
0000
0000
0000
0000
0000
0000
0000
0000
0000
0000
0000
0000
0000
0000
0000
0000
0000
0000
0000
0000
0000
0000
0000
0000
0000
0000
0000
0000
0000
0000
0000
0000
0000
0000
0000
0000
0000
0000
0000
0000
0000
0000
;
