#TITLE:Suck My D!ck;
#SUBTITLE:;
#ARTIST:DJ Valentino;
#TITLETRANSLIT:;
#SUBTITLETRANSLIT:;
#ARTISTTRANSLIT:;
#CREDIT:;
#BANNER:BN.PNG;
#BACKGROUND:BG.PNG;
#LYRICSPATH:;
#CDTITLE:ov1_title.png;
#MUSIC:DJ Valentino - Suck My D!ck.mp3;
#OFFSET:-1.120;
#SAMPLESTART:148.548;
#SAMPLELENGTH:29.999;
#SELECTABLE:YES;
#BPMS:0.000=142.020;
#STOPS:;
#BGCHANGES:0.000=WARNING.avi=1.000=0=0=1,
99999=-nosongbg-=1.000=0=0=0 // don't automatically add -songbackground-
;
// cache tags:
#FIRSTBEAT:1.000;
#LASTBEAT:445.000;
#SONGFILENAME:Songs/Owenviau1 Simfiles 4/Suck My D!ck - DJ Valentino [owenviau1]/DJ Valentino - Suck My D!ck.sm;
#HASMUSIC:1;
#HASBANNER:1;
#MUSICLENGTH:196.187;
// end cache tags

//---------------dance-single - ----------------
#NOTES:
     dance-single:
     :
     Challenge:
     9:
     0.684,0.794,0.387,0.015,0.199,861.000,76.000,3.000,0.000,3.000:
0000
1001
1000
0100
,
0010
0000
0001
0001
1000
0010
0100
0000
,
0001
0000
0011
0000
1000
0100
0010
0000
,
0001
0000
0000
0000
1000
0000
0000
0000
0010
0000
0000
0000
1000
0000
0000
0001
,
0000
0000
1000
0000
0100
0000
0010
0000
0001
0000
0000
0000
1001
0000
1000
0010
,
1000
0010
1000
0000
1001
0000
0000
0000
1010
0000
0000
0000
1001
0000
0000
0000
,
1000
0100
0010
0001
1000
0010
1010
0000
,
1001
0011
0110
1100
,
1000
0000
0001
0000
1000
0010
1000
0000
1001
0000
1001
0000
1000
0010
1000
0000
,
1001
1001
1001
0000
0110
0000
1010
0000
,
0001
1000
0010
1000
0001
0010
0110
0000
,
0110
1100
0101
1010
,
1000
0100
0010
0001
1001
0000
1000
0010
,
0110
1001
0011
0110
,
1000
0100
0010
0001
1000
0010
1010
0000
,
1010
0101
0110
1001
,
1000
0000
0100
0000
1000
0001
1000
0000
0110
0000
0110
0000
1000
0001
1000
0000
,
0110
0110
1001
0000
0101
0000
1010
0000
,
1000
0100
0010
0001
1000
0010
1010
0000
,
1010
0000
0000
0000
1000
0100
0010
0001
0100
1000
0010
0100
0010
1000
0010
0100
,
0001
1000
0100
0010
0001
1000
0100
0010
0001
1000
0010
0100
0001
0010
1000
0100
,
0010
0100
0010
0001
1001
0000
0000
0000
0000
0000
0000
0000
0000
0000
0000
0000
,
0000
0000
0000
0002
,
0000
1013
0010
0100
,
0001
0000
1000
1000
0010
0100
0001
0000
,
0010
0000
0011
0001
1000
0010
0100
0000
,
0001
0010
0100
2000
,
0000
3101
0010
1000
,
0100
0000
1000
1000
0010
0100
0001
0000
,
0010
0000
0011
0000
0001
0010
0100
0000
,
1000
0010
0100
0001
,
0010
1001
0001
1000
,
0010
0000
1000
0001
0100
0010
1000
0000
,
0001
0000
0010
0000
0001
0010
0100
0000
,
1000
0000
0010
0000
0100
0000
0001
1000
,
0001
0100
0010
0000
1000
0000
0100
0000
,
0010
0000
0001
1000
0010
0100
0001
0000
,
0001
0000
1000
0100
0010
0001
0010
0100
,
0010
0001
1000
0010
0100
0010
1000
0001
,
0100
0001
1000
0100
0010
0001
0010
0100
,
0010
0001
1000
0001
0100
0010
1000
0001
,
0100
0010
1000
0100
0010
0001
1000
0100
,
0010
0001
1000
0100
0010
0100
1000
0001
,
0100
0010
1000
0001
0100
0010
1000
0010
,
0100
0001
0010
0100
0010
0001
0010
0100
,
1000
0000
0001
0000
0100
0010
1000
0001
0100
0010
1000
0100
0010
0001
1000
0010
,
1000
0100
0010
0001
0100
0000
0001
0000
1000
0000
0010
0000
0200
0000
0000
0000
,
0000
0000
1301
0010
0100
0001
0010
0100
,
1000
0001
0100
0010
1000
0001
0010
0100
,
1000
0010
1000
0010
0100
0001
0010
0100
,
0010
0001
1000
0010
0100
0001
0010
0100
,
0010
0100
1001
0001
0100
0010
1000
0010
,
0100
0001
0010
0100
0010
0001
1000
0010
,
1000
0001
0110
0100
1000
0001
0010
0100
,
1000
0001
0100
0010
1000
0010
0100
0001
,
0010
0100
1001
0001
0100
0010
1000
0010
,
0100
0001
0010
0100
0010
0001
1000
0010
,
0100
0001
0010
0100
0001
0100
0010
1000
,
0100
0001
0100
0010
0100
1000
0100
0001
,
0010
0100
1001
0001
0100
0010
1000
0100
,
0010
0001
1000
0100
0001
0100
1000
0010
,
0001
0010
0100
0001
0100
1000
0010
0100
,
0010
0001
0010
0100
1000
0001
1000
0100
,
0001
0010
1001
0001
0100
0010
1000
0010
,
0100
0001
0010
0100
1000
0100
0010
0001
,
1000
0010
1000
0001
0010
0100
1000
0010
,
0100
0001
0010
0100
1000
0010
0100
0001
,
0010
0100
1001
0001
0100
0010
1000
0010
,
0100
0001
0010
0100
0010
0001
0010
0100
,
1000
0010
0100
0001
1000
0010
0100
0010
,
0001
0000
1000
0000
0010
0000
0100
0000
0001
0010
0100
0000
1000
0000
0100
0010
,
1000
0001
0010
0000
1001
0000
0010
0000
0100
0000
0001
0000
0010
0000
0100
0000
,
1000
0100
1000
0001
0100
0001
0010
0100
,
0010
0001
1000
0010
0100
0010
1000
0100
,
0010
0000
0001
0000
1000
0001
1000
0000
0110
0000
0110
0000
1000
0001
1000
0000
,
0110
0110
1001
0010
0100
0001
0010
0100
,
1000
0001
0100
0010
1000
0010
0100
0001
,
0010
0100
0010
0001
1000
0010
0100
0001
,
0010
0100
0010
0001
1000
0010
0100
1000
,
0100
0001
1001
0001
0100
0010
1000
0010
,
0100
0001
0010
0100
1000
0100
0010
0001
,
1000
0010
0100
0001
0010
0100
0010
0001
,
1000
0000
0010
0000
1000
0010
1000
0000
0101
0000
0101
0000
1000
0010
1000
0000
,
0101
0000
1001
0010
0100
0001
0010
0100
,
0010
0001
1000
0010
0100
0001
1000
0100
,
0010
0000
0001
0000
0010
0100
1000
0001
0100
0010
1000
0100
1000
0010
0100
0001
,
0010
0100
1000
0010
1000
0100
0010
0001
0100
0001
1000
0010
1000
0100
0010
0001
,
1000
0001
0010
0100
1001
0000
0010
0000
0100
0000
0001
0000
0010
0000
0100
0000
,
0010
0001
1000
0010
1000
0100
0010
0001
,
0010
0100
1000
0010
0100
0001
0010
0100
,
0010
0001
1000
0010
0100
0001
0010
0100
,
0010
0100
1001
0001
0100
0010
1000
0010
,
0100
0001
0010
0001
1000
0100
0010
0001
,
1000
0010
0110
0010
1000
0100
0010
0001
,
0010
0000
0100
0000
1000
0001
0010
0100
1000
0001
1000
0100
0010
0001
1000
0010
,
0100
0001
0010
0100
1010
0000
0001
0000
0100
0000
0010
0000
1000
0000
0100
0000
,
0010
0001
0010
0100
1000
0010
0100
0001
,
0010
0100
1001
0001
0100
0010
1000
0010
,
0100
0001
0010
0100
0010
0001
1000
0010
,
1000
0010
0101
0001
0010
0100
0010
0001
,
1000
0010
0001
0100
1000
0100
0001
0100
,
0010
0001
1010
0001
0100
0001
0010
0100
,
0010
0001
1000
0100
0010
0001
0010
0100
,
1000
0010
1001
0001
0100
0010
1000
0010
,
0100
0001
0010
0100
1000
0100
0010
0001
,
1000
0010
0100
0001
0010
0001
0100
0010
,
1000
0100
0010
0001
0010
0100
1000
0100
,
0001
0010
0110
0001
1000
0010
0100
0001
,
0010
0100
1000
0010
1000
0010
0100
0001
,
0010
0000
0100
0000
1000
0100
0010
0001
1000
0010
1000
0100
0010
0001
0100
0001
,
0010
0100
1000
0010
0100
0001
0010
0100
1000
0001
1000
0010
0100
0001
0010
0001
,
1000
0010
1000
0100
1001
0000
0000
0000
0000
0000
0000
0000
0000
0000
0000
0000
;

//---------------dance-single - ----------------
#NOTES:
     dance-single:
     :
     Hard:
     8:
     0.418,0.454,0.051,0.071,0.000,550.000,10.000,14.000,0.000,0.000:

0000
1001
0001
0100
,
0010
0000
1000
0001
0100
0001
0010
0000
,
0100
0000
1000
0000
0100
0001
0010
0000
,
0100
1000
0010
0200
,
0000
0000
0000
0320
,
0000
1030
0001
0100
,
0010
1000
0001
0010
0100
1000
0001
0000
,
0100
0010
1000
0001
,
1000
0001
0100
0000
0010
1000
0001
0000
,
1000
0001
0100
0000
0010
0000
1000
0000
,
1000
0100
0010
0001
1000
0010
0100
0000
,
0001
1000
0001
0010
,
0100
1000
0001
0100
0010
0000
1000
0001
,
0100
1001
0010
1010
,
0001
0100
0001
0100
0010
0100
0001
0000
,
1000
0100
0010
0001
,
1000
0010
0100
0000
0001
1000
0010
0000
,
1000
0001
0010
0000
0100
0000
1000
0000
,
0001
0100
0010
1000
0010
0100
0001
0000
,
0001
1000
0100
0010
,
0001
1000
0010
0100
0001
0000
0001
1000
,
0010
1001
0000
0000
,
0000
0000
0000
0002
,
0000
1003
0010
0100
,
0001
0000
1000
0001
0100
0001
0010
0000
,
0100
0000
1000
0000
0001
0100
0010
0000
,
1000
0100
0010
0002
,
0000
1003
0010
0100
,
0001
0000
1000
0001
0100
0010
1000
0000
,
0100
0000
0010
0000
0001
1000
0001
0000
,
0100
0010
1000
0002
,
0000
1003
0100
0010
,
0001
0000
1000
0001
0100
0010
1000
0000
,
0001
0000
0100
0000
1000
0100
0010
0000
,
0001
0100
0010
1000
,
0001
0010
0100
1000
,
0001
0000
0100
0001
0010
0100
1000
0000
,
0001
0000
0100
0000
0010
1000
0001
0000
,
0100
0010
1000
0002
,
0000
1003
0010
0100
,
0001
0000
0010
0001
1000
0001
0100
0000
,
0010
0000
1000
0000
0001
0100
0010
0000
,
1000
0001
0100
0010
,
1000
1001
0010
0100
,
0001
0000
1000
0100
0010
0001
1000
0001
,
1000
0010
0100
0010
1000
0010
0100
0001
,
0010
0100
1000
0001
0100
0010
1000
0000
,
0001
1001
0010
1000
,
0100
0000
0010
0001
1000
0001
0100
0000
,
0010
0000
1000
0000
0001
1000
0001
0000
,
0010
0100
1000
0002
,
0010
1003
0010
0100
,
0001
0000
1000
0100
0010
0100
1000
0000
,
0001
0000
0100
0000
0010
1000
0001
0000
,
0100
0001
0010
0200
,
1000
1300
0001
0100
,
0010
0000
1000
0010
0100
0010
1000
0000
,
0001
0000
0100
0000
0001
1000
0001
0000
,
0010
0100
1000
0002
,
1000
0103
0010
1000
,
0001
0000
0010
0100
1000
0100
0010
0000
,
0001
0000
1000
0000
0010
1000
0001
0000
,
0100
0001
0010
0200
,
1000
1300
0001
0100
,
0010
0000
1000
0010
0100
0001
0010
0000
,
0100
0000
1000
0000
0001
0010
0100
0000
,
1000
0100
0010
0002
,
1000
0103
0010
1000
,
0010
0000
0100
0001
0010
0100
1000
0000
,
0001
0000
1000
0001
0100
0010
1000
0010
,
0100
0001
0010
0100
1000
0001
0000
0100
,
0010
1000
0001
0000
1000
0000
0001
0000
,
0100
0010
1000
0010
0100
0001
0010
0000
,
0001
1000
0100
0010
,
0001
0000
1000
0010
0100
0000
0100
0001
,
0010
0100
1000
0001
,
0100
0010
1000
0010
0100
0001
0010
0000
,
0001
1000
0100
0010
,
0001
1000
0010
0100
,
0001
1001
0001
0010
,
0100
1000
0100
0010
0001
1000
0001
0000
,
0100
0010
1000
0010
,
0100
0001
0010
0100
1000
0001
0100
0010
,
1000
0001
0010
0000
0100
0000
1000
0000
,
0001
1000
0001
0100
0001
0010
0001
0000
,
1000
0000
1000
0010
0100
0000
0010
0000
,
1000
0001
0100
0001
0010
0000
0010
0001
,
1000
1000
0010
0100
,
0001
0000
0010
0000
0001
1000
0001
0000
,
0100
0010
1000
1000
,
0001
0010
0100
1000
,
0001
0101
0010
1000
,
0010
0000
1000
0001
0010
0100
1000
0000
,
0001
0000
0100
0010
1000
0010
0000
0000
,
0100
0001
0010
0100
1000
0001
0100
0000
,
0010
1001
0001
0100
,
0010
0000
1000
0001
0010
0001
1000
0000
,
0100
0000
0010
0000
0001
1000
0001
0000
,
0100
0010
1000
0002
,
0010
0013
0100
1000
,
0001
0000
0100
0010
1000
0010
0100
0000
,
0001
0000
0010
0000
1000
0100
0001
0000
,
0100
0010
1000
0002
,
0010
1003
0100
0010
,
0001
0000
1000
0100
0010
0100
1000
0000
,
0001
0000
0100
0000
0010
1000
0010
0000
,
0100
0001
0010
0200
,
0010
0310
0001
1000
,
0010
0000
0100
0001
1000
0001
0010
0000
,
0100
0000
1000
0000
1000
0001
0010
0000
,
0100
1000
0010
0100
,
0001
1001
0000
0000
;
