#TITLE:CaptivAte~Chikai~;
#SUBTITLE:;
#ARTIST:DJ Yoshitaka feat AI;
#TITLETRANSLIT:;
#SUBTITLETRANSLIT:;
#ARTISTTRANSLIT:;
#CREDIT:;
#BANNER:captivate-bn.png;
#BACKGROUND:captivate-bg.png;
#LYRICSPATH:;
#CDTITLE:mo126129.png;
#MUSIC:CaptivAte~Chikai~.mp3;
#OFFSET:0.000;
#SAMPLESTART:73.600;
#SAMPLELENGTH:17.220;
#SELECTABLE:YES;
#BPMS:0.000=80.000,15.875=160.000,79.000=156.780,117.333=160.000,139.500=40.000,140.000=160.500,201.750=150.000,202.000=140.000,202.250=130.000,202.375=120.000,202.500=110.000,202.625=100.000,202.750=80.000,231.875=160.000,233.250=250.001,234.000=160.000;
#STOPS:15.875=1.700
,78.000=0.200
,78.250=0.200
,79.000=0.300
,200.000=0.600
,200.500=0.200
,200.750=0.180
,201.000=0.120
,201.250=0.300
,217.375=0.200
,225.167=0.200
,231.875=0.160
,232.250=0.100
,233.250=0.140
,263.000=0.120
,263.500=0.080
,264.500=0.240
;
#BGCHANGES:0.000=captivate-bg.PNG=1.000=0=0=1,
99999=-nosongbg-=1.000=0=0=0 // don't automatically add -songbackground-
;
// cache tags:
#FIRSTBEAT:0.167;
#LASTBEAT:264.875;
#SONGFILENAME:Songs/juju step2/CaptivAte~Chikai~/CaptivAte~Chikai~.sm;
#HASMUSIC:1;
#HASBANNER:1;
#MUSICLENGTH:125.813;
// end cache tags

//---------------dance-single - ----------------
#NOTES:
     dance-single:
     :
     Hard:
     12:
     1.000,1.000,1.000,0.238,0.866,671.000,204.000,30.000,0.000,4.000:
0000
0012
0000
1003
0000
0100
0000
2001
0000
3010
0000
0100
0000
2001
0000
3001
0000
1000
0000
0120
0000
0130
0000
0001
,
0000
0012
0000
0103
0000
0010
0000
0210
0000
0310
0000
1000
0000
2010
0000
3100
0000
0010
0000
1002
0000
0103
0000
0010
,
0000
1200
0000
0301
0000
0010
0000
1200
0000
0310
0000
0001
0000
1200
0000
0310
0000
1000
0000
0210
0000
0301
0000
1000
,
0000
2010
0000
3100
0000
0010
0000
1002
0000
0103
0000
0010
0000
1020
0000
0130
0000
0010
0000
0120
0000
1030
0000
0001
,
1000
0000
0001
0000
0010
0000
0100
1000
0010
0100
0001
0000
0110
0000
0000
0000
,
0100
0000
1000
0000
0010
0000
0001
1000
0001
0100
0010
0000
0110
0000
0000
0000
,
1000
0000
0001
0000
0100
0000
0010
0001
1000
0100
0010
0000
0110
0000
0000
0000
,
0001
0000
0010
0000
0100
0000
1000
0001
0100
0010
0100
0000
0110
0000
0000
0000
,
1000
0000
0001
0000
0100
0000
0001
1000
0001
0100
0010
0000
0110
0000
0000
0000
,
1000
0000
0010
0000
0100
0000
0001
1000
0010
0100
0001
0000
0110
0000
0000
0000
,
1000
0000
0001
0000
0100
0000
0010
1000
0001
0010
0100
0000
0110
0000
0000
0000
,
0001
0000
0010
0000
0100
0000
1000
0001
0010
0100
0010
0000
0110
0000
0000
0000
,
1010
0000
0100
0000
0011
0000
0100
0001
1000
0001
1000
0000
0110
0000
0000
0000
,
1100
0000
0010
0000
0101
0000
0100
0001
1000
0100
0010
0000
0110
0000
0000
0000
,
1001
0000
0100
0000
1001
0000
0010
0100
0010
1000
0010
0000
0110
0000
0000
0000
,
0110
0000
1000
0000
0110
0000
1000
0001
1000
0100
0010
0000
0110
0000
0100
0000
,
0101
0000
0010
0000
1010
0000
0100
0001
1000
0001
0010
0000
0110
0000
0100
0000
,
1001
0000
0010
0000
0101
0000
1000
0100
0010
0001
0010
0000
0110
0000
0100
0000
,
1100
0101
1100
0101
1100
0101
1100
0101
,
1000
0100
1000
0100
1000
0100
1000
0100
1000
0011
1000
0000
0010
0220
0000
0330
,
1100
0001
1100
0010
1100
0001
0011
0100
,
1010
0100
0011
0110
1100
0010
1100
0001
,
0110
0100
1001
0001
1100
0110
1001
0010
,
1100
1001
0110
0100
1001
0001
1100
0001
,
1010
0100
0011
0100
1010
1010
1100
0001
,
0011
0100
1010
0001
1100
1010
1001
0110
,
0100
1001
0010
1001
0010
0110
1001
0110
,
0110
0110
0010
1010
0100
0011
0100
0101
,
0010
0110
1001
0101
0010
1001
0010
0011
,
0100
0011
0010
0101
1000
1010
0100
0011
,
0010
0101
1000
1100
1010
0101
1000
1001
,
0100
0011
1001
1010
0100
1001
0010
0101
,
0001
1010
0001
1001
0100
1010
0100
1010
,
0010
1100
1001
1010
0100
1001
0001
0110
,
0100
0000
0000
0000
1010
0000
0000
0000
0001
0000
0000
0000
1100
0000
0000
0000
0110
0000
0000
0000
1001
0000
0000
0000
0011
0000
0000
0000
2200
0000
0000
3300
,
0011
0000
1000
0000
0101
0000
0010
0000
0101
0000
1000
0000
0011
0000
0100
1000
,
0001
0010
0101
1000
0011
0100
1010
1000
,
0011
0000
1100
0000
0101
0000
0010
1000
0100
0000
1000
0000
0011
0000
0100
0001
,
0010
0000
1000
0100
0010
0000
0100
0010
0001
0000
0010
0001
0100
0000
1000
0000
,
0101
0000
0010
0000
1001
0000
0100
0000
1010
0000
0001
0000
1100
0000
0010
0001
,
1000
0000
0001
0000
0110
0000
0010
0001
1000
0000
0010
0000
0101
0000
0001
1000
,
0100
0010
0101
1000
0011
0100
1001
0100
,
1010
0101
0011
0100
1001
0001
0110
0011
,
1100
0000
0010
0000
0101
0000
0010
1000
0001
0000
0010
0000
0101
0000
1000
0000
,
0101
0000
0011
0000
1001
0000
0010
1000
0100
0000
0001
0000
1010
0000
0100
0000
,
1001
0000
0100
0000
1010
0000
0100
0001
1000
0000
0010
0000
0101
0000
0001
0010
,
0100
0000
0010
0100
1000
0000
1000
0100
0010
0000
0100
0010
1001
0000
0100
0000
,
1010
0000
0001
0000
1010
0000
0100
0001
1000
0000
0001
0000
0101
0000
0010
0000
,
0101
1000
0110
0100
1001
0100
0011
1000
,
1001
0100
0011
1100
1010
0100
1001
0011
,
0110
0000
1100
0011
0110
1100
2002
0000
0000
0000
0000
3003
0000
0000
0000
0000
,
0000
0000
0000
0000
0000
0000
0000
0000
0000
0000
0000
1000
0000
0000
0100
0000
0000
0010
0000
0000
0001
0000
0000
1000
0000
0010
0000
0100
0000
0000
0001
0000
,
0000
0000
0010
0000
0000
0000
0000
0000
0100
0000
0000
0000
0000
0000
1000
0000
0000
0000
0001
0000
0000
0000
0000
0100
0000
0000
0000
0000
0000
0000
0001
0000
0000
0000
0000
0000
0010
0000
0000
0000
0000
0000
0100
0000
0000
0000
0000
0000
1000
0000
0000
0000
0001
0000
0000
0000
1000
0000
0000
0000
0000
0000
0100
0000
,
0000
0000
1000
0000
0000
0001
0000
0000
0100
0000
0000
0010
0000
0000
1000
0000
0000
0010
0000
0000
0100
0000
0000
0001
0000
0010
0000
0100
0000
0000
1000
0000
,
0000
0100
0000
0000
0010
0000
0000
0001
0000
0100
0010
0100
0000
2002
3003
0000
0100
0000
1100
0000
0000
1010
0000
0000
0110
0000
0001
0000
0000
0011
0000
0000
,
0110
0000
0000
1000
0000
1001
0000
0100
0000
0011
0000
0000
1001
0000
0000
0100
0000
0000
1100
0000
0000
1010
0000
0100
0000
0101
0000
0000
1010
0000
0000
0101
,
0000
0000
0000
0000
1100
0000
0000
0000
0000
0000
1001
0000
0000
0000
0100
0000
0010
0000
0100
0000
0000
0000
2002
0000
0000
0000
0000
0000
0000
0000
0100
3003
0000
0000
0000
0000
0000
0000
1000
0000
0000
0000
0000
0000
0000
0000
0100
0000
0000
0000
0000
0000
0000
0000
1000
0000
0000
0000
0000
0000
0000
0000
0100
0000
,
0000
0000
0000
1000
0000
0000
0000
0100
0000
1000
0000
0100
0000
1000
0000
0100
0000
1000
0000
0100
0000
0010
0000
0001
0010
0001
0010
0001
0010
0001
0010
0001
,
0000
1100
0000
0110
0000
0011
0000
0000
0101
0010
0100
1000
0100
0010
0001
0010
,
0100
0010
0001
1000
0100
0010
0001
1000
0001
1000
0010
0100
0001
1000
0010
0100
,
0001
0100
0010
1000
0001
0010
0100
1000
0001
0100
0010
1000
0001
1000
0010
0100
,
0001
0010
0100
1000
0100
0010
0100
1000
0100
0010
0001
0010
0100
0010
0001
0010
,
0100
1000
0001
1000
0001
0010
0100
1000
0001
1000
0100
0010
0100
1000
0100
0010
,
0001
0010
0001
0010
0001
0010
0100
1000
0100
1000
0100
1000
0100
0010
0001
0010
,
0001
0010
0001
1000
0010
1000
0010
1000
0001
0010
0001
1000
0100
1000
0001
0010
,
0001
1000
0100
1000
0001
0010
0001
0010
0100
1000
0100
1000
0002
0000
2000
0000
,
0020
0000
0000
0000
0000
0000
0000
0000
0000
0000
0000
0000
0000
0000
0000
0000
0000
0000
0000
0000
0000
0000
0000
0000
0200
0000
0000
0000
3333
0000
0000
0000
0000
0000
0000
0000
0000
0000
0000
0000
0000
0000
1111
0000
0000
0000
0000
0000
0000
0000
0000
0000
0000
0000
0000
0000
0000
0000
0000
0000
0000
0000
0000
0000
0000
0000
0000
0000
0000
0000
0000
0000
0000
0000
0000
0000
0000
0000
0000
0000
0000
0000
0000
0000
0000
0000
0000
0000
0000
0000
0000
0000
0000
0000
0000
0000
0000
0000
0000
0000
0000
0000
0000
0000
0000
0000
0000
0000
0000
0000
0000
0000
0000
0000
0000
0000
0000
0000
0000
0000
0000
0000
0000
0000
0000
0000
0000
0000
0000
0000
0000
0000
0000
0000
0000
0000
0000
0000
0000
0000
0000
0000
0000
0000
0000
0000
0000
0000
0000
0000
0000
0000
0000
0000
0000
0000
0000
0000
0000
0000
0000
0000
0000
0000
0000
0000
0000
0000
0000
0000
0000
0000
0000
0000
0000
0000
0000
0000
0000
0000
0000
0000
0000
0000
0000
0000
0000
0000
0000
0000
0000
0000
;
