#TITLE:Multi-Man Melee 2;
#SUBTITLE:Super Smash Brothers;
#ARTIST:Hirokazu Ando;
#TITLETRANSLIT:Multi-Man Melee 2;
#SUBTITLETRANSLIT:Super Smash Brothers;
#ARTISTTRANSLIT:Hirokazu Ando;
#CREDIT:John Bernhard;
#BANNER:Multi-Man Melee 2.png;
#BACKGROUND:Multi-Man Melee 2-bg.png;
#LYRICSPATH:;
#CDTITLE:!john-cdtitle.png;
#MUSIC:Multi-Man Melee 2.mp3;
#OFFSET:-0.140;
#SAMPLESTART:36.138;
#SAMPLELENGTH:16.560;
#SELECTABLE:YES;
#BPMS:0.000=169.121,131.000=84.560,143.000=169.120;
#STOPS:20.000=0.520
,123.000=0.717
,199.000=0.355
;
#BGCHANGES:;
// cache tags:
#FIRSTBEAT:0.500;
#LASTBEAT:222.000;
#SONGFILENAME:Songs/VGMP 2/Multi-Man Melee 2 (John11)/Multi-Man Melee 2.sm;
#HASMUSIC:1;
#HASBANNER:1;
#MUSICLENGTH:91.971;
// end cache tags

//---------------dance-single - Copied from CHALLENG----------------
#NOTES:
     dance-single:
     Copied from CHALLENG:
     Hard:
     10:
     0.780,1.000,0.924,0.979,0.402,327.000,85.000,90.000,0.000,0.000:

0000
0000
0000
0000
,
2002
0000
0000
0000
0000
0000
0000
0000
0000
0000
0000
0000
0000
0000
0000
0000
0000
0000
0000
0000
0000
0000
0000
0000
0000
0000
0000
0000
0000
0000
0000
0000
0000
0000
0000
0000
0000
0000
0000
0000
0000
0000
0000
0000
0000
0000
0000
0000
0000
0000
0000
0000
0000
0000
0000
0000
0000
0000
0000
0000
0000
0000
0000
0000
0000
0000
0000
0000
0000
0000
0000
0000
0000
0000
0000
0000
0000
0000
0000
0000
0000
0000
0000
0000
0000
0000
0000
0000
0000
0000
0000
0000
0000
0000
0000
0000
0003
0000
0000
0000
0000
0000
0000
0000
0000
0000
0000
0000
0000
0000
0000
0000
0000
0000
0000
0000
0000
0000
0000
0000
0200
0000
0000
0000
0000
0000
0000
0000
0000
0000
0000
0000
0000
0000
0000
0000
0000
0000
0000
0000
0000
0000
0000
0000
0000
0000
0000
0000
0000
0000
0000
0000
0000
0000
0000
0000
0000
0000
0000
0000
0000
0000
0000
0000
0000
0000
0000
0300
0020
0000
0000
0000
0000
0000
0000
0000
0000
0000
0000
0000
0000
0000
0000
0000
0000
0000
0000
0000
0000
0000
0000
3030
,
0002
0000
0000
0000
0000
0000
0003
0000
0010
0100
1000
0000
0010
0100
1000
0000
,
2002
0000
0000
0000
0000
0000
0000
0000
0000
0000
0000
0000
0000
0000
0000
0000
0000
0000
0000
0000
0000
0000
0000
0000
0000
0000
0000
0000
0000
0000
0000
0000
0000
0000
0000
0000
0000
0000
0000
0000
0000
0000
0000
0000
0000
0000
0000
0000
0000
0000
0000
0000
0000
0000
0000
0000
0000
0000
0000
0000
0000
0000
0000
0000
0000
0000
0000
0000
0000
0000
0000
0000
0000
0000
0000
0000
0000
0000
0000
0000
0000
0000
0000
0000
0000
0000
0000
0000
0000
0000
0000
0000
0000
0000
0000
0000
3000
0000
0000
0000
0000
0000
0000
0000
0000
0000
0000
0000
0000
0000
0000
0000
0000
0000
0000
0000
0000
0000
0000
0000
0020
0000
0000
0000
0000
0000
0000
0000
0000
0000
0000
0000
0000
0000
0000
0000
0000
0000
0000
0000
0000
0000
0000
0000
0000
0000
0000
0000
0000
0000
0000
0000
0000
0000
0000
0000
0000
0000
0000
0000
0000
0000
0000
0000
0000
0000
0000
0030
0200
0000
0000
0000
0000
0000
0000
0000
0000
0000
0000
0000
0000
0000
0000
0000
0000
0000
0000
0000
0000
0000
0000
0303
,
2020
0000
0000
0000
3030
0220
0000
0330
,
1001
2002
0000
0000
,
0000
0000
0000
3003
,
1100
0011
1001
1010
,
0110
1001
0101
1010
,
0000
0000
0000
0000
0000
1001
0000
0000
,
0000
0000
0000
0022
0000
0033
1100
0010
,
0001
0010
0100
1000
0001
0010
0000
0010
,
0001
1000
0100
1000
0001
0000
0001
1000
,
0001
1000
0001
1000
0001
1000
0000
1000
,
0001
0000
0010
0000
0100
0000
0010
0000
0001
0000
0000
0000
0001
0010
0100
1000
,
0001
0000
1000
0000
0001
0000
1000
0000
0010
0000
0100
0000
0010
1000
0010
1000
,
0010
0000
0100
0000
0001
0000
0010
0000
0100
0000
1000
0000
0100
0010
0100
1000
,
0100
0000
0100
0000
1000
0000
0001
0000
0010
0000
0100
0000
1000
0100
1000
0100
,
1000
0100
1000
0100
1000
0100
0010
0001
1000
0100
0010
0001
2000
0000
0000
0000
,
0001
0100
0000
0000
3020
0000
0230
0000
,
0010
0001
0000
0000
0302
0000
0023
0000
,
0100
0001
0000
0000
0032
0000
2003
0000
,
0010
0000
0100
0000
0000
0000
0001
0010
3002
0000
0000
0000
0023
0000
0000
0000
,
0100
0001
0000
0000
2030
0000
3002
0000
,
0010
0100
0000
0000
2003
0000
3200
0000
,
0010
1000
0000
0000
1000
0000
0010
0000
,
0010
0000
0000
0000
0000
0000
1000
0000
0000
0000
0000
0000
0000
0000
0000
0000
0000
0000
0300
0000
0000
0001
0000
0000
0001
0000
0000
0010
0000
0000
0100
0000
0000
1000
0000
0000
0200
0000
0000
0000
0000
0000
0000
0000
2300
0000
0000
0000
,
0000
0000
0000
0000
3200
0000
0000
0000
0000
0000
0000
0000
0320
0000
0000
0000
0000
0000
0000
0000
0000
0000
0000
0000
0230
0000
0000
0320
0000
0000
0032
0000
0000
0003
0000
0000
0020
0000
0000
0000
0000
0000
0000
0000
0000
0000
0000
0000
,
0230
0000
0000
2300
0000
0000
3002
0000
0000
2003
0000
3020
,
0000
0000
0000
0000
0230
0000
0000
0000
0000
0000
0000
0000
0302
0000
0000
0000
0000
0000
0000
0000
0000
0000
0000
0000
2003
0000
0000
3200
0000
0000
0320
0000
0000
0030
0000
0000
0001
0000
0000
0001
0000
0000
0001
0000
0000
0000
0000
0000
,
0010
0010
0010
0000
0100
0100
0100
0000
1000
1000
1000
0000
0000
0000
0000
0000
,
0000
0000
0000
0001
0010
0100
1000
0001
0010
0100
1000
0001
0010
0100
1000
0001
0010
0100
1000
0000
0000
0010
0000
0000
,
0000
1001
0000
1001
1001
0000
2000
0000
,
0000
0000
0000
0000
0000
0000
0000
0000
0000
0000
0000
0000
3002
0000
0000
0000
0000
0000
0000
0000
0000
0000
0000
0003
1020
0000
0000
0000
0000
0000
0000
0000
0000
0000
0000
0000
0230
0000
0000
0000
0000
0000
0000
0000
0000
0000
0000
0000
0302
0000
0000
0000
0000
0000
0000
0000
0000
0000
0000
0000
0000
0000
0000
0000
0000
0000
0000
0000
0000
0000
0000
0000
0203
0000
0000
0000
0000
0000
0000
0000
0000
0000
0000
0000
0001
0000
0000
0000
0000
0000
0000
0000
0000
0000
0000
0000
0320
0000
0000
0000
0000
0000
0000
0000
0000
0000
0000
0000
0100
0000
0000
0000
0000
0000
0000
0000
0000
0000
0000
0030
1002
0000
0000
0000
0000
0000
0000
0000
0000
0000
0000
0000
0000
0000
0000
0000
0000
0000
0000
0000
0000
0000
0000
0000
0023
0000
0000
0000
0000
0000
0000
0000
0000
0000
0000
0000
0000
0000
0000
0000
0000
0000
0000
0000
0000
0000
0000
0000
0000
0000
0000
0000
0000
0000
0000
0000
0000
0000
0000
0000
0000
0000
0000
0000
0000
0000
0000
0000
0000
0000
0000
0000
,
0000
0000
0000
0000
0000
0000
0000
0000
0000
0000
0000
0000
0230
0000
0000
0000
0000
0000
0000
0000
0000
0000
0000
0300
1002
0000
0000
0000
0000
0000
0000
0000
0000
0000
0000
0000
2003
0000
0000
0000
0000
0000
0000
0000
0000
0000
0000
0000
3200
0000
0000
0000
0000
0000
0000
0000
0000
0000
0000
0000
0000
0000
0000
0000
0000
0000
0000
0000
0000
0000
0000
0000
2300
0000
0000
0000
0000
0000
0000
0000
0000
0000
0000
0000
0001
0000
0000
0000
0000
0000
0000
0000
0000
0000
0000
3000
0021
0000
0000
0000
0000
0000
0000
0000
0000
0000
0000
0000
0100
0000
0000
0000
0000
0000
0000
0000
0000
0000
0000
0030
2100
0000
0000
0000
0000
0000
0000
0000
0000
0000
0000
0000
0000
0000
0000
0000
0000
0000
0000
0000
0000
0000
0000
0000
3002
0000
0000
0000
0000
0000
0000
0000
0000
0000
0000
0000
0000
0000
0000
0000
0000
0000
0000
0000
0000
0000
0000
0000
0000
0000
0000
0000
0000
0000
0000
0000
0000
0000
0000
0000
0000
0000
0000
0000
0000
0000
0000
0000
0000
0000
0000
0000
,
0000
0000
0000
0000
0000
0000
0000
0000
0000
0000
0000
0000
0023
0000
0000
0000
0000
0000
0000
0000
0000
0000
0000
0030
1200
0000
0000
0000
0000
0000
0000
0000
0000
0000
0000
0000
0320
0000
0000
0000
0000
0000
0000
0000
0000
0000
0000
0000
0230
0000
0000
0000
0000
0000
0000
0000
0000
0000
0000
0000
0000
0000
0000
0000
0000
0000
0000
0000
0000
0000
0000
0000
0302
0000
0000
0000
0000
0000
0000
0000
0000
0000
0000
0000
1000
0000
0000
0000
0000
0000
0000
0000
0000
0000
0000
0000
0203
0000
0000
0000
0000
0000
0000
0000
0000
0000
0000
0000
0010
0000
0000
0000
0000
0000
0000
0000
0000
0000
0000
0300
0021
0000
0000
0000
0000
0000
0000
0000
0000
0000
0000
0000
0000
0000
0000
0000
0000
0000
0000
0000
0000
0000
0000
0000
0032
0000
0000
0000
0000
0000
0000
0000
0000
0000
0000
0000
0000
0000
0000
0000
0000
0000
0000
0000
0000
0000
0000
0000
0000
0000
0000
0000
0000
0000
0000
0000
0000
0000
0000
0000
0000
0000
0000
0000
0000
0000
0000
0000
0000
0000
0000
0000
,
0010
1000
0010
1000
,
0010
0000
0000
0000
1003
0000
0000
0001
0001
0010
0100
1000
0110
0000
0000
0001
,
0110
0000
0001
0110
0000
0000
1100
1100
,
0000
0000
1100
0000
1010
0000
1100
0000
1010
0000
1100
0000
1010
0000
0000
0001
,
1010
0000
0001
1010
0000
0000
1010
1010
,
0000
0000
1010
0000
1001
0000
1010
0100
1001
0000
1010
0000
0110
0000
0000
0001
,
0110
0000
0000
0000
0001
0000
0110
0000
1000
0100
0010
0001
0010
0000
1000
0000
,
0000
0000
1100
0000
1010
0000
1100
0000
1010
0000
1100
0000
1010
0000
0000
0001
,
1010
0000
0000
0000
0001
0000
1010
0000
0001
0010
0100
1000
0100
0000
0001
0000
,
0000
0000
1010
0000
1001
0000
1010
0100
1001
0000
1010
0000
1100
0000
0000
0100
,
1001
0000
0000
0000
1010
0000
0101
0000
0000
0000
0000
0000
1010
0000
0000
0010
,
0101
0000
0110
0011
0000
0000
2000
0000
,
0020
0000
0000
0000
0000
0000
0000
0000
0000
0000
0000
0000
0000
0000
0000
0000
0000
0000
0000
0000
0000
0000
0000
0000
0000
0000
0000
0000
0000
0000
0000
0000
0000
0000
0000
0000
0000
0000
0000
0000
0000
0000
0000
0000
0000
0000
0000
3000
0200
0000
0000
0000
0000
0000
0000
0000
0000
0000
0000
0000
0000
0000
0000
0000
0000
0000
0000
0000
0000
0000
0000
0000
0000
0000
0000
0000
0000
0000
0000
0000
0000
0000
0000
0000
0000
0000
0000
0000
0000
0000
0000
0000
0000
0000
0000
0030
0002
0000
0000
0000
0000
0000
0000
0000
0000
0000
0000
0000
0000
0000
0000
0000
0000
0000
0000
0000
0000
0000
0000
0000
0000
0000
0000
0000
0000
0000
0000
0000
0000
0000
0000
0000
0000
0000
0000
0000
0000
0000
0000
0000
0000
0000
0000
0300
2000
0000
0000
0000
0000
0000
0000
0000
0000
0000
0000
0000
0000
0000
0000
0000
0000
0000
0000
0000
0000
0000
0000
0000
0000
0000
0000
0000
0000
0000
0000
0000
0000
0000
0000
0000
0000
0000
0000
0000
0000
0000
0000
0000
0000
0000
0000
0003
,
0200
0000
0000
0000
0000
0000
0000
0000
0000
0000
0000
0000
0000
0000
0000
0000
0000
0000
0000
0000
0000
0000
0000
0000
0000
0000
0000
0000
0000
0000
0000
0000
0000
0000
0000
0000
0000
0000
0000
0000
0000
0000
0000
0000
0000
0000
0000
3000
0020
0000
0000
0000
0000
0000
0000
0000
0000
0000
0000
0000
0000
0000
0000
0000
0000
0000
0000
0000
0000
0000
0000
0000
0330
0000
0000
0000
0000
0000
0000
0000
0000
0000
0000
0000
0000
0000
0000
0000
0000
0000
0000
0000
0000
0000
0000
0000
1001
0000
0000
0000
0000
0000
0000
0000
0000
0000
0000
0000
0000
0000
0000
0000
0000
0000
0000
0000
0000
0000
0000
0000
1001
0000
0000
0000
0000
0000
0000
0000
0000
0000
0000
0000
0000
0000
0000
0000
0000
0000
0000
0000
0000
0000
0000
0000
0000
0000
0000
0000
0000
0000
0000
0000
0000
0000
0000
0000
0000
0000
0000
0000
0000
0000
0000
0000
0000
0000
0000
0000
0000
0000
0000
0000
0000
0000
0000
0000
0000
0000
0000
0000
0000
0000
0000
0000
0000
0000
0000
0000
0000
0000
0000
0000
,
0110
0000
0000
0000
0000
0000
1100
0000
1010
0000
1001
0000
,
1010
0000
0110
0000
0101
0000
0000
0000
0000
0000
0000
0000
,
0000
0000
0001
1000
0001
1000
0001
1000
0001
0000
0000
0000
2002
0000
3003
0000
,
0220
0000
0330
0000
2002
0000
3003
0220
,
0000
0330
2002
0000
0000
0000
0000
0000
,
0000
0000
3003
0000
;

//---------------dance-single - Copied from Blank----------------
#NOTES:
     dance-single:
     Copied from Blank:
     Challenge:
     11:
     0.932,1.000,1.000,0.979,0.468,360.000,150.000,90.000,0.000,46.000:

0000
0001
1000
0001
0010
0100
0000
0100
,
2002
0000
0000
0000
0003
0210
0010
0321
,
3032
0000
0000
0000
0000
0000
0000
0000
0010
0100
1000
0000
0010
0100
1003
0000
,
2002
0000
0000
0000
3100
0120
0100
0230
,
2323
0000
0000
0000
3030
0220
0000
0330
,
1001
2002
0000
0000
,
0000
0010
0010
3013
,
1100
0000
0000
0000
0000
0000
0011
0000
0000
0000
0000
0000
1001
0000
0000
0000
0000
0000
1010
0000
0000
0100
0010
0001
,
0110
1000
0100
1001
0100
0010
0101
0010
0001
1010
0000
0000
,
1001
0100
0010
0100
0010
1001
0000
0010
,
1100
0010
1100
0022
0000
0033
1100
0010
,
0101
0010
0100
1000
0101
0010
0000
0010
,
0101
1000
0100
1000
0101
0000
0001
1000
,
0101
1000
0001
1000
0101
1000
0000
1000
,
0101
0000
0010
0000
0100
0000
0010
0000
0101
0000
0000
0000
0001
0010
0100
1000
,
0011
0000
1000
0000
0001
0000
1000
0000
0011
0000
0100
0000
0010
1000
0010
1000
,
0011
0000
0100
0000
0001
0000
0010
0000
0101
0000
1000
0000
0100
0010
0100
1000
,
0101
0000
0100
0000
1000
0000
0001
0000
1010
0000
0100
0000
1000
0100
1001
0100
,
1000
0100
1000
0100
1010
0100
0010
0001
1010
0100
1010
0100
2001
0000
0000
0000
,
0011
0100
0000
0000
3120
0000
0230
0000
,
0011
0001
0000
0000
0312
0000
0023
0000
,
0101
0001
0000
0000
1032
0000
2003
0000
,
0011
0000
0100
0000
0000
0000
0001
0010
3102
0000
0000
0000
0023
0000
0000
0000
,
0101
0001
0000
0000
2130
0000
3002
0000
,
0110
0100
0000
0000
2013
0000
3200
0000
,
0011
1000
0000
0000
1000
0000
0011
0000
,
0011
0000
0000
0000
0000
0000
1000
0000
0000
0000
0000
0000
0000
0000
0000
0000
0000
0000
0300
0000
0000
1001
0000
0000
0001
0000
0000
0010
0000
0000
0100
0000
0000
1000
0000
0000
0200
0000
0000
0000
0000
0000
0000
0000
2300
0000
0000
0000
,
0000
0000
0000
0000
3200
0000
0000
0000
0000
0000
0000
0000
0320
0000
0000
0000
0000
0000
0000
0000
0000
0000
0000
0000
0230
0000
0000
0320
0000
0000
0032
0000
0000
0003
0000
0000
0020
0000
0000
0000
0000
0000
0000
0000
0000
0000
0000
0000
,
0230
0000
0000
0000
0000
0000
0000
0000
0000
0000
0000
0000
2300
0000
0000
0000
0000
0000
0000
0000
0000
0000
0000
0000
3002
0000
0000
0000
0000
0000
0000
0000
0000
0010
0000
0000
2103
0000
0000
0000
0000
0000
0000
0000
3020
0000
0000
0000
,
0000
0000
0000
0000
0230
0000
0000
0000
0000
0000
0000
0000
0302
0000
0000
0000
0000
0000
0000
0000
0000
0000
0000
0000
2003
0000
0000
3200
0000
0000
0320
0000
0000
0030
0000
0000
1001
0000
0000
0001
0000
0000
0001
0000
0000
0000
0000
0000
,
1010
0010
0010
0000
0101
0100
0100
0000
1001
1000
1000
0000
0000
0000
0000
0000
,
0000
0000
0000
0001
0010
0100
1000
0001
0010
0100
1000
0001
0010
0100
1000
0001
0010
0100
1001
0000
0000
0010
0000
0000
,
0000
0000
1001
0000
0000
0000
1001
0000
1001
0000
0000
0000
2000
0000
0000
0010
,
0000
3002
1023
0230
0302
0000
0203
1001
0320
0100
1032
0000
0023
0000
0000
1000
,
0000
0230
1302
2003
3200
0000
2300
0101
3021
0100
2130
0000
3002
0000
0000
0100
,
0000
0023
1230
0320
0230
0000
0302
1010
0203
0010
0321
0000
0032
0000
0000
0000
,
0110
1000
0110
1000
,
0110
0000
0000
0000
1003
0000
0000
1001
0001
0010
0100
1000
0110
0000
0000
1001
,
0110
0000
1001
0110
0000
0000
1100
1100
,
0000
0000
1100
0000
1010
0000
1100
0000
1010
0000
1100
0000
1010
0000
0000
0101
,
1010
0000
0101
1010
0000
0000
1010
1010
,
0000
0000
1010
0000
1001
0000
1010
0100
1001
0000
1010
0000
0110
0000
0000
1001
,
0110
0000
0000
0000
0000
0000
1001
0000
0000
0110
0000
0000
0001
0000
0010
0000
0100
0000
1010
0000
0000
1100
0000
0000
,
1010
0000
1100
0000
1010
0000
1100
0000
1010
0000
1100
0000
1010
0000
0000
0001
,
1010
0000
0000
0000
0000
0000
0001
0000
0000
1010
0000
0000
0001
0000
0010
0000
0100
0000
1001
0000
0000
1010
0000
0000
,
0000
0000
1010
0000
1001
0000
1010
0100
1001
0000
1010
0000
1100
0000
0000
0100
,
1001
0000
0000
0000
1010
0000
0101
0000
0000
0000
0000
0000
1010
0000
0000
0010
,
0101
0000
0110
0011
0000
0000
2000
0000
,
0020
0000
0000
0000
0200
0000
0000
0000
0002
0000
0000
3000
2000
0000
0000
0300
,
0200
0000
0000
0000
0000
0000
0000
0000
0000
0030
0000
0000
0020
0000
0000
0000
0000
0000
0000
0000
0000
0000
3333
0000
1001
0000
0000
0000
0000
0000
1001
0000
0000
0000
0000
0000
0000
0000
0000
0000
0000
0000
0000
0000
0000
0000
0000
0000
,
0110
0000
0000
0000
0000
0000
1100
0000
1010
0000
1001
0000
,
1010
0000
0110
0000
0101
0000
0000
0000
0000
0000
0000
0000
,
0000
0000
0001
1000
0001
1000
0001
1000
0001
0000
0000
0000
2002
0000
3003
0000
,
0220
0000
0330
0000
2002
0000
3003
0220
,
0000
0330
2002
0000
0000
0000
0000
0000
,
0000
0000
3003
0000
;
