#TITLE:1st Samurai;
#SUBTITLE:;
#ARTIST:sampling masters MEGA;
#TITLETRANSLIT:;
#SUBTITLETRANSLIT:;
#ARTISTTRANSLIT:;
#CREDIT:;
#BANNER:1st%20Samurai-BN.png;
#BACKGROUND:1st%20Samurai.png;
#LYRICSPATH:;
#CDTITLE:;
#MUSIC:[Beatmania IIDX 10th style]1st Samurai.mp3;
#OFFSET:-0.180;
#SAMPLESTART:34.286;
#SAMPLELENGTH:12.000;
#SELECTABLE:YES;
#BPMS:0.000=175.000,268.000=200.000;
#STOPS:;
#BGCHANGES:;
// cache tags:
#FIRSTBEAT:0.000;
#LASTBEAT:310.000;
#SONGFILENAME:Songs/dragon force/1st Samurai/Samurai.sm;
#HASMUSIC:1;
#HASBANNER:0;
#MUSICLENGTH:107.211;
// end cache tags

//---------------dance-single - ----------------
#NOTES:
     dance-single:
     :
     Hard:
     10:
     1.000,1.000,0.709,0.000,1.000,887.000,76.000,0.000,0.000,0.000:





1100
0000
1000
0100
0000
0010
0001
0000
1000
0000
1000
0010
0100
0001
1000
0000
,
1001
0000
0001
0100
0000
0010
1000
0000
0001
0000
1000
0100
0010
0100
1000
0000
,
1100
0000
1000
0100
0000
0010
0001
0000
1000
0000
0001
1000
0010
0100
0001
0000
,
0101
0000
0001
0100
0000
0010
1000
0000
0001
0000
1000
0001
0100
0010
0000
0000
,
0010
0100
0001
1000
0100
0000
0010
0000
0001
0000
1000
0010
0100
0010
1000
0000
,
1010
0000
0100
0001
1000
0000
0100
0010
0001
0000
1000
0010
0100
0001
1000
0000
,
0001
1000
0100
0010
0001
0000
1000
0000
0010
0000
1000
0010
0100
0001
1000
0000
,
1001
0000
0001
1000
0100
0000
0010
0001
0100
0000
0101
0000
0010
1000
0001
0000
,
1001
0000
0001
1000
0010
0000
0100
0000
0001
0000
1000
0100
1000
0010
0100
0000
,
0110
0000
0001
1000
0001
0000
0100
0000
0010
0000
0100
0001
1000
0100
0000
0000
,
1100
0000
0010
0001
1000
0000
0010
0000
0100
0000
0001
1000
0001
0100
0010
0000
,
0110
0000
1000
0100
0010
0000
0001
0000
1000
0000
0001
1000
0010
0000
0000
0000
,
1010
0000
0010
0100
0000
0001
1000
0000
0001
0000
1000
0100
0010
0001
1000
0000
,
1001
0000
1000
0010
0100
0001
1000
0000
1001
0000
0001
1000
0100
0010
0001
0000
,
0011
0000
0001
0010
0000
0010
0100
0000
1000
0000
0001
1000
0010
0100
0001
0000
,
0101
0000
0010
1000
0100
0010
0001
0000
0011
0000
0001
1000
0010
0100
0001
0000
,
0101
0000
0001
0100
0000
0100
0010
0000
1000
0000
0001
1000
0100
0010
0100
0000
,
0110
0000
0001
1000
0010
0100
0001
0000
0101
0000
0010
1000
0100
0010
0100
0000
,
0110
0000
1000
0010
0000
0010
0100
0000
0001
0000
0100
0010
1000
0001
1000
0000
,
1001
0000
0001
0010
0100
0000
1000
0000
0001
0010
0100
0000
0110
0000
0000
0000
,
1001
0000
0001
1000
0010
0000
0100
0001
1000
1000
0100
0010
0001
0000
1000
0010
,
0100
0000
0001
1000
0100
0000
0010
0001
1000
1000
0010
0100
0001
0001
1000
0100
,
0010
0000
0001
1000
0010
0000
0100
0010
1000
1000
0100
0010
0001
0000
1000
0001
,
0100
0000
0010
1000
0100
0000
0010
0100
1000
1000
0010
0100
0001
0001
1000
0100
,
0010
0000
0001
1000
0010
0100
0001
1000
0100
0000
0010
0100
1000
0000
0001
1000
,
0010
0000
0100
0001
1000
0100
0010
0100
1000
0000
0001
1000
0010
0000
0100
0010
,
1000
0000
0001
1000
0100
0010
0100
0000
0110
0000
1000
0001
1000
0010
0100
0000
,
0110
0000
0001
1000
0100
0010
0100
1000
0001
0000
1001
0000
0000
0000
0000
0000
,
1001
0000
0001
1000
0010
0100
0001
0000
0101
0000
0010
1000
0100
0000
0010
0000
,
0110
0000
0001
1000
0010
0100
0010
1000
0100
0000
1100
0000
0000
0000
0000
0000
,
1001
0000
0001
0010
0100
1000
0001
0000
1001
0000
1000
0010
0100
0001
1000
0000
,
0001
1000
0001
1000
0001
1000
0001
1000
0001
1000
0001
1000
0001
1000
0001
1000
,
0010
0100
0001
1000
0100
0000
0010
0100
1000
0010
0100
0000
0001
0000
1000
0000
,
0001
0000
1000
0010
0100
0000
0010
0100
0001
1000
0100
0000
1000
0000
0010
0000
,
0100
0010
1000
0100
0010
0000
0001
1000
0010
0100
0001
0000
1000
0000
0100
0000
,
1100
0000
0010
0001
1000
0000
0001
0000
1000
0010
0100
0000
0110
0000
0001
0000
,
1000
0010
0100
0000
0001
1000
0100
0010
0001
1000
0000
0010
0100
0000
0001
0000
,
1000
0000
0100
0010
0001
1000
0010
0100
0010
1000
0000
0001
1000
0000
0100
0010
,
0001
1000
0010
0000
0100
0010
1000
0100
0010
0001
0000
1000
0010
0000
0100
0000
,
0110
0000
0001
1000
0100
0010
0100
1000
0010
0100
0000
0001
1000
0000
0100
0010
,
0001
1000
0010
0000
1010
0000
0000
0000
0010
1000
0010
1000
0010
0000
0000
0000
,
0100
0001
0100
0000
0101
0000
0000
0000
0001
0100
0001
0100
0001
0000
1000
0000
,
0001
1000
0100
0010
0100
1000
0010
0100
0001
1000
0100
0010
0001
1000
0010
0100
,
0010
1000
0001
0010
0001
1000
0010
1000
0001
0010
0100
1000
0010
0100
0001
1000
,
0100
0010
0001
1000
0010
0000
0100
0000
0001
1000
0001
1000
0100
0000
0010
0000
,
0001
1000
0010
1000
0001
0000
1000
0000
0001
1000
0100
0010
0001
0000
0011
0000
,
0001
0010
0100
1000
0010
0000
0100
0000
0001
1000
0001
0100
0010
0000
1000
0000
,
1010
0101
0011
0001
0011
0100
1100
0010
,
0100
0010
0100
0001
1000
0000
1001
0000
1000
0100
1000
0100
0010
0000
0001
0000
,
1000
0010
1000
0010
0100
0000
0110
0000
0001
1000
0001
1000
0100
0000
0010
0000
,
0001
0010
0001
0010
0100
0000
0110
0000
1000
0010
1000
0010
0100
0000
0001
0000
,
0101
1010
0101
0010
1010
1000
1001
0001
,
1000
0100
0010
0001
1000
0010
0100
0010
1000
0100
0010
0100
1000
0010
0100
0010
,
0100
0010
0100
0001
1000
0100
0010
0001
1000
0001
1000
0100
0010
0100
1000
0010
,
1000
0001
0010
0001
1000
0010
0100
0001
1000
0100
0010
0100
1000
0010
0100
0001
,
1000
0100
0010
0100
1000
0010
0100
0001
1000
0100
0010
0100
1000
0010
0100
0001
,
1000
0010
0100
0001
1000
0100
0010
0001
1000
0010
0100
0001
1000
0100
1000
0100
,
0010
0001
1000
0010
0100
0001
0100
0001
0010
0100
1000
0000
0010
0100
0010
0100
,
0010
1000
0100
0010
0001
0000
1000
0010
0100
0001
1000
0100
0010
0000
0001
1000
,
0010
0100
0010
1000
0100
0000
0010
0001
1000
0010
0100
0001
1000
0000
0100
0010
,
0001
1000
0010
0100
0010
1000
0100
0010
0001
1000
0001
0100
0010
0100
0001
1000
,
0100
1000
0100
0010
0001
0010
0001
0100
0001
0100
0010
1000
0100
0010
0100
1000
,
0010
0100
0001
0000
1000
0100
0010
0000
0001
1000
0010
0000
0100
0010
1000
0000
,
0001
1000
0100
0000
0010
0100
1000
0000
0010
0100
0001
0000
1000
0001
1000
0000
,
1001
0100
1001
0010
1001
0100
1001
0010
,
1001
0100
1001
0010
1001
0100
1001
0010
,
0001
0000
0000
0000
,
0000
0000
0110
1001
,
0001
1000
0010
0100
0010
1000
0100
0010
0001
1000
0010
0100
0001
1000
0100
0010
,
0100
1000
0010
0100
0001
1000
0100
0010
0001
1000
0010
0100
0001
1000
0100
0010
,
0100
1000
0001
0000
1000
0010
0100
0000
0001
0010
0100
0000
1000
0001
1000
0000
,
0010
0100
0010
0000
1000
0001
0100
0000
0010
1000
0001
0000
1000
0100
0010
0000
,
0110
0001
0110
1000
0110
0001
0110
1000
,
0110
0001
0110
1000
0110
0001
0110
1000
,
0110
0000
0000
0000
0100
0000
0000
0000
0000
0000
0000
1000
0000
0000
0010
0100
,
0001
0000
0000
0000
0000
1001
0000
0000
0000
0000
0000
0000
0000
0000
0000
0000
1001
0000
0000
0000
0000
0000
0000
0000
0000
0000
0000
0000
0010
0000
0100
0000
,
1001
0000
1001
0000
,
1001
0000
0100
0000
,;
