#TITLE:Never Stop The Speedcore;
#SUBTITLE:The Boss Song of Braeden;
#ARTIST:Imil;
#TITLETRANSLIT:;
#SUBTITLETRANSLIT:;
#ARTISTTRANSLIT:;
#CREDIT:;
#BANNER:../Banner.png;
#BACKGROUND:../BG.png;
#LYRICSPATH:;
#CDTITLE:../CDTitleBRAEDEN.png;
#MUSIC:Imil - Never Stop The Speedcore.ogg;
#OFFSET:-0.778;
#SAMPLESTART:14.628;
#SAMPLELENGTH:11.700;
#SELECTABLE:YES;
#DISPLAYBPM:300.000;
#BPMS:0.000=300.000,776.000=150.000;
#STOPS:124.000=1.000
,319.000=6.200
,672.000=4.800
;
#BGCHANGES:;
// cache tags:
#FIRSTBEAT:4.000;
#LASTBEAT:784.000;
#SONGFILENAME:Songs/Index Fusion - Part 2/Never Stop The Speedcore - [Braeden]/SM.sm;
#HASMUSIC:1;
#HASBANNER:1;
#MUSICLENGTH:180.736;
// end cache tags

//---------------dance-single - EXPERT 21----------------
#NOTES:
     dance-single:
     EXPERT 21:
     Challenge:
     31:
     1.000,1.000,0.503,0.094,1.000,1952.000,91.000,17.000,0.000,1.000:
0000
0000
0000
0000
,
2001
3020
0230
0302
,
2003
0000
0000
0000
3200
0000
0000
0000
2300
0000
0000
0000
3001
0010
0001
0010
,
0001
0000
0000
0000
1000
0000
0000
0000
0000
0000
0000
0000
0001
1000
0001
1000
,
0001
1000
0010
0010
,
0200
0300
0100
0001
,
0100
0000
0000
0000
0010
0000
0000
0000
0010
0000
0000
0000
1000
0100
0010
0001
,
1000
0000
0000
0000
0010
0000
0000
0000
0000
0000
0000
0000
0001
0100
0010
1000
,
0010
0100
0010
1000
,
1001
0000
0001
0100
,
0010
0000
0000
0000
0010
0000
0000
0000
1000
0000
0000
0000
0001
0010
0100
1000
,
0010
0000
0000
0000
0100
0000
0000
0000
0000
0000
0000
0000
0001
0010
0100
1000
,
0001
0100
0010
1000
,
0002
0003
0100
0010
,
0010
0000
0000
0000
0100
0000
0000
0000
0010
0000
0000
0000
1000
0100
0010
0001
,
1000
0000
0000
0000
0010
0000
0000
0000
0000
0000
0000
0000
0100
0001
1000
0010
,
0100
0010
1000
0001
,
1001
0000
1001
0001
,
0101
0000
0000
0000
0100
0000
0000
0000
0110
0000
0000
0000
1000
0100
0010
0001
,
1000
0000
0000
0000
0010
0000
0000
0000
0110
0000
0000
0000
0100
0001
1000
0010
,
0100
0001
1010
0100
,
2020
3030
1010
1000
,
1001
0000
0000
0000
0001
0000
0000
0000
1001
0000
0000
0000
0010
0100
0001
1000
,
0010
0000
0000
0000
0100
0000
0000
0000
0101
0000
0000
0000
0010
0100
1000
0001
,
0100
0000
0010
0000
1010
0000
1000
0001
,
1001
1001
1001
1001
,
0011
0011
0011
0011
,
1001
1001
1001
1001
,
0110
0000
0110
0000
0110
0000
1000
0001
,
1000
0100
0010
0001
0010
0100
1000
0001
,
0100
0000
0010
0000
0100
0000
0001
0000
1000
0000
0100
0000
0010
0001
0010
0100
,
1000
0000
0000
0000
0002
0000
0000
0000
0000
0000
0000
0000
1003
0100
0010
0001
,
1000
0100
1000
0001
0010
0100
1000
0001
0100
0010
0100
0001
0010
0001
1000
0100
,
1000
0001
0100
0010
0100
0001
1000
0100
1000
0001
0010
0100
1000
0001
0100
0010
,
0100
0001
1000
0100
1000
0001
0100
0010
0100
0001
1000
0100
1000
0001
0010
0100
,
1000
0001
0100
0010
2000
0000
0000
0000
3100
0010
0001
0010
0100
1000
0001
0100
,
0010
0100
0001
1000
0100
0010
0001
0010
0100
1000
0001
0100
0010
0100
0001
0010
,
0100
1000
0001
0100
0010
1000
0100
0010
0001
0100
0010
1000
0001
0010
0100
1000
,
0001
0100
0010
0100
0001
1000
0010
0100
0001
0100
0010
0100
0004
0000
0000
0000
,
0013
0000
0000
0000
0400
0000
0000
0000
1300
0000
0000
0000
1000
0100
0010
0001
,
0010
0100
1000
0001
0100
0010
0100
0001
1000
0100
0010
0001
0010
0100
1000
0001
,
0100
0010
0100
0001
1000
0100
0010
0001
1000
0100
1000
0001
0010
0100
1000
0001
,
0100
0010
0100
0001
1000
0100
0010
0001
0010
0100
1000
0001
0100
0010
0100
0001
,
1000
0100
0010
0001
4000
0000
0000
0000
3100
0010
0001
1000
0010
0100
0001
1000
,
0100
0010
0001
0010
0100
1000
0001
0100
0010
0100
0001
1000
0100
1000
0001
0100
,
0001
1000
0100
1000
0001
0100
0010
1000
0100
0010
0001
0100
0010
0100
0010
1000
,
0001
0100
0010
1000
0100
0010
0001
0010
0100
1000
0001
0100
0010
0100
0001
1000
,
0010
0100
0001
1000
0010
0100
0010
1000
0100
0010
0001
0010
0100
1000
0001
0100
,
0010
0100
0001
1000
0100
0010
0001
0010
0100
1000
0001
0100
0010
0100
0001
1000
,
0100
0010
0100
1000
0001
0100
0010
0100
0001
1000
0100
0010
0001
0010
0100
1000
,
0001
0100
0010
0100
0001
1000
0100
1000
0001
0100
0010
0100
0001
1000
0100
0010
,
0100
1000
0001
0100
0010
0100
0001
1000
0100
0010
0100
1000
0001
0100
0010
0100
,
0001
0010
0001
1000
0100
0010
0100
1000
0001
0100
0010
0100
0001
0010
0001
1000
,
0100
1000
0001
0100
0010
1000
0100
0010
0001
0010
0100
1000
0004
0000
0000
0000
,
0043
0430
4300
3001
,
0000
0000
0000
0000
1000
0100
0010
0001
1000
0010
0100
0001
1000
0100
0010
0001
,
0010
0100
1000
0001
0100
0010
0100
0001
1000
0100
0010
0001
0010
0100
1000
0001
,
0100
0010
0100
0001
1000
0100
0010
0001
4000
0000
0000
0000
3001
0010
0100
1000
,
0001
0100
0010
0100
0001
1000
0100
0010
0001
0010
0100
1000
0001
0100
0010
0100
,
0001
0010
0001
1000
0100
0010
0001
0100
0010
1000
0001
0010
0100
1000
0001
0100
,
0010
0100
0001
1000
0100
0010
0001
0010
0100
1000
0001
0100
0010
0100
0001
1000
,
0100
0010
0001
0100
0010
1000
0001
0010
0100
1000
0001
0010
0001
0100
0010
0100
,
0001
1000
0100
0010
0100
1000
0001
0100
0010
0100
0001
1000
0100
0010
0001
0010
,
0100
1000
0001
0100
0004
0000
0000
0000
0013
0000
0000
0000
0100
1000
0001
0100
,
0010
1000
0100
0010
0001
0010
0100
1000
0001
0100
0010
1000
0001
0010
0100
1000
,
0001
0100
0010
0100
0001
1000
0010
0100
0001
0010
0100
1000
0001
0100
0010
1000
,
0001
0010
0100
1000
0001
0100
0010
1000
0001
0100
0010
1000
0001
0100
0010
1000
,
0001
0010
0100
1000
0001
0100
0010
0100
0040
0000
0000
0000
0130
0001
0100
0010
,
1000
0001
0010
0100
1000
0001
0100
0010
0100
0001
1000
0100
0010
0001
0010
0100
,
1000
0001
0100
0010
0100
0001
0010
0100
1000
0001
0100
0010
1000
0100
0010
0001
,
0010
0100
1000
0001
0100
0010
0100
0001
1000
0100
0010
0001
0010
0100
1000
0001
,
0100
0010
1000
0001
4000
0000
0000
0000
0000
0000
0000
0000
3001
0010
0100
1000
,
0001
0100
0010
0100
0001
1000
0100
0010
0001
0010
0100
1000
0001
0100
0010
1000
,
0001
0010
0001
1000
0100
0010
0001
1000
0001
0000
0000
0000
1000
0100
0010
0001
,
0010
0100
1000
0001
0100
0010
0100
0001
1000
0100
0010
0100
1000
0001
0100
0010
,
0100
0001
0010
0100
1000
0001
0100
0010
0100
0001
1000
0100
0010
0100
1000
0001
,
0100
0010
0100
0001
0010
0100
1000
0001
0100
0010
1000
0100
0010
0001
0010
0100
,
1000
0001
0100
0010
4000
0000
0000
0000
3001
0000
0000
0000
1000
0100
0010
0001
,
0010
0100
1000
0001
0100
0010
0100
0001
1000
0100
0010
0100
1000
0001
0100
0010
,
1000
0100
0010
0100
1000
0000
0000
0000
0000
0000
0000
0000
0001
0000
0000
0000
,
2002
3003
0001
0000
0100
0000
0010
0000
,
1000
0100
0010
0100
,
1000
0001
0100
0010
,
1000
0100
0010
0001
,
0001
1000
0010
0100
,
0001
1000
0100
0010
,
0100
0010
1000
0100
,
0001
0000
0000
0000
,
1001
0001
0100
0010
1000
0100
0010
0001
,
1001
1000
0010
0100
0001
1000
0100
0010
,
0011
0001
0100
0010
1000
0010
0100
0001
,
0101
0010
1000
0100
1000
0001
0010
0100
,
1100
0010
0001
0100
0010
1000
0100
0010
,
1001
0100
0010
1000
0100
0010
0001
1000
,
1001
0001
0100
0010
1000
0100
0010
0001
,
1001
0000
0000
1001
0000
0000
0010
0010
,
1001
0100
1001
0010
,
1001
0100
1100
0010
,
0011
0100
1100
1000
,
1001
0010
1001
0100
,
0011
0100
1010
0100
,
0011
1000
0110
0001
,
0110
1000
0101
0010
,
2002
0000
0000
3003
,
1000
0100
1000
0100
0010
0001
0010
0001
,
0100
0010
0100
0010
1000
0100
1000
0100
,
0010
0001
0010
0100
1000
0001
0100
0010
,
1000
0000
0100
0000
0010
0000
0001
0000
1000
0000
0000
0000
0001
0010
0100
1000
,
0001
0100
0010
0100
0001
1000
0100
0010
,
0100
1000
0001
0100
0010
1000
0100
0010
,
0001
0010
0100
1000
0001
0100
0010
1000
,
0100
0000
0010
0000
0001
0100
0010
1000
0001
0000
0100
0000
0010
0000
0100
0000
,
0001
1000
0100
0010
0100
1000
0001
0100
,
0010
0100
0001
1000
0100
0010
0001
0010
,
0100
1000
0001
0100
0010
0100
0001
1000
,
0001
0000
0000
0000
1000
0000
0000
0000
0001
0010
0100
1000
0001
0100
0010
1000
,
0001
0100
0010
0100
0001
1000
0100
0010
,
0100
1000
0001
0100
0010
1000
0100
0010
,
1001
1001
1001
0000
,
1000
0100
0010
0100
1000
0001
0100
0010
1000
0100
0010
0100
1000
0001
0100
0010
,
1000
0100
0010
0001
1000
0100
0010
0001
1000
0010
0100
0001
1000
0100
0010
0001
,
0010
0100
1000
0001
0100
0010
0100
0001
1000
0010
0100
0001
0010
0001
1000
0100
,
1000
0001
0010
0100
1000
0001
0100
0010
0100
0001
1000
0100
0010
0001
0010
0100
,
1000
0001
0100
0010
1000
0100
1000
0001
0010
0001
1000
0010
0100
0001
0010
0001
,
1000
0100
0010
0001
0010
0100
1000
0001
,
0100
0000
0010
0000
1000
0000
0100
0000
0010
0001
0100
0010
1000
0001
0010
0100
,
1000
0010
1000
0010
0100
0001
0100
0001
,
1000
0100
1000
0001
0400
0000
0000
0000
,
0310
1000
0001
0010
0100
1000
0001
0100
0010
1000
0100
0010
0001
0010
0100
1000
,
0001
0100
0010
1000
0001
0010
0100
1000
0001
0100
0010
1000
0040
0000
0000
0000
,
0130
0001
0010
0100
1000
0001
0100
0010
1000
0100
0010
0001
0010
0100
1000
0001
,
0100
0010
1000
0001
0010
0100
1000
0001
0400
0000
0000
0000
0340
0000
0000
0000
,
1030
0100
0010
0001
0010
0100
1000
0001
0100
0010
0100
0001
1000
0100
0010
0100
,
1000
0010
0100
0001
1000
0100
0010
0001
4000
0000
0000
0000
3004
0000
0000
0000
,
1003
0100
0010
0100
1000
0001
0010
0001
1000
0010
0100
0001
1000
0100
0010
0100
,
1000
0001
0100
0010
1000
0100
0010
0100
1000
0001
0100
0010
1000
0100
0010
0001
,
1000
0100
0010
0001
0010
0100
1000
0001
,
0100
0010
0100
0001
1000
0100
0010
0100
,
1000
0001
0100
0010
1000
0100
0010
0001
,
0010
0100
1000
0001
1000
0010
1000
0001
,
1001
0100
0010
0100
0001
1000
0100
0010
,
0100
1000
0001
0010
0001
1000
0100
1000
,
1001
0001
0100
0010
1000
0100
0010
0001
,
1000
0000
0010
0000
0100
0000
0001
0000
1000
0100
0010
0001
1000
0010
0100
0001
,
1000
0100
0010
0001
1000
0010
0100
0001
,
0011
0100
1000
0001
0100
0010
1000
0100
,
0011
0100
1000
0001
0100
0010
0100
0001
,
1100
0010
0001
0100
0010
1000
0001
1000
,
0011
0100
0010
1000
0011
0100
0010
1000
,
0101
0010
1000
0100
0011
0100
1000
0001
,
1010
1010
0110
0110
,
1000
0001
1000
0001
1000
0000
0000
0000
,
1000
0100
0010
0001
0010
0100
1000
0001
0100
0010
0100
0001
1000
0100
0010
0001
,
0010
0100
1000
0001
0100
0010
1000
0100
0010
0100
1000
0001
4000
0000
0000
0000
,
3001
0010
0100
1000
0001
0100
0010
1000
0001
0010
0001
1000
0100
0010
0001
0010
,
0100
1000
0001
0100
0010
0100
0001
1000
0100
1000
0001
0010
0001
0100
0010
1000
,
0001
0010
0100
1000
0001
0100
0010
0100
0001
1000
0100
1000
0001
0010
0100
1000
,
0001
0010
0001
1000
0010
0100
0001
0010
0001
1000
0100
0010
0001
0010
0100
1000
,
0001
0100
0010
0100
0001
1000
0100
0010
0100
1000
0001
0100
0010
1000
0001
0100
,
0004
0000
0000
0000
,
1003
0100
0010
0001
0010
0100
1000
0001
0100
0010
0100
0001
1000
0100
0010
0100
,
1000
0001
0010
0001
1000
0100
1000
0001
0400
0000
0000
0000
0000
0000
0000
0000
,
0310
1000
0100
0010
0001
0010
0100
1000
0001
0100
0010
1000
0100
0010
0001
1000
,
0010
0100
0001
0010
0001
1000
0100
1000
0001
0100
0010
1000
0001
0100
0010
1000
,
0100
0010
0001
1000
0100
0010
0001
1000
0010
0100
0001
0010
0001
1000
0100
0010
,
0100
1000
0001
0100
0010
1000
0001
0010
0100
1000
0001
0100
0010
1000
0100
0010
,
0100
0010
0100
1000
0001
0100
0010
1000
0100
0010
0001
0010
0100
1000
0001
0100
,
0010
1000
0100
0010
0001
1000
0100
0010
0001
1000
0100
0010
0001
0100
0010
1000
,
0001
0000
0000
0000
,
0000
0000
0000
0000
,
1101
0000
0010
0010
,
1001
0100
0010
0010
,
0000
0100
0001
0100
,
0000
0010
1000
1000
,
0001
0100
0001
0100
0010
1000
0010
1000
,
0001
0100
0010
1000
0100
0010
0001
0010
,
0100
1000
0001
0100
0010
1000
0001
1000
,
1001
1001
0000
0000
,
0001
0100
0010
1000
0001
0010
0100
1000
0001
0100
0010
0100
0001
1000
0100
0010
,
0001
0010
0100
1000
0001
0100
0010
0100
0001
1000
0100
0010
0001
0010
0100
1000
,
0001
0100
0010
1000
0001
0100
0010
1000
0100
0010
0001
0010
0100
1000
0001
0100
,
0010
0100
0001
1000
0100
0010
0001
1000
0100
1000
0001
0010
0100
1000
0001
0100
,
0010
1000
0100
0010
0100
1000
0100
0010
0100
1000
0001
0100
0010
1000
0100
0010
,
0100
1000
0001
0100
0010
1000
0100
0010
0001
0010
0100
1000
0001
0100
0010
1000
,
0100
0010
0001
0010
0100
1000
0001
0100
0010
1000
0100
0010
0001
1000
0100
0010
,
0400
0000
0000
0000
,
0310
0001
0100
0010
1000
0001
0010
0100
1000
0001
0100
0010
0100
0001
1000
0100
,
0010
0100
1000
0001
0100
0010
0100
0001
1000
0100
0010
0100
1000
0001
0100
0010
,
1000
0100
0010
0100
1000
0001
0010
0100
1000
0001
0100
0010
0100
0001
1000
0100
,
0010
0001
0010
0100
1000
0001
0100
0010
0100
0001
1000
0100
0010
0001
0010
0100
,
1000
0001
0100
0010
0100
0001
1000
0100
0010
0100
1000
0001
0100
0010
0100
0001
,
1000
0100
0010
0100
1000
0001
0100
0010
0100
0001
1000
0100
0010
0100
1000
0001
,
0100
0010
0100
0001
1000
0100
0010
0100
1000
0001
0100
0010
1000
0100
0010
0001
,
0010
0100
1000
0001
0100
0010
1000
0100
0010
0100
1000
0001
0100
0010
1000
0001
,
1000
0000
0001
0001
0100
0100
0010
1000
,
0000
1000
0001
0100
0010
1000
0100
0010
,
0001
0000
0000
0000
;

//---------------dance-single - ----------------
#NOTES:
     dance-single:
     :
     Hard:
     29:
     1.000,1.000,0.398,0.138,1.000,1631.000,72.000,25.000,0.000,0.000:

0000
0000
0000
0000
,
2001
3020
0230
0302
,
2003
0000
0000
0000
3200
0000
0000
0000
2300
0000
0000
0000
3001
0010
0001
0010
,
0001
0000
0000
0000
1000
0000
0000
0000
0000
0000
0000
0000
0001
1000
0001
1000
,
0001
1000
0010
0010
,
0200
0300
0100
0001
,
0100
0000
0000
0000
0010
0000
0000
0000
0010
0000
0000
0000
1000
0100
0010
0001
,
1000
0000
0000
0000
0010
0000
0000
0000
0000
0000
0000
0000
0001
0100
0010
1000
,
0010
0100
0010
1000
,
1001
0000
0001
0100
,
0010
0000
0000
0000
0010
0000
0000
0000
1000
0000
0000
0000
0001
0010
0100
1000
,
0010
0000
0000
0000
0100
0000
0000
0000
0000
0000
0000
0000
0001
0010
0100
1000
,
0001
0100
0010
1000
,
0002
0003
0100
0010
,
0010
0000
0000
0000
0100
0000
0000
0000
0010
0000
0000
0000
1000
0100
0010
0001
,
1000
0000
0000
0000
0010
0000
0000
0000
0000
0000
0000
0000
0100
0001
1000
0010
,
0100
0010
1000
0001
,
1001
0000
1001
0001
,
0101
0000
0000
0000
0100
0000
0000
0000
0110
0000
0000
0000
1000
0100
0010
0001
,
1000
0000
0000
0000
0010
0000
0000
0000
0110
0000
0000
0000
0100
0001
1000
0010
,
0100
0001
1010
0100
,
2020
3030
1010
1000
,
1001
0000
0000
0000
0001
0000
0000
0000
1001
0000
0000
0000
0010
0100
0001
1000
,
0010
0000
0000
0000
0100
0000
0000
0000
0101
0000
0000
0000
0010
0100
1000
0001
,
0100
0000
0010
0000
1010
0000
1000
0001
,
1001
1001
1001
1001
,
0011
0011
0011
0011
,
1001
1001
1001
1001
,
0110
0000
0110
0000
0110
0000
1000
0001
,
1000
0100
0010
0001
0010
0100
1000
0001
,
0100
0000
0010
0000
0100
0000
0001
0000
1000
0000
0100
0000
0010
0001
0010
0100
,
1000
0000
0000
0000
0002
0000
0000
0000
0000
0000
0000
0000
1003
0100
0010
0001
,
1000
0100
1000
0001
0010
0100
1000
0001
0100
0010
0100
0001
0010
0001
1000
0100
,
1000
0001
0100
0010
0100
0001
1000
0100
1000
0001
0010
0100
1000
0001
0100
0010
,
0100
0001
1000
0100
1000
0001
0100
0010
0100
0001
1000
0100
1000
0001
0010
0100
,
1000
0001
0100
0010
2000
0000
0000
0000
3010
0000
0100
0000
0001
0000
0010
0000
,
0001
1000
0100
0010
0001
0010
0100
1000
,
0001
0010
0001
0100
0010
0100
0001
0010
,
0001
1000
0100
0010
0001
1000
0004
0000
,
0013
0000
0000
0000
0400
0000
0000
0000
1300
0000
0000
0000
1000
0100
0010
0001
,
0010
0100
1000
0001
0100
0010
0100
0001
1000
0100
0010
0001
0010
0100
1000
0001
,
0100
0010
0100
0001
1000
0100
0010
0001
1000
0100
1000
0001
0010
0100
1000
0001
,
0100
0010
0100
0001
1000
0100
0010
0001
0010
0100
1000
0001
0100
0010
0100
0001
,
1000
0100
0010
0001
4000
0000
0000
0000
3100
0010
0001
1000
0010
0100
0001
1000
,
0001
0010
0100
1000
0001
0100
0010
0100
,
0001
0000
0010
0000
0001
0000
1000
0000
0001
0010
0100
1000
0001
0000
0100
0000
,
0010
0000
0100
0000
0001
0000
1000
0000
0001
0100
0010
1000
0010
0000
0100
0000
,
0001
0010
0100
1000
0001
0010
0001
1000
0100
0010
0001
1000
0010
0100
0001
0010
,
0001
1000
0100
0010
0001
0010
0100
1000
0001
0010
0001
0100
0010
0100
0001
0010
,
0001
1000
0100
0010
0001
1000
0100
1000
0001
0010
0001
0100
0010
1000
0001
0010
,
0100
1000
0001
0010
0001
1000
0100
0010
0001
0010
0100
1000
0001
0010
0001
0100
,
0010
0100
0001
0010
0001
1000
0100
0010
0001
0010
0100
1000
0001
0010
0001
0100
,
0010
0100
0001
0010
0001
1000
0100
0010
0001
0010
0100
1000
0001
0010
0001
0100
,
0010
0100
0001
0010
0100
1000
0001
0010
0001
1000
0010
0100
0004
0000
0000
0000
,
0043
0430
4300
3001
,
0000
0000
0000
0000
1000
0100
0010
0001
1000
0010
0100
0001
1000
0100
0010
0001
,
0010
0100
1000
0001
0100
0010
0100
0001
1000
0100
0010
0001
0010
0100
1000
0001
,
0100
0010
0100
0001
1000
0100
0010
0001
4000
0000
0000
0000
3001
0000
0010
0000
,
0100
1000
0001
0010
0001
0100
0010
0100
,
0001
0000
1000
0000
0100
0010
0001
0100
0010
1000
0001
0010
0100
1000
0001
0100
,
0010
0100
0001
1000
0100
0010
0001
0010
0100
1000
0001
0100
0010
0100
0001
1000
,
0100
0010
0001
0100
0010
1000
0001
0010
0100
1000
0001
0010
0100
0000
1000
0000
,
0001
0100
0010
0100
0001
0010
0001
1000
,
0100
0010
0004
0000
0013
0000
0100
1000
,
0100
1000
0001
0100
0010
0100
0001
0010
,
0001
1000
0100
0010
0001
0010
0100
1000
,
0010
0100
0001
0010
0001
1000
0100
0010
,
0001
0000
0010
0000
0100
0000
1000
0000
0001
0010
0100
1000
0001
0000
0100
0000
,
0010
1000
0010
0100
0001
1000
0100
0010
,
0100
0000
0010
0000
0001
0000
0100
0000
0001
0010
0100
1000
0001
0000
0010
0000
,
0100
0000
1000
0000
0001
0000
0100
0000
0001
0100
0010
1000
0001
0000
0000
0000
,
0000
0000
0000
0000
1000
0100
0010
0001
0010
0100
1000
0001
0100
0010
1000
0001
,
0010
0100
1000
0001
0010
0001
1000
0100
0010
0001
0010
0100
1000
0001
0100
0010
,
0100
0001
0010
0001
1000
0100
0010
0001
1000
0000
0000
0000
0100
0000
0010
0000
,
0001
0010
0100
1000
0001
0100
0010
0100
,
0001
0010
0001
1000
0100
0010
0001
0010
,
0100
1000
0001
0100
0010
0100
0001
0010
,
0100
1000
0002
0000
2003
0000
3002
0000
,
0000
0023
0000
0130
,
0000
1000
0000
0001
,
2002
3003
0001
0000
0100
0000
0010
0000
,
1000
0100
0010
0100
,
1000
0001
0100
0010
,
1000
0100
0010
0001
,
0001
1000
0010
0100
,
0001
1000
0100
0010
,
0100
0010
1000
0100
,
0001
0000
0000
0000
,
1001
0001
0100
0010
1000
0100
0010
0001
,
1000
0001
0010
0100
1000
0001
0100
0010
,
1000
0001
0100
0010
1000
0010
0100
0001
,
0100
0010
1000
0100
1000
0001
0010
0100
,
1000
0100
0010
0100
0010
0001
0100
0010
,
1000
0100
0010
0001
0100
0010
1000
0001
,
1000
0001
0100
0010
1000
0100
0010
0001
,
1001
0000
0000
1001
0000
0000
0010
0010
,
1001
0100
1001
0010
,
1001
0100
1100
0010
,
0011
0100
1100
1000
,
1001
0010
1001
0100
,
0011
0100
1010
0100
,
0011
1000
0110
0001
,
0110
1000
0101
0010
,
2002
0000
0000
3003
,
1000
0100
1000
0100
0010
0001
0010
0001
,
0100
0010
0100
0010
1000
0100
1000
0100
,
0010
0001
0010
0100
1000
0001
0100
0010
,
1000
0000
0100
0000
0010
0000
0001
0000
1000
0000
0000
0000
0001
0010
0100
1000
,
0001
0100
0010
0100
0001
1000
0100
0010
,
0100
1000
0001
0100
0010
1000
0100
0010
,
0001
0010
0100
1000
0001
0100
0010
1000
,
0100
0000
0010
0000
0001
0100
0010
1000
0001
0000
0100
0000
0010
0000
0100
0000
,
0001
1000
0100
0010
0100
1000
0001
0100
,
0010
0100
0001
1000
0100
0010
0001
0010
,
0100
1000
0001
0100
0010
0100
0001
1000
,
0001
0000
0000
0000
1000
0000
0000
0000
0001
0010
0100
1000
0001
0100
0010
1000
,
0001
0100
0010
0100
0001
1000
0100
0010
,
0100
1000
0001
0100
0010
1000
0100
0010
,
1001
1001
1001
0000
,
1000
0100
0010
0100
1000
0001
0100
0010
1000
0100
0010
0100
1000
0001
0100
0010
,
1000
0100
0010
0001
1000
0100
0010
0001
1000
0010
0100
0001
1000
0100
0010
0001
,
0010
0100
1000
0001
0100
0010
0100
0001
1000
0010
0100
0001
0010
0001
1000
0100
,
1000
0001
0010
0100
1000
0001
0100
0010
0100
0001
1000
0100
0010
0001
0010
0100
,
1000
0001
0100
0010
1000
0100
1000
0001
0010
0001
1000
0010
0100
0001
0010
0001
,
1000
0100
0010
0001
0010
0100
1000
0001
,
0100
0000
0010
0000
1000
0000
0100
0000
0010
0001
0100
0010
1000
0001
0010
0100
,
1000
0010
1000
0010
0100
0001
0100
0001
,
1000
0100
1000
0001
0400
0000
0000
0000
,
0310
1000
0001
0010
0100
1000
0001
0100
0010
1000
0100
0010
0001
0010
0100
1000
,
0001
0100
0010
1000
0001
0010
0100
1000
0001
0100
0010
1000
0040
0000
0000
0000
,
0130
0001
0010
0001
1000
0100
0010
0001
,
0010
0100
1000
0001
0400
0000
0340
0000
,
1030
0100
0010
0001
0010
0100
1000
0001
0100
0010
0100
0001
1000
0100
0010
0100
,
1000
0010
0100
0001
1000
0100
0010
0001
4000
0000
0000
0000
3004
0000
0000
0000
,
1003
0100
0010
0001
0010
0100
1000
0001
,
0100
0010
0100
0001
0010
0001
1000
0010
,
1000
0100
0010
0001
0010
0100
1000
0001
,
0100
0010
0100
0001
1000
0100
0010
0100
,
1000
0001
0100
0010
1000
0100
0010
0001
,
0010
0100
1000
0001
1000
0010
1000
0001
,
1000
0100
0010
0001
1000
0001
0100
0010
,
0100
0001
1000
0010
1000
0001
0100
0001
,
1000
0001
0100
0010
1000
0100
0010
0001
,
1000
0000
0010
0000
0100
0000
0001
0000
1000
0100
0010
0001
1000
0010
0100
0001
,
1000
0100
0010
0001
1000
0010
0100
0001
,
0010
0100
1000
0001
0100
0010
1000
0100
,
0010
0100
1000
0001
0100
0010
0100
0001
,
0100
0010
1000
0100
0010
0001
1000
0001
,
0010
0100
1000
0001
0010
0100
1000
0001
,
0100
0010
1000
0100
0010
0100
1000
0001
,
1000
1010
0110
0110
,
1000
0001
1000
0001
1000
0000
0000
0000
,
1000
0100
0010
0001
0010
0100
1000
0001
,
0100
0010
0100
0001
1000
0010
4000
0000
,
3001
0010
0100
1000
0001
0100
0010
1000
0001
0010
0001
1000
0100
0010
0001
0010
,
0100
1000
0100
0010
0001
0100
0010
0100
0001
0010
0001
1000
0100
0010
0001
1000
,
0001
0010
0100
1000
0001
0100
0010
0100
0001
1000
0100
1000
0001
0010
0100
1000
,
0001
0010
0001
1000
0010
0100
0001
0010
0001
1000
0100
0010
0001
0010
0100
1000
,
0001
0100
0010
0100
0001
1000
0100
0010
0100
1000
0001
0100
0010
1000
0001
0100
,
0004
0000
0000
0000
,
1003
0100
0010
0001
0010
0100
1000
0001
0100
0010
0100
0001
1000
0100
0010
0100
,
1000
0001
0010
0001
1000
0100
1000
0001
0400
0000
0000
0000
0000
0000
0000
0000
,
0310
1000
0001
0010
0100
1000
0001
0010
0001
1000
0100
0010
0001
0100
0010
1000
,
0002
0000
0000
0000
,
0023
0000
0000
0000
,
0230
0000
0000
0000
,
2300
0000
0000
0000
,
3001
0000
0000
0000
,
0001
0000
0000
0000
,
0000
0000
0000
0000
,
1001
0000
0010
0010
,
1001
0100
0010
0010
,
0000
0100
0001
0100
,
0000
0010
1000
1000
,
0001
0100
0001
0100
0010
1000
0010
1000
,
0001
0100
0010
1000
0100
0010
0001
0010
,
0100
1000
0001
0100
0010
1000
0001
1000
,
1001
1001
0000
0000
,
0001
0100
0010
1000
0001
0010
0100
1000
0001
0100
0010
0100
0001
1000
0100
0010
,
0001
0010
0100
1000
0001
0100
0010
0100
0001
1000
0100
0010
0001
0010
0100
1000
,
0001
0100
0010
1000
0001
0100
0010
1000
0100
0010
0001
0010
0100
1000
0001
0100
,
0010
0100
0001
1000
0100
0010
0001
1000
0100
1000
0001
0010
0100
1000
0001
0100
,
0010
1000
0001
0010
0100
1000
0001
0010
,
0001
0100
0010
0100
0001
0010
0001
1000
,
0100
0010
0001
0010
0100
1000
0001
1000
,
0400
0000
0000
0000
,
0310
0001
0100
0010
1000
0001
0010
0100
1000
0001
0100
0010
0100
0001
1000
0100
,
0010
0100
1000
0001
0100
0010
0100
0001
1000
0100
0010
0100
1000
0001
0100
0010
,
1000
0100
0010
0100
1000
0001
0010
0100
1000
0001
0100
0010
0100
0001
1000
0100
,
0010
0001
0010
0100
1000
0001
0100
0010
0100
0001
1000
0100
0010
0001
0010
0100
,
1000
0001
0100
0010
0100
0001
1000
0100
0010
0100
1000
0001
0100
0010
0100
0001
,
1000
0100
0010
0100
1000
0001
0100
0010
0100
0001
1000
0100
0010
0100
1000
0001
,
0100
0010
1000
0001
0010
0100
1000
0001
,
0100
0010
0100
0001
1000
0100
0010
0000
,
1000
0000
0001
0001
0100
0100
0010
1000
,
0000
1000
0001
0100
0010
1000
0100
0010
,
0001
0000
0000
0000
;
