#TITLE:02 Stigmata;
#SUBTITLE:;
#ARTIST:Unknown artist;
#TITLETRANSLIT:;
#SUBTITLETRANSLIT:;
#ARTISTTRANSLIT:;
#CREDIT:;
#BANNER:;
#BACKGROUND:;
#LYRICSPATH:;
#CDTITLE:;
#MUSIC:Arch Enemy - Stigmata.mp3;
#OFFSET:0.000;
#SAMPLESTART:100.000;
#SAMPLELENGTH:11.780;
#SELECTABLE:YES;
#BPMS:0.000=135.000,152.000=170.000,160.000=135.000,169.333=142.000,185.667=135.000,192.667=170.000,241.333=135.000;
#STOPS:;
#BGCHANGES:;
// cache tags:
#FIRSTBEAT:0.500;
#LASTBEAT:284.000;
#SONGFILENAME:Songs/toune 6/Stigmata/02 Stigmata.sm;
#HASMUSIC:1;
#HASBANNER:0;
#MUSICLENGTH:131.900;
// end cache tags

//---------------dance-single - ----------------
#NOTES:
     dance-single:
     :
     Easy:
     1:
     0.697,0.861,0.318,0.743,1.000,502.000,42.000,98.000,0.000,8.000:
0000
2002
0000
0000
0000
0000
0000
0000
,
3003
2200
0000
0000
0000
0000
3300
0022
0000
0000
0000
0000
,
0033
2002
0000
0000
0000
3003
1000
0100
1000
0100
1000
0100
,
0200
0000
0000
0000
0000
0300
0220
0000
0000
0000
0000
0330
,
2002
0000
0000
0000
0000
0000
0000
0000
0000
0000
0000
0000
0000
0000
0000
0000
0000
0000
0000
0000
3003
0000
0000
0000
0000
0000
0000
0110
0000
0000
0000
0000
0000
0000
0000
0000
0110
0000
0000
0000
0000
0000
0000
0000
2200
0000
0000
0000
,
0000
0000
0000
0000
3300
0022
0000
0000
0000
0033
2200
0000
,
0000
0000
0000
0000
3300
0000
0000
1001
0000
0000
1000
0000
0001
0000
1000
0000
0001
0000
1000
0000
2002
0000
0000
0000
,
0000
0000
0000
3003
0220
0000
0000
0000
0000
0330
2200
0000
,
0000
0000
0000
0000
0000
0000
3300
0000
2000
0000
0000
0000
,
0000
0000
0200
0000
0000
0000
0000
0020
0000
0000
0000
0000
,
0000
0000
0000
0000
0000
0000
3330
0000
0002
0000
0000
0000
,
0000
0020
0000
0000
0000
0000
0000
0200
0000
0000
0000
0000
,
0000
0000
0000
0333
0000
2002
0000
0000
0000
0000
0000
0000
,
0100
0000
0010
0000
,
0000
0000
0000
0000
0000
0110
0000
0000
0000
0000
0000
0110
,
3003
0000
0000
0000
1000
0100
1000
0100
0010
0100
0010
0100
,
0010
0100
1000
0100
1000
0100
1000
0100
0010
0100
0010
0100
,
0010
0020
0000
0030
0010
0100
0010
0100
1000
0100
1000
0100
,
0010
0100
0010
0001
0010
0001
0010
0001
0010
0100
0010
0200
,
0000
0300
1000
1000
0100
0010
1000
0010
1000
0001
1000
0001
,
1000
0001
1000
0010
1000
0010
1000
0100
1000
0100
0200
0000
,
0300
0100
0100
0010
0100
0010
0100
0010
0001
0010
0001
0010
,
0001
0010
0100
0010
0100
0010
0100
1000
0100
0200
0000
0300
,
0100
0100
1000
0100
0010
0100
0010
0001
0010
0100
0010
0100
,
1000
0100
1000
0100
0010
0100
0010
0001
2000
3000
1000
1000
,
0100
0010
0001
0010
0100
1000
0100
0010
0001
0010
0100
1000
,
0100
0010
0001
0010
0100
1000
0100
0010
0000
2002
0000
0000
,
0000
0000
0000
0000
3003
1001
0000
1001
0000
0110
0100
0010
,
0100
0010
0100
0220
0000
0000
0330
0000
0010
0001
0010
0001
,
0002
0000
0023
0000
0230
0000
2300
0000
3200
0000
0320
0000
,
0032
0003
2002
0000
0000
0000
3003
1000
1000
0100
1000
0010
,
1000
0000
0000
0000
0001
0000
0000
0000
1000
0000
0000
0000
0010
0000
0000
0000
1000
0000
0000
0000
0100
0000
0000
0000
1000
0000
0000
0000
0100
0000
0000
0000
1000
0000
0000
0000
0100
0000
0000
1000
0000
0000
0000
0000
0000
2000
0000
0000
,
0000
0000
0000
0000
0000
0000
0000
0000
0000
0000
0000
0000
0000
0000
0000
3000
0000
0000
0000
0000
1000
0000
0000
0000
0100
0000
0000
0000
0100
0000
0000
0000
1000
0000
0000
0000
0100
0000
0000
0000
0100
0000
0000
0000
1000
0000
0000
0000
,
0100
0100
1000
0100
0100
0010
0100
0010
0100
0010
0100
0202
,
0000
0303
0000
0010
0010
0100
0010
0100
1000
0100
0010
0001
,
0010
0100
1000
0100
0010
0001
0010
0001
0010
0001
0022
0000
,
0000
0000
0000
0000
0033
0000
0000
0000
1000
0000
0000
0000
2000
0000
0000
0000
0000
0000
0000
0000
3200
0000
0000
0000
0000
0000
0000
0000
0320
0000
0000
0000
0000
0000
0000
0000
0032
0000
0000
0000
0003
0000
0010
0000
0000
0001
0000
0000
,
0010
0020
0032
0000
0023
0000
0230
0000
2300
0000
0000
3000
,
0000
1000
0100
1000
0100
1000
0100
1000
0100
0010
0100
0010
0100
0010
0100
0010
,
0001
0010
0001
0010
0001
0010
0100
1000
0100
0010
0001
0010
0100
1000
0100
0010
,
0002
0000
0000
0000
0000
0000
0000
0000
0003
1000
0000
0000
0100
0000
0000
0010
0000
0000
0001
0000
0000
0002
0000
0000
,
0000
0000
0000
0003
0000
0000
0000
0000
1000
0000
0000
0000
0001
0000
0000
0000
0000
0000
0000
0000
1000
0000
0000
0000
0001
0000
0000
0000
0000
0000
0000
0000
1000
0000
0000
0000
0001
0000
0000
0000
0000
0000
0000
0000
2002
0000
0000
0000
,
0000
3003
0000
0000
0010
0100
0010
0100
0010
0100
1000
0100
,
1000
0100
1000
0100
0010
0001
0010
0001
0010
0001
0010
0001
,
1000
0001
1000
0001
1000
0001
1000
0001
1000
0100
1000
0100
,
0010
0001
0010
0100
1000
0100
0010
0001
0010
0100
1000
0100
,
0010
0001
0010
0100
1000
2002
0000
0000
0000
0000
3003
0000
,
2000
0002
0000
3003
2002
0000
0000
0000
3003
0020
0000
0000
,
0000
0000
0000
0000
0000
0000
0000
0000
0030
0000
0000
0000
1000
0000
0000
0001
0000
0000
1000
0000
0000
0001
0000
0000
1000
0000
0000
0001
0000
0000
1000
0000
0000
0010
0000
0000
1000
0000
0000
0010
0000
0000
1000
0000
0000
0010
0000
0000
,
1000
0100
1000
0100
1000
0100
0010
0001
1000
0100
0010
0001
0010
0000
0010
0000
,
0100
0000
2000
0000
3000
0000
0100
0000
1000
0000
0100
0000
1000
0200
0000
0000
,
0300
0000
0000
0000
0000
0000
0010
0000
0000
0000
0000
0000
0001
0000
0000
0000
0000
0000
0002
0000
0000
0000
0000
0000
0000
0000
0000
0003
0000
0000
0000
0000
0010
0000
0000
0000
0100
0000
0000
1000
0000
0000
0100
0000
0000
1000
0000
0000
,
0100
0000
0010
0000
0001
0000
0010
0000
0100
0000
1000
0100
1000
0200
0320
0030
,
0000
1000
0100
0010
0001
0010
0100
1000
0100
0010
0001
0010
,
0100
1000
0100
2000
0000
0000
0000
0000
3000
0200
0000
0000
,
0000
0000
0000
0000
0300
1000
0100
0010
0100
0010
0001
0010
,
0001
0010
0100
0010
0100
1000
0100
1000
0100
1000
0100
0010
,
0001
0010
0100
2000
0000
0000
0000
0000
3000
1000
0100
1000
,
0010
1000
0010
0100
0010
0100
0010
0001
0010
0100
0001
0100
,
0010
0100
0010
0100
0010
0100
1000
0100
1000
0100
1000
0100
,
0010
0001
0010
0100
2000
0000
0000
0000
0000
0000
0000
0000
,
0000
3000
2002
0000
0000
0000
3003
0000
0220
0000
0000
0000
,
0000
0000
0330
2002
0000
0000
0000
3003
1001
1000
0001
1000
,
0001
1000
1001
0000
0000
0000
0000
1100
0000
0000
0000
0000
,
0000
0000
0000
0000
1010
0000
0000
0000
0000
0000
0000
0000
0000
0000
0000
0000
0000
0000
0000
0000
0000
0000
0000
0000
0000
0000
0000
0000
0000
0000
0000
0000
0000
0000
0000
0000
0000
0000
0000
0000
0110
0000
0000
0000
0000
0011
0000
0000
,
0000
2000
0000
0000
0000
0000
0200
0000
0000
0000
0000
0000
,
0020
0000
0000
0000
0000
3330
0110
0010
0100
0010
0100
0010
,
0110
0000
1001
0000
,
2222
0000
0000
0000
,
0000
0000
0000
0000
,
0000
0000
0000
0000
,
3333
0000
0000
0000
;
