#TITLE:Hyadain no Kakakata Kataomoi-C;
#SUBTITLE:;
#ARTIST:Hyadain;
#TITLETRANSLIT:;
#SUBTITLETRANSLIT:;
#ARTISTTRANSLIT:;
#CREDIT:;
#BANNER:Hyadain no Kakakata Katamoi-C-bn.png;
#BACKGROUND:Hyadain no Kakakata Kataomoi-C.png;
#LYRICSPATH:;
#CDTITLE:;
#MUSIC:Hyadain no Kakakata Kataomoi-C.ogg;
#OFFSET:-1.017;
#SAMPLESTART:54.257;
#SAMPLELENGTH:12.000;
#SELECTABLE:YES;
#BPMS:0.000=180.000,94.000=90.000,126.000=180.000,258.000=90.000,284.000=180.000;
#STOPS:;
#BGCHANGES:;
// cache tags:
#FIRSTBEAT:1.000;
#LASTBEAT:399.000;
#SONGFILENAME:Songs/Index Tournament 1/Hyadain no Kakakata Kataomoi-C/Hyadain no Kakakata Kataomoi-C.sm;
#HASMUSIC:1;
#HASBANNER:1;
#MUSICLENGTH:154.716;
// end cache tags

//---------------dance-single - Ninevolt----------------
#NOTES:
     dance-single:
     Ninevolt:
     Challenge:
     11:
     0.891,1.000,0.582,0.362,0.582,818.000,90.000,56.000,0.000,2.000:
0000
0000
0010
1000
0002
0000
1000
0000
,
1003
0100
0010
0001
0000
0101
0000
0110
,
0000
1000
0100
2100
0000
0001
0001
3001
,
0100
0001
1000
0010
0000
0110
0100
1001
,
0001
0000
0100
0001
1000
0000
2001
0000
0001
0000
0000
0000
3001
0000
0000
0000
,
1000
0100
0010
0002
0000
0103
0010
1000
,
0000
0000
0001
0000
0010
0000
0100
0000
1000
0100
1000
0001
1000
0010
1000
0001
,
0100
0010
1000
0001
1000
0100
0010
0000
0000
0000
0001
0000
0000
0000
0100
0000
,
0000
0010
1000
1001
0000
0000
0001
0000
,
0001
0100
0010
1000
0000
0001
0000
0001
,
0000
0010
0100
1000
0000
0001
0100
0000
,
0010
1000
0000
1100
0000
0101
0000
1100
,
0000
0101
0001
2002
0000
3003
1000
0100
,
0000
0010
0001
0200
0000
0310
1000
0002
,
0000
0013
1000
0020
0000
0031
1000
0010
,
0100
0010
1000
0200
0000
0310
0001
1000
,
0001
0010
0001
0010
0001
1000
0001
1000
0100
0000
0000
0000
0010
0000
0001
0000
,
0011
0010
0001
2000
0000
3100
1000
0001
,
0000
0100
0010
0100
0010
0000
1000
0100
,
1100
1000
0001
0200
0000
0310
1000
0100
,
0000
0100
0010
0100
0010
0000
0001
0100
,
0101
0001
1000
0020
0000
0130
0001
0010
,
0001
0100
0001
0100
0001
1000
0001
1000
0010
0000
0100
0000
0001
0000
1000
0000
,
0000
0000
0000
0100
0000
0000
0010
0000
0000
0001
0000
0000
0000
0000
1000
0100
0000
0000
0010
0000
0010
0001
0000
0000
,
1001
0000
0000
0100
0000
0010
0100
0000
0000
0001
0000
0000
1000
0000
0000
0100
0000
1000
0000
0000
0001
0000
0000
0110
,
0000
0000
0000
0010
0000
1000
0010
0000
0100
0010
0000
1000
0001
0000
0010
0000
0000
0100
0000
0000
2000
0000
0000
0000
,
3001
0000
1000
0001
0000
1000
0100
0000
0000
0010
0000
0000
0001
0000
0000
1000
0000
0001
0000
0000
0100
0000
0000
0010
,
0000
0000
1000
0010
0000
0010
0100
0000
0100
0001
0000
0001
2000
0000
0000
3000
0000
0000
0110
0000
0000
0001
0000
1000
,
0002
0100
0103
0010
2010
0001
3001
0010
,
0110
0100
1001
0010
0202
0010
0313
0000
,
1000
0100
0110
0001
1001
0100
0110
0010
,
1000
0100
1000
0001
1000
0010
1000
0001
1000
0100
1000
0001
1000
0100
0010
0001
1000
0000
0000
0000
0000
0000
0000
0000
1001
0000
0000
0000
0000
0000
0000
0000
,
1001
0001
0100
0110
0000
1000
0001
0201
,
0000
0310
1000
0200
0000
0310
0100
1001
,
0000
0000
0001
0100
0001
1000
0010
0000
0100
0010
1000
0001
0010
0001
2000
0000
,
0000
0000
3010
0100
0010
1000
0001
0000
0010
0100
0010
0001
1000
0001
0200
0000
,
0000
0310
0010
0010
0000
1000
0001
1002
,
0000
0013
0100
2000
0000
3001
0100
0110
,
0000
0000
1000
0100
1000
0001
0010
0000
0100
1000
0001
0100
0001
1000
0020
0000
,
0000
0000
0130
0001
1000
0001
0010
0000
0001
0100
0010
1000
0100
1000
0002
0000
,
0000
0013
0010
0010
0000
0001
1000
1001
,
0001
0100
0001
2000
0000
3100
1000
0020
,
0000
0000
0130
0001
1000
0100
0010
0000
0100
1000
0001
0100
0001
1000
0020
0000
,
0000
0000
0130
0001
1000
0001
0100
0000
0010
1000
0100
1000
0001
1000
0020
0000
,
0000
0130
0001
1000
1100
0100
1000
1001
,
0001
0100
0010
0100
0000
1001
1001
1001
,
0000
1010
1010
1010
0000
0101
0101
0101
,
0000
0010
1000
0002
0000
1003
0100
0010
,
0001
0000
0100
2001
0000
3001
0100
0000
,
0100
0010
0100
0001
0000
1000
0100
0010
,
0100
1000
0001
0100
0010
0000
0110
0000
,
1000
0100
1000
0010
0000
0100
0001
0000
,
1000
0000
0100
0000
0010
0000
0001
0000
1000
0000
0000
0000
1001
0000
0001
0100
,
0001
0000
1000
0100
1000
0000
0010
0100
0001
0000
1000
0000
0100
0000
0040
0000
,
0000
0031
0100
0040
0000
1030
0001
0400
,
0000
0000
0310
0000
1000
0000
0100
0000
0010
0000
0100
0000
1000
0100
1000
0000
,
0001
0100
0001
1000
0001
0100
0040
0000
0000
0030
1000
0010
0100
0000
0001
1000
,
0100
0000
1000
0000
0001
0000
0040
0000
0000
0000
0031
0000
0010
0000
0001
1000
,
0001
0000
0100
0000
0001
0000
1000
0000
0010
0000
0100
0010
1000
0000
1002
0000
,
0000
0013
0001
0201
0000
0310
1010
1000
,
0001
0000
0100
0001
0100
0000
0010
1000
0001
0010
0001
1000
0010
1000
0001
0010
,
0001
0100
0001
1000
0100
1000
0002
0000
0000
0003
0101
0000
0110
0000
1010
0000
,
1000
0000
1001
0000
0011
0000
0110
0000
0100
1000
0001
1000
0001
0000
0100
0001
,
0100
0001
1000
0100
1000
0100
0020
0000
0000
0000
0031
0000
0100
0000
0010
0000
,
2000
0000
0000
0000
3000
0000
0000
0000
0001
0000
0100
0001
1000
0000
0100
0000
,
0010
0000
0001
1000
0100
0000
0010
0000
0001
0000
0100
0010
0100
0010
1000
0000
,
0001
0000
0010
0001
0010
0000
0001
0000
1000
0000
0100
1000
0100
1000
0001
0000
,
0100
0000
0010
0000
0100
0010
1000
0000
0100
0000
0010
0000
0001
1000
0001
0000
,
0100
0000
0001
0000
1000
0100
0010
0000
0001
0000
0000
0001
0000
0100
0001
0000
,
1000
0000
0000
1000
0000
0100
1000
0000
0010
0000
0000
0010
0000
0100
0010
0000
,
1000
0000
0000
0000
0000
0000
0000
0000
0001
0000
0000
0000
0000
0000
0000
0000
1000
0100
1000
0001
1000
0010
1000
0001
1000
0010
1000
0001
0100
0010
1000
0001
,
1000
0100
1000
0001
0100
0000
0010
1000
0001
0000
1000
0000
0100
1000
0001
0010
,
0001
0000
1000
0000
0010
0100
0010
1000
0001
0000
1000
0000
0100
1000
0100
0000
,
0020
0000
0000
0000
0000
0031
1000
0010
,
0000
0000
0110
0000
0110
0000
0000
0000
0001
1000
0001
1000
0001
0000
0101
0000
,
0000
1000
0100
1200
0000
0310
0001
0200
,
0000
0000
0310
0000
1000
0000
1010
0000
0000
0000
0010
0100
0001
1000
0100
0000
,
0010
0001
1000
0010
0100
0001
2000
0000
0000
0000
3010
0100
0010
1000
0001
0000
,
0010
0100
1000
0001
0100
0001
2000
0000
0000
0000
3100
0000
0100
0000
0100
0000
,
0000
0010
0001
1002
0000
0103
0010
2000
,
0000
0000
3100
0000
0010
0000
0011
0000
0000
0000
0001
0100
0010
1000
0001
0000
,
0010
0001
1000
0010
0100
0001
2000
0000
0000
0000
3100
0010
0001
1000
0010
0000
,
0100
0001
1000
0100
1000
0001
0200
0000
0000
0000
0301
0000
0001
0000
0001
0000
,
0000
1000
0001
1001
1000
0100
1000
0010
,
0100
0000
0001
0000
1000
0000
1100
0000
0000
0000
0001
0010
0001
1000
0010
0000
,
0100
0001
0100
0001
1000
0010
0200
0000
0000
0000
0301
1000
0100
1000
0001
0000
,
0100
0010
0100
0001
1000
0100
0020
0000
0000
0000
0031
0000
1000
0000
0001
0000
,
0101
0001
1000
1100
0100
1000
0001
0100
,
0000
0110
0110
0110
0000
0101
0101
0101
,
0000
1100
1100
1100
0000
0100
1000
1002
,
0000
1003
0100
0010
0001
0000
1000
0010
,
0120
0000
0100
0000
0130
0001
1000
0100
,
0000
0110
0000
0011
0000
1000
0001
0200
,
0000
0310
1000
0010
0100
0001
1000
0100
,
0000
0010
0001
0011
0001
1000
0010
0200
,
0001
0000
0301
0000
1000
0010
0100
0002
,
0000
0013
0100
1000
0100
0010
0001
1000
,
0001
0100
0001
1000
0001
0010
0001
1000
0001
0000
0100
0000
0110
0000
0110
0000
,
0000
1100
0000
1010
0000
0100
0001
1002
,
0000
0003
1000
0001
2000
0000
0000
0000
0000
0000
0000
0000
3000
0000
0000
0000
;
