#TITLE:The Big Black;
#SUBTITLE:;
#ARTIST:The Quick Brown Fox;
#TITLETRANSLIT:;
#SUBTITLETRANSLIT:;
#ARTISTTRANSLIT:;
#CREDIT:Rynker;
#BANNER:Bn-Black.png;
#BACKGROUND:Bg-Black.png;
#LYRICSPATH:;
#CDTITLE:;
#MUSIC:The Big Black.ogg;
#OFFSET:0.004;
#SAMPLESTART:4.400;
#SAMPLELENGTH:12.000;
#SELECTABLE:YES;
#DISPLAYBPM:180.000;
#BPMS:0.000=180.151;
#STOPS:;
#BGCHANGES:;
// cache tags:
#FIRSTBEAT:21.000;
#LASTBEAT:420.333;
#SONGFILENAME:Songs/SPEEEDCOOOORE/The Big Black - [Rynker]/The Big Black.sm;
#HASMUSIC:1;
#HASBANNER:1;
#MUSICLENGTH:144.215;
// end cache tags

//---------------dance-single - Rynker----------------
#NOTES:
     dance-single:
     Rynker:
     Challenge:
     13:
     1.000,1.000,0.194,0.458,1.000,950.000,28.000,66.000,275.000,5.000:

0000
0000
0000
0000
,
0000
0000
0000
0000
,
0000
0000
0000
0000
,
0000
0000
0000
0000
,
0000
0000
0000
0000
,
0000
0000
0000
0000
1000
0001
0010
0000
0001
0000
0100
0010
0100
0000
0100
0000
,
0010
0000
0010
0000
1000
0100
1000
0000
0001
0000
0010
0100
1000
0000
0010
0100
,
0001
0000
0010
0000
0100
1000
0001
0000
0100
0000
0010
0100
0010
0000
0010
0000
,
1000
0000
1000
0000
0001
0010
0100
1000
0001
0100
0010
1000
0100
0010
0001
1000
,
0001
0100
0010
1000
1MM1
0000
M00M
0MM0
1001
0000
0001
0010
0100
0000
0100
0000
,
1000
0000
1000
0000
0010
0100
0010
0000
1000
0000
0100
1000
0001
0000
0100
0010
,
1000
0000
0100
0000
1100
1000
0100
0000
0010
0000
0001
0100
0101
0000
0001
0000
,
0100
0000
0001
0000
1000
0100
0010
0001
1000
0010
0100
0001
1000
0100
0010
0100
,
1000
0001
1000
0001
1000
0001
1000
0000
0000
0000
0000
0000
0000
0000
0000
0000
0000
0000
1001
0000
0000
0000
0000
0000
,
1000
0001
1000
0000
0001
0100
0010
1000
0100
0010
0100
1000
0001
1000
0001
0100
,
0002
0003
2000
3000
0020
0030
0200
0300
0001
0000
1000
0000
0010
0000
1000
0000
0100
0000
1000
0000
0001
0000
0010
0000
0100
0000
1000
0000
0001
0000
1000
0000
,
0001
0000
1000
0000
0001
0000
1000
0000
0000
0010
0000
0000
1000
0000
0000
0010
0000
0000
0100
0000
0000
0001
0000
0000
0010
0000
0000
0100
0000
0000
1000
0000
0000
0001
0000
0000
0010
0000
0000
0100
0000
0000
1000
0000
0000
0001
0000
0000
,
0200
0300
0001
0000
0200
0300
0010
0000
1000
0000
0010
0000
0100
0000
0001
0000
0010
0000
0100
0000
1000
0000
0001
0000
0010
0000
0001
0000
1000
0000
0010
0000
,
1000
0000
1010
0000
0010
0100
0010
0100
0001
0100
0010
1000
0100
0010
0100
0010
,
0002
0003
0020
0030
0200
0300
1000
0000
0010
0000
0100
0000
0010
0000
0100
0000
0001
0000
0100
0000
0010
0000
1000
0000
0100
0000
0010
0000
0001
0000
1000
0000
,
0001
0000
1000
0000
0001
0000
1000
0000
0001
0000
1000
0000
0001
0000
0000
0100
0000
0000
0001
0000
0000
1000
0000
0000
0010
0000
0000
1000
0000
0000
0100
0000
0000
0010
0000
0000
0001
0000
0000
0010
0000
0000
0100
0000
0000
1000
0000
0000
,
0001
0000
1000
0000
0001
0000
1000
0000
0000
0001
0000
0000
0010
0000
0000
0000
0000
0000
0100
0000
0000
1000
0000
0000
0010
0000
0000
0000
0000
0000
0100
0000
0000
0001
0000
0000
0010
0000
0000
0000
0000
0000
0100
0000
0000
1000
0000
0000
,
1001
0000
0000
0000
1000
0010
0100
0001
0010
0100
0010
0001
1000
0001
1000
0010
,
2000
3000
0002
0003
0200
0300
0020
0030
1000
0000
0001
0000
0100
0000
0001
0000
0010
0000
0001
0000
1000
0000
0100
0000
0010
0000
0001
0000
1000
0000
0001
0000
,
1000
0000
0001
0000
1000
0000
0001
0000
0000
0100
0000
0000
0001
0000
0000
0100
0000
0000
0010
0000
0000
1000
0000
0000
0100
0000
0000
0010
0000
0000
0001
0000
0000
1000
0000
0000
0100
0000
0000
0010
0000
0000
0001
0000
0000
1000
0000
0000
,
0020
0030
1000
0000
0020
0030
0100
0000
0001
0000
0100
0000
0010
0000
1000
0000
0100
0000
0010
0000
0001
0000
1000
0000
0100
0000
1000
0000
0001
0000
0100
0000
,
0001
0000
0101
0000
0100
0010
0100
0010
1000
0010
0100
0001
0010
0100
0010
0100
,
2000
3000
0200
0300
0020
0030
0001
0000
0100
0000
0010
0000
0100
0000
0010
0000
1000
0000
0010
0000
0100
0000
0001
0000
0010
0000
0100
0000
1000
0000
0001
0000
,
0100
0000
0001
0000
0100
0000
0001
0000
0100
0000
0001
0000
0100
0000
0000
0010
0000
0000
1000
0000
0000
0001
0000
0000
0100
0000
0000
0001
0000
0000
0010
0000
0000
0100
0000
0000
1000
0000
0000
0100
0000
0000
0010
0000
0000
0001
0000
0000
,
1000
0000
0001
0000
1000
0000
0001
0000
0000
1000
0000
0000
0100
0000
0000
0000
0000
0000
0010
0000
0000
0001
0000
0000
0100
0000
0000
0000
0000
0000
0010
0000
0000
1000
0000
0000
0100
0000
0000
0000
0000
0000
0010
0000
0000
0001
0000
0000
,
2002
0000
3003
0000
2002
0000
3003
0000
M000
0M00
00M0
000M
00M0
0M00
M000
0M00
,
00M0
000M
00M0
0M00
M000
00M0
0M00
000M
0M00
00M0
M000
00M0
0M00
000M
0M00
00M0
,
M000
00M0
0M00
000M
M000
0M00
00M0
000M
00M0
0M00
M000
0M00
00M0
000M
00M0
0M00
,
M000
0M00
00M0
000M
M000
00M0
0M00
000M
0M00
00M0
M000
00M0
0M00
000M
0M00
00M0
,
M000
00M0
0M00
000M
M000
0M00
00M0
0M00
M000
0M00
00M0
0M00
M000
0M00
00M0
0M00
,
M000
0M00
00M0
0M00
M000
00M0
0M00
00M0
M000
00M0
0M00
00M0
M000
00M0
0M00
00M0
,
M000
00M0
0M00
00M0
M000
0M00
00M0
000M
00M0
0M00
M000
0M00
00M0
000M
00M0
0M00
,
M000
0M00
00M0
000M
00M0
0M00
M000
0M00
00M0
000M
00M0
0M00
M000
0M00
00M0
000M
,
00M0
0M00
M000
0000
1121
0000
0000
0000
2202
0000
0000
0000
0000
0000
0000
0000
,
0000
0000
0000
0000
0000
0000
0000
0000
0300
0000
0030
0M00
0003
00M0
0000
000M
,
0000
0000
0000
0000
,
0000
0000
0000
0000
,
0000
3002
0000
0000
,
0000
0023
0000
0000
,
0000
0230
0000
0000
,
M0MM
0000
0000
0000
,
0000
0000
0000
1312
0000
0003
0000
0000
0000
2001
0000
3000
,
0001
1000
0001
0000
1000
0010
1000
0001
0010
0100
0010
0001
1000
0010
0100
0010
,
0100
0000
0001
0000
0100
0000
0001
0000
0000
1000
0000
0000
0100
0000
0000
1000
0000
0000
0001
0000
0000
1000
0000
0000
0100
0000
0000
0010
0000
0000
0100
0000
0000
1000
0000
0000
0001
0000
0000
0100
0000
0000
0010
0000
0000
0100
0000
0000
,
0010
0000
1000
0000
0010
0000
1000
0000
0000
0001
0000
0000
1000
0000
0000
0010
0000
0000
0100
0000
0000
0010
0000
0000
1000
0000
0000
0001
0000
0000
0010
0000
0000
0100
0000
0000
0010
0000
0000
0001
0000
0000
1000
0000
0000
0010
0000
0000
,
1000
0000
0010
0000
1000
0000
0010
0000
0000
0100
0000
0000
0010
0000
0000
0000
0000
0000
0100
0000
0000
0000
0000
0000
0001
0000
0000
0000
0000
0000
0010
0000
0000
0000
0000
0000
0100
0000
0000
1000
0000
0000
0100
0000
0000
1000
0000
0000
,
0100
0000
1000
0000
0010
0000
0100
0000
0001
1000
0100
0000
1000
0100
0010
0100
,
0010
0000
0001
0000
0001
0000
0010
0100
0000
0100
1000
0000
0010
0100
0001
1000
,
0001
1000
0100
0000
1000
0010
0100
0001
0100
0001
1000
0100
0010
0100
1000
0001
,
0200
0000
0000
0300
0010
1000
0001
1000
0100
0010
0100
1000
0001
1000
0010
0100
,
0002
0000
0000
0003
1000
0010
1000
0001
0010
0100
0010
0001
1000
0100
1000
0100
,
0010
0000
0001
0000
0010
0000
0001
0000
0000
1000
0000
0000
0010
0000
0000
0100
0000
0000
0010
0000
0000
0100
0000
0000
0001
0000
0000
1000
0000
0000
0100
0000
0000
0010
0000
0000
0001
0000
0000
1000
0000
0000
0010
0000
0000
0100
0000
0000
,
0010
0000
1000
0000
0010
0000
1000
0000
0000
0010
0000
0000
1000
0000
0000
0001
0000
0000
0010
0000
0000
0100
0000
0000
0010
0000
0000
0001
0000
0000
1000
0000
0000
0100
0000
0000
1000
0000
0000
0100
0000
0000
0010
0000
0000
0001
0000
0000
,
1000
0000
0001
0000
1000
0000
0001
0000
0000
1000
0000
0000
0010
0000
0000
0100
0000
0000
0001
0000
0000
0100
0000
0000
0010
0000
0000
1000
0000
0000
0001
0000
0000
0010
0000
0000
0100
0000
0000
0010
0000
0000
0001
0000
0000
1000
0000
0000
,
0020
0000
0000
0000
0130
0001
0100
0001
1000
0100
0010
0100
1000
0001
1000
0010
,
0100
0000
0001
0000
0100
0000
0001
0000
0000
1000
0000
0000
0100
0000
0000
0010
0000
0000
0100
0000
0000
1000
0000
0000
0001
0000
0000
1000
0000
0000
0010
0000
0000
0100
0000
0000
0010
0000
1000
0000
0010
0000
1000
0000
0000
0001
0000
0000
,
1000
0000
0001
0000
1000
0000
0001
0000
1000
0000
0001
0000
1000
0000
0000
0001
0000
0000
0010
0000
0000
0001
0000
0000
1000
0000
0000
0010
0000
0000
0100
0000
0000
0010
0000
0000
1000
0000
0000
0001
0000
0000
0010
0000
0000
0100
0000
0000
,
0010
0000
0100
0010
0000
0001
1000
0000
0010
1000
0010
0100
0001
0010
0100
1000
,
2002
0000
3003
0000
2002
0000
3003
0M00
00M0
000M
00M0
0M00
M000
0M00
00M0
000M
,
00M0
0M00
M000
00M0
0M00
000M
0M00
00M0
M000
00M0
0M00
000M
0M00
00M0
M000
00M0
,
0M00
000M
M000
0M00
00M0
000M
00M0
0M00
M000
0M00
00M0
000M
00M0
0M00
M000
0M00
,
00M0
000M
M000
00M0
0M00
000M
0M00
00M0
M000
00M0
0M00
000M
0M00
00M0
M000
00M0
,
0M00
000M
M000
0M00
00M0
0M00
M000
0M00
00M0
0M00
M000
0M00
00M0
0M00
M000
0M00
,
00M0
0M00
M000
00M0
0M00
00M0
M000
00M0
0M00
00M0
M000
00M0
0M00
00M0
M000
00M0
,
0M00
00M0
M000
0M00
00M0
000M
00M0
0M00
M000
0M00
00M0
000M
00M0
0M00
M000
0M00
,
00M0
000M
00M0
0M00
M000
0M00
00M0
000M
00M0
0M00
M000
0M00
00M0
000M
00M0
0M00
,
M000
0M00
00M0
0000
1211
0000
0000
0000
2022
0000
0000
0000
0000
0000
0000
0000
,
0000
0000
0000
0000
0000
0000
0000
0000
0030
0000
0300
00M0
3000
0M00
0000
M000
,
0000
0000
0000
0000
,
0000
0000
0000
0000
,
0000
2003
0000
0000
,
0000
3200
0000
0000
,
0000
0320
0000
0000
,
MM0M
0000
0000
0000
,
0000
0000
0030
0000
1001
1000
0100
0000
1000
0000
0010
0100
0010
0000
0010
0000
,
0100
0000
0100
0000
0001
0010
0001
0000
1000
0000
0100
0010
0001
0000
0100
0010
,
1000
0000
0100
0000
0010
0001
1000
0000
0010
0000
0100
0010
0100
0000
0100
0000
,
0001
0000
0001
0000
1000
0100
0010
0001
1000
0010
0100
0001
0010
0100
1000
0001
,
1000
0010
0100
0001
1000
0010
1000
0000
1001
0000
1000
0100
0010
0000
0010
0000
,
0001
0000
0001
0000
0100
0010
0100
0000
0001
0000
0010
0001
1000
0000
0010
0100
,
0001
0000
0010
0000
0011
0001
0010
0000
0100
0000
1000
0010
1010
0000
1000
0000
,
0010
0000
1000
0000
0001
0010
0100
1000
0001
0100
0010
1000
0001
0010
0100
0010
,
0001
1000
0001
1000
0001
1000
0001
0000
0000
0000
0000
0000
0000
0000
0000
0000
0000
0000
1001
0000
0000
0000
0000
0000
,
1000
0001
1000
0000
0001
0100
0010
1000
0100
0010
0100
1000
0001
1000
0001
0100
,
0002
0003
2000
3000
0020
0030
0200
0300
0001
0000
1000
0000
0010
0000
1000
0000
0100
0000
1000
0000
0001
0000
0010
0000
0100
0000
1000
0000
0001
0000
1000
0000
,
0001
0000
1000
0000
0001
0000
1000
0000
0000
0010
0000
0000
1000
0000
0000
0010
0000
0000
0100
0000
0000
0001
0000
0000
0010
0000
0000
0100
0000
0000
1000
0000
0000
0001
0000
0000
0010
0000
0000
0100
0000
0000
1000
0000
0000
0001
0000
0000
,
0200
0300
0001
0000
0200
0300
0010
0000
1000
0000
0001
0000
0100
0000
0010
0000
1000
0000
0001
0000
0010
0000
0100
0000
1000
0000
0100
0000
0010
0000
0001
0000
,
1000
0000
1010
0000
0010
0100
0001
1000
0100
0010
0001
1000
0100
0010
0100
0010
,
0002
0003
0020
0030
0200
0300
1000
0000
0010
0000
0100
0000
0001
0000
1000
0000
0100
0000
0010
0000
0001
0000
1000
0000
0010
0000
0100
0000
0001
0000
1000
0000
,
0001
0000
1000
0000
0001
0000
1000
0000
0001
0000
1000
0000
0001
0000
0000
0100
0000
0000
0001
0000
0000
1000
0000
0000
0010
0000
0000
1000
0000
0000
0100
0000
0000
0010
0000
0000
0001
0000
0000
0010
0000
0000
0100
0000
0000
1000
0000
0000
,
0001
0000
1000
0000
0001
0000
1000
0000
0000
0001
0000
0000
0010
0000
0000
0100
0000
0000
1000
0000
0000
0001
0000
0000
0010
0000
0000
0100
0000
0000
1000
0000
0000
0001
0000
0000
0100
0000
0000
0010
0000
0000
1000
0000
0000
0000
0000
0000
,
2001
0000
3000
0000
0001
0100
0010
1000
0100
0010
0100
1000
0001
1000
0001
0100
,
0002
0003
2000
3000
0020
0030
0200
0300
0001
0000
1000
0000
0010
0000
1000
0000
0100
0000
1000
0000
0001
0000
0010
0000
0100
0000
1000
0000
0001
0000
1000
0000
,
0001
0000
1000
0000
0001
0000
1000
0000
0000
0010
0000
0000
1000
0000
0000
0010
0000
0000
0100
0000
0000
0001
0000
0000
0010
0000
0000
0100
0000
0000
1000
0000
0000
0001
0000
0000
0010
0000
0000
0100
0000
0000
1000
0000
0000
0001
0000
0000
,
0200
0300
0001
0000
0200
0300
0010
0000
1000
0000
0010
0000
0100
0000
0001
0000
0010
0000
0100
0000
1000
0000
0001
0000
0010
0000
0001
0000
1000
0000
0010
0000
,
1000
0000
1010
0000
0010
1000
0100
0010
0001
0100
0010
1000
0100
0010
0100
0010
,
0002
0003
0020
0030
0200
0300
1000
0000
0010
0000
0100
0000
0001
0000
0010
0000
0001
0000
0100
0000
0010
0000
1000
0000
0100
0000
0010
0000
0001
0000
1000
0000
,
0100
0000
1000
0000
0100
0000
1000
0000
0100
0000
1000
0000
0100
0000
0000
0000
0000
0000
1000
0000
0000
0000
0000
0000
1000
0000
0000
0000
0000
0000
0001
0000
0000
0000
0000
0000
0001
0000
0000
0000
0000
0000
0010
0000
0000
0001
0000
0000
,
1000
0000
0001
0000
1000
0000
0001
0000
0000
1000
0000
0000
0010
0000
0000
0100
0000
0000
0001
0000
0000
0010
0000
0000
0100
0000
0000
1000
0000
0000
0010
0000
0000
0100
0000
0000
0001
0000
0000
0010
0000
0000
0100
0000
0000
1000
0000
0000
,
1001
0000
2002
0000
0MM0
0MM0
0MM0
0MM0
,
0MM0
3003
0000
0000
0000
0000
0000
0000
0000
0000
0000
0000
;
