#TITLE:Chaos;
#SUBTITLE:;
#ARTIST:De-Sire Retunes;
#TITLETRANSLIT:;
#SUBTITLETRANSLIT:;
#ARTISTTRANSLIT:Simfile (c) djtaka 06;
#CREDIT:;
#BANNER:chaos-bn.png;
#BACKGROUND:chaos-bg.png;
#LYRICSPATH:;
#CDTITLE:djcorp.png;
#MUSIC:Chaos.mp3;
#OFFSET:-2.960;
#SAMPLESTART:4.000;
#SAMPLELENGTH:14.000;
#SELECTABLE:YES;
#DISPLAYBPM:*;
#BPMS:0.000=170.000;
#STOPS:12.000=0.700
,16.000=0.700
,25.500=0.900
,29.500=0.700
,31.500=0.700
,34.000=0.700
,36.000=0.520
,42.000=0.700
,44.000=0.700
,46.500=0.700
,48.000=0.720
,54.000=1.060
,56.500=0.540
,63.000=0.520
,69.500=0.540
,76.000=0.540
,80.000=0.700
,82.500=0.520
,84.500=0.700
,93.000=0.700
,97.000=0.560
,99.500=0.520
,107.000=0.700
,111.000=0.900
,118.500=0.700
,124.500=0.300
,124.625=0.400
,128.500=0.300
,128.625=0.300
,128.750=0.300
,128.875=0.320
,133.000=1.600
,136.500=0.300
,136.625=0.300
,136.750=0.300
,136.875=0.340
,142.000=0.300
,142.125=0.300
,142.250=0.300
,148.000=1.040
,151.500=0.340
,154.500=0.360
,157.500=0.340
;
#BGCHANGES:;
// cache tags:
#FIRSTBEAT:14.000;
#LASTBEAT:178.000;
#SONGFILENAME:Songs/new cc/Chaos/Chaos.sm;
#HASMUSIC:1;
#HASBANNER:1;
#MUSICLENGTH:90.586;
// end cache tags

//---------------dance-single - Blank----------------
#NOTES:
     dance-single:
     Blank:
     Hard:
     10:
     0.546,0.586,0.210,0.066,0.282,321.000,19.000,6.000,0.000,0.000:







0000
0000
0000
0000
,
0000
0000
0000
0000
,
0000
0000
0000
0000
,
0000
0000
0000
0000
0000
0000
0000
0000
0001
0000
0010
0000
0100
0000
0000
1000
,
0001
0000
0100
0010
0100
0000
0000
0000
1001
0000
0000
0000
0000
0000
0001
0100
,
0001
0000
1010
0000
0010
0001
0000
0100
,
0010
0000
0100
0000
0001
1000
0110
0000
0000
1001
0000
0000
0100
1000
0100
0000
,
0000
0101
0000
0000
0001
0000
0010
0000
0100
0000
0000
0000
0010
0000
1000
0000
,
0001
0000
0000
0000
1000
0100
1000
0000
0001
0000
0000
0000
0010
0000
1000
0000
,
0010
0000
0000
1100
0000
0000
0101
0000
0010
0000
0000
1001
0000
0000
0010
0001
,
0010
0000
0000
1100
0000
0000
0010
0000
1000
0000
0100
0000
0000
0000
0010
0000
,
0001
0000
1000
0000
0000
0000
0010
0100
0010
0000
1000
0000
0000
0000
0001
0000
,
0010
0000
0000
1000
0000
0000
0010
0100
0010
0000
0000
0000
2002
0000
0000
0000
,
0000
0000
0000
0000
0003
0000
0000
0000
3100
0000
0010
0000
0100
0001
0100
0000
,
0010
0000
0001
0000
1000
0000
0100
0010
0100
0000
1000
0000
0001
0000
0000
0000
,
0100
0000
0010
0000
0100
0000
0010
1000
0010
0000
1000
0000
0001
0000
0100
0000
,
0010
1000
0010
0000
1000
0000
0100
0000
0000
0000
0001
0000
0100
0000
0001
0000
,
1000
0100
1000
0000
0001
0000
0010
0000
0100
0000
0010
0001
0010
0000
0001
0000
,
0100
0000
0000
0000
0010
0000
0100
0000
0010
1000
0010
0000
0100
0000
0001
0000
,
1000
0000
0010
0000
0100
0001
0100
0000
0010
0000
0001
0000
0100
0000
1000
0000
,
0010
0000
0001
2000
0000
3100
0010
0000
,
0001
0000
1000
0000
0001
0000
0000
0000
0010
0000
0100
0000
0010
0001
0010
0000
,
0000
0000
1100
0000
0000
0000
0010
0000
0100
0001
0100
0000
0010
0000
0200
0000
,
0000
0000
0301
0000
1000
0000
0100
0000
0000
0000
0010
0000
0100
0000
1000
0001
,
1000
0010
1000
0002
0000
0103
0010
0100
,
0000
0000
1000
0000
0010
0100
0010
0000
1000
0000
0001
0000
0010
0000
1000
0000
,
0100
0010
0100
1000
0100
0001
0100
0010
,
0001
1000
0010
0001
0010
1000
0100
1000
,
0010
0001
0100
0010
1000
0100
0010
0001
,
0010
0100
1000
0001
0010
1000
0010
0001
,
0100
0010
0001
1000
0100
0010
1000
0010
,
0001
0000
0000
0000
1001
0110
0000
0000
0010
0000
0000
0000
1000
0000
0000
0000
0001
0000
0000
0000
1000
0000
0000
0000
0010
0000
0000
0000
0001
0000
0000
0000
,
0100
0000
0000
0000
0001
1010
0100
0011
0000
0000
0000
0000
0100
0000
0000
0000
1000
0000
0000
0000
0010
0000
0000
0000
0001
0000
0000
0000
0100
0000
0000
0000
,
1000
0010
0100
0001
0010
1000
0001
0100
,
0010
0000
0000
0000
0001
1100
0010
1001
0000
0000
0000
0000
0100
0000
0000
0000
0001
0000
0000
0000
0010
0000
0000
0000
1000
0000
0000
0000
0100
0000
0000
0000
,
1000
0000
0000
0000
0001
0000
0000
0000
0100
0000
0000
0000
0010
0000
0000
0000
1100
0010
0101
0000
0000
0000
0000
0000
0100
0000
0000
0000
0000
0000
0010
0000
,
0000
0001
1000
0000
0100
0000
0000
0000
1000
0001
2000
0000
0000
0000
0000
0000
,
3100
0000
1000
0000
0010
0000
0000
0100
0001
0000
0010
0000
1000
0000
0001
0000
,
0100
0000
0000
0010
0100
0000
1000
0000
0010
0000
0001
0000
0010
0000
0000
0100
,
0001
0000
1000
0000
0100
0000
0010
0000
0100
0000
0000
0010
0001
0000
0100
0000
,
1000
0000
0001
0010
1000
0010
0001
0010
,
1000
0010
0001
0100
1000
0100
0001
0100
,
1000
0000
0100
0000
0010
0000
1000
0100
1000
0000
0001
0100
0001
0000
1000
0010
,
1000
0000
0001
0010
0001
0000
0100
0010
0100
0000
0001
1000
0001
0000
1000
0100
,
1000
0000
0010
1000
0001
0000
0000
0000
0000
0000
0000
0000
0000
0000
0000
0000
;

//---------------dance-single - HEAVY----------------
#NOTES:
     dance-single:
     HEAVY:
     Challenge:
     11:
     0.714,0.688,0.574,0.144,0.591,388.000,52.000,13.000,0.000,0.000:

0000
0000
0000
0000
,
0000
0000
0000
0000
,
0000
0000
0000
0000
,
0000
0000
0000
0000
0000
0000
0000
0000
0001
0000
0010
0000
0100
0001
0010
1000
,
0001
0000
0100
0010
0100
0000
0000
0000
1001
0000
0110
0000
0000
0000
0001
0100
,
0001
0000
0000
0000
0101
0000
1010
0000
0010
0100
0001
0000
1000
0010
0100
0000
,
0010
0000
0100
0001
0010
1000
0110
0000
0000
1000
0001
0010
0100
1000
0100
0000
,
0000
0101
0000
0000
0021
0000
1000
0000
0130
0000
0000
0000
0010
0200
1000
0000
,
0301
0000
0000
0000
0100
0001
1000
0010
0110
0000
0000
0001
0010
0000
1000
0100
,
0001
0000
0010
1100
0000
0000
0101
0000
1010
0000
0100
1000
0010
0000
0010
0001
,
0010
0000
1000
1100
0000
0000
0010
0000
1010
0000
0100
0000
0100
0000
0010
1000
,
0001
0000
1100
0000
0110
0000
0011
0000
0000
1000
1000
0000
0001
0000
0000
0010
,
0010
0000
0000
1000
1000
0000
0010
0100
0010
0000
0001
0000
2200
0000
0000
0000
,
0000
0000
0000
0300
0000
0000
0010
0000
3100
0000
0010
0000
1000
0001
0100
0000
,
0000
1000
0001
0000
0010
0000
0100
0010
0100
0000
1000
0000
0001
0000
0010
0000
,
0100
0000
0010
0000
0100
0000
0010
0000
0100
0000
1000
0010
0001
0000
0100
0000
,
0001
1000
0110
0000
0000
0000
0100
0000
0010
0000
0001
0000
0100
0000
0001
0000
,
1000
0100
1000
0000
0001
0100
0010
0000
0100
0000
1000
0001
0010
1000
0001
0100
,
0100
0001
0000
0000
0010
0000
0100
0000
0001
1000
0010
0000
1000
0000
0001
0100
,
1000
0000
0010
0000
0100
0001
0100
0000
1100
0000
0001
0000
0110
0000
1000
0001
,
0010
0000
0001
2000
0000
3100
0010
0000
,
0001
0100
1000
0000
0001
0000
0000
1000
0010
0000
0000
0000
1000
0000
0000
0001
,
0010
0000
1100
0000
0011
0000
0000
1000
0100
0001
0100
0000
0010
0000
2200
0000
,
3000
0000
0301
0010
1000
0000
0100
0001
0010
0000
0000
1000
0100
0000
1000
0001
,
1000
0000
0010
0001
1000
0000
2002
0000
0000
3003
0000
0100
0010
0000
0100
0000
,
0000
0000
0001
0000
0100
0010
0100
0000
0010
0100
0010
0000
0001
1000
0001
0000
,
1000
0100
0001
0000
0001
0100
1000
0000
0100
0000
0001
0010
0110
0000
0010
0000
,
0001
0000
1000
0000
0010
0000
0101
0000
0100
0000
1000
0001
0110
0000
1000
0000
,
1010
0000
0010
0000
0001
0000
0100
0001
0100
0000
0100
0000
0010
0000
1000
0000
,
0100
0001
0010
0000
0001
0000
1000
0000
0100
0010
1001
0000
0010
0000
0001
0000
,
0100
0010
0001
1000
0110
0010
1000
0010
,
0001
0000
0000
0000
1100
0011
0000
0000
0010
0000
0000
0000
1100
0000
0000
0000
0011
0000
0000
0000
0010
0000
0000
0000
0010
0000
0000
0000
1000
0000
0100
0000
,
0010
0000
0001
0000
0001
0110
1000
0101
0000
0000
0000
0000
0100
0000
0000
0000
0110
0000
0000
0000
0010
0000
0000
0000
1001
0000
0000
0000
0100
0000
0000
0000
,
1010
0100
0010
0000
0100
0000
0011
0000
0010
0100
1000
0000
0001
0000
0100
0000
,
0010
0000
0000
0000
0001
1100
0010
1001
0000
0000
0000
0000
0100
0000
0010
0000
0001
0000
0000
0000
0010
0000
0100
0000
1000
0000
0000
0000
0100
0000
0001
0000
,
1000
0000
0000
0000
0001
0000
0010
0000
0100
0000
0000
0000
1000
0000
0000
0000
0110
0010
0110
0000
0000
0000
0000
0000
0100
0000
0000
0000
1000
0000
0010
0000
,
0000
0001
1000
0000
0100
0000
0000
0010
1000
0001
2020
0000
0030
0000
0002
0000
,
3003
0000
1100
0000
0010
0000
0000
0100
0001
0000
1000
0000
1000
0000
0001
0000
,
0001
0000
0000
0010
0100
0000
1000
0000
0010
1000
0001
0000
1010
0000
0000
0100
,
0001
0010
1000
0000
0100
0001
0010
0000
0100
0000
0000
0010
0001
0000
0100
0001
,
1000
0000
0000
0000
1000
0000
0100
0001
0001
0000
0100
1000
1000
0000
0100
0001
,
0001
0000
0010
1000
1000
0000
0010
0001
0001
0000
0010
1000
1100
0000
0110
0000
,
0011
0000
0110
0000
0000
0000
0010
0100
1000
0010
0001
0100
0001
0000
1000
0010
,
1000
0100
1000
0100
0001
0000
0100
0010
0100
0000
1001
0100
0001
0000
0001
0010
,
1000
0000
0100
0001
0020
0000
0000
0000
0030
0000
0000
0000
0000
0000
0000
0000
;
