#TITLE:Aerodynamic;
#SUBTITLE:(Daft Punk Remix);
#ARTIST:Daft Punk;
#TITLETRANSLIT:;
#SUBTITLETRANSLIT:;
#ARTISTTRANSLIT:;
#CREDIT:;
#BANNER:aerodynamicrmx-bn.png;
#BACKGROUND:aerodynamicrmx-bg.png;
#LYRICSPATH:;
#CDTITLE:;
#MUSIC:Aerodynamic (Daft Punk Remix).mp3;
#OFFSET:-0.220;
#SAMPLESTART:86.120;
#SAMPLELENGTH:12.000;
#SELECTABLE:YES;
#BPMS:0.000=122.930;
#STOPS:;
#BGCHANGES:;
// cache tags:
#FIRSTBEAT:8.000;
#LASTBEAT:240.000;
#SONGFILENAME:Songs/toune 8/Aerodynamic (Daft Punk Remix)/Aerodynamic (Daft Punk Remix).sm;
#HASMUSIC:1;
#HASBANNER:1;
#MUSICLENGTH:122.671;
// end cache tags

//---------------dance-single - ----------------
#NOTES:
     dance-single:
     :
     Challenge:
     9:
     0.540,0.562,0.082,0.155,0.155,435.000,10.000,19.000,0.000,0.000:
0000
0000
0000
0000
,
0000
0000
0000
0000
,
1000
0001
0010
0100
1000
0100
0010
0002
,
0000
2003
0000
3000
0000
0000
0010
0100
,
0000
2002
0000
3003
0000
0000
0000
0001
,
0100
0000
1010
0000
0000
0000
0000
1001
,
0000
1000
0100
0010
0001
0100
0010
1000
,
0000
0000
0000
0000
0000
0000
1000
0002
,
0000
0003
0000
0000
0000
0000
0000
0010
,
0100
0001
1000
0000
0000
0000
0000
1000
,
0100
0000
0000
0000
0000
0011
0000
0101
,
0000
0100
0010
0100
0010
0100
0010
0000
,
1000
0001
1000
0001
0100
0010
0100
0110
,
0000
0001
0100
0010
1000
0100
0010
0001
,
0100
0010
1000
0001
1001
0000
1000
0001
,
0000
0000
1001
1001
,
1000
0000
0100
0000
0010
0000
0001
0000
0100
0010
0100
0000
0001
0000
1000
0000
,
0000
0000
0010
0000
0100
0000
0000
0000
0001
1000
0001
0000
0100
0000
0010
0000
,
1000
0100
0000
0010
0001
0100
0010
1000
,
0000
0000
0001
0000
1000
0001
0000
0001
1000
0000
0001
0000
0100
0000
0010
0000
,
2000
0000
3100
0000
2000
0000
3100
0000
0010
0001
0010
0000
0001
0000
0001
0000
,
0200
0000
0302
0000
0023
0000
0030
0000
0100
0010
0100
0000
0010
0000
0010
0000
,
0200
0000
0301
0000
0200
0000
0301
0000
1000
0010
1000
0000
0001
0000
0001
0000
,
0100
0000
0010
0000
0100
0010
0000
0010
0100
0000
0010
0000
0100
0000
0010
0000
,
0002
0000
0013
0000
0002
0000
0013
0000
0100
1000
0100
0000
1000
0000
1000
0000
,
0020
0000
2030
0000
3200
0000
0300
0000
0010
0100
0010
0000
0100
0000
0100
0000
,
2000
0000
3010
0000
2000
0000
3010
0000
0001
0100
0001
0000
1000
0000
1000
0000
,
0010
0000
0100
0000
0010
0100
0000
0100
0010
0000
0100
0000
0010
0000
0100
0000
,
0001
1000
0001
1000
0001
1000
0001
1000
,
0010
1000
0010
1000
0010
1000
0010
1000
,
0010
0100
0010
0100
0010
0100
0010
0100
,
0001
0100
0001
0100
0001
0100
0001
0100
,
0001
0010
0001
0010
0001
0010
0001
0010
,
0100
1000
0100
1000
0100
1000
0100
1000
,
0001
1000
0001
1000
0001
1000
0001
1000
,
0010
0100
0010
0100
0010
0100
0010
0100
,
0001
0000
0010
0000
0100
0000
1000
0000
0010
0100
0010
0000
1000
0000
0001
0000
,
0000
0000
0100
0000
0010
0000
0000
0000
1000
0001
1000
0000
0010
0000
0100
0000
,
0001
0010
0000
0100
1000
0010
0100
0001
,
0000
0000
1000
0000
0001
1000
0000
1000
0001
0000
1000
0000
0010
0000
0100
0000
,
0001
0000
1000
0000
0010
0000
0100
0000
0010
0100
0010
0000
1000
0000
0001
0000
,
0000
0000
0010
0000
0100
0000
0000
0000
1000
0001
1000
0000
0100
0000
0010
0000
,
0001
0100
0000
0010
1000
0100
0010
0001
,
0000
0000
0001
0000
1000
0001
0000
0001
1000
0000
0001
0000
0100
0000
0010
0000
,
1000
0100
0010
0100
1000
0001
0010
0001
,
1000
0010
0100
0001
0010
0100
1000
0001
,
0100
0001
0010
0001
0100
0010
1000
0010
,
0100
0001
1000
0010
0100
0010
1000
0001
,
0100
0010
1000
0001
1000
0010
0100
0001
,
0010
0100
1000
0001
0100
0010
1000
0001
,
0100
0010
1000
0010
0100
0001
1000
0010
,
1000
0100
0010
0001
0100
0010
1000
0001
,
1000
0000
0100
0000
0010
0000
0001
0000
1000
0001
1000
0001
1000
0000
0001
0000
,
0001
0000
0010
0000
0100
0000
1000
0000
0001
1000
0001
1000
0001
0000
1000
0000
,
0010
0000
0100
0000
0001
0000
1000
0000
0010
0100
0010
0100
0010
0000
0100
0000
,
0001
0000
1000
0000
0010
0000
0100
0000
0010
0100
0010
0100
0010
0000
0100
0000
,
0001
0000
0010
0000
0100
0000
1000
0000
0001
0010
0001
0010
0001
0000
0010
0000
,
0001
0000
0100
0000
0010
0000
1000
0000
0010
1000
0010
1000
0010
0000
1000
0000
,
0001
0000
1000
0000
0100
0000
1000
0000
0100
1000
0100
1000
0100
0000
1000
0000
,
1000
0000
0100
0000
0010
0000
0001
0000
0100
0001
0100
0001
0100
0000
0001
0000
,
1001
0000
0000
0000
;
