#TITLE:Lupin the 3rd;
#SUBTITLE:- Seventy Eight;
#ARTIST:VENTURA;
#TITLETRANSLIT:;
#SUBTITLETRANSLIT:;
#ARTISTTRANSLIT:;
#CREDIT:;
#BANNER:lupin.png;
#BACKGROUND:lupin-bg.png;
#LYRICSPATH:;
#CDTITLE:;
#MUSIC:lupin.mp3;
#OFFSET:1.460;
#SAMPLESTART:38.540;
#SAMPLELENGTH:12.000;
#SELECTABLE:YES;
#BPMS:0.000=150.000;
#STOPS:;
#BGCHANGES:;
// cache tags:
#FIRSTBEAT:12.000;
#LASTBEAT:228.000;
#SONGFILENAME:Songs/Anime Songs/LupinThe3rd/lupin.sm;
#HASMUSIC:1;
#HASBANNER:1;
#MUSICLENGTH:91.727;
// end cache tags

//---------------dance-single - ----------------
#NOTES:
     dance-single:
     :
     Easy:
     3:
     0.223,0.342,0.120,0.000,0.000,132.000,11.000,0.000,0.000,0.000:  // measure 1
0000
0000
0000
0000
,  // measure 2
0000
0000
0000
0000
,  // measure 3
0000
0000
0000
0000
,  // measure 4
1000
1000
1000
1000
,  // measure 5
0001
0100
0001
0100
,  // measure 6
1000
1000
1000
1000
,  // measure 7
0010
0001
0100
1000
,  // measure 8
0010
0010
0010
1001
,  // measure 9
0100
0100
0100
1001
,  // measure 10
0010
0100
1000
0001
,  // measure 11
0110
0000
0000
0000
,  // measure 12
0001
0001
0000
0000
,  // measure 13
1000
1000
0000
0000
,  // measure 14
0001
0001
0000
0000
,  // measure 15
1000
1000
0000
0000
,  // measure 16
0001
0100
0100
0000
,  // measure 17
1000
0010
0010
0100
,  // measure 18
0001
0010
0010
0000
,  // measure 19
0100
1000
0001
0100
,  // measure 20
0010
1000
0100
0000
,  // measure 21
1000
1000
0000
0000
,  // measure 22
0001
0001
0000
0000
,  // measure 23
1000
1000
0000
0000
,  // measure 24
0001
0001
0000
0000
,  // measure 25
1000
0010
0010
0000
,  // measure 26
0001
0100
0010
1000
,  // measure 27
0100
0010
0010
0000
,  // measure 28
1001
0110
1001
0000
,  // measure 29
0001
0100
0000
0000
,  // measure 30
1000
0100
0000
0000
,  // measure 31
0001
0010
0000
0000
,  // measure 32
0100
0000
1000
0000
,  // measure 33
0001
0001
0000
0000
,  // measure 34
1000
1000
0000
0000
,  // measure 35
0010
0000
0100
0000
,  // measure 36
1001
0000
0000
0000
,  // measure 37
0110
0000
0000
0000
,  // measure 38
1000
1000
0000
0000
,  // measure 39
0001
0001
0000
0000
,  // measure 40
1000
1000
0000
0000
,  // measure 41
0001
0001
0000
0000
,  // measure 42
0100
0010
1000
0000
,  // measure 43
0001
0100
0010
1000
,  // measure 44
0001
0010
0100
0000
,  // measure 45
1001
0000
0000
0000
,  // measure 46
0010
0100
1000
0001
,  // measure 47
0110
0000
0000
0000
,  // measure 48
0001
1000
0100
0010
,  // measure 49
0001
0001
1000
1000
,  // measure 50
0100
0010
0001
0000
,  // measure 51
1000
0000
0000
0000
,  // measure 52
0000
0000
0000
0000
,  // measure 53
1000
0000
0000
0000
,  // measure 54
0000
0000
0000
0000
,  // measure 55
1000
0000
0000
0000
,  // measure 56
0100
0000
0000
0000
,  // measure 57
0010
0000
0000
0000
,  // measure 58
1001
0000
0000
0000
;

//---------------dance-single - ----------------
#NOTES:
     dance-single:
     :
     Medium:
     6:
     0.425,0.466,0.153,0.000,0.000,259.000,14.000,0.000,0.000,0.000:  // measure 1
0000
0000
0000
0000
,  // measure 2
0000
0000
0000
0000
,  // measure 3
0000
0000
0000
0000
,  // measure 4
1000
0100
1000
0000
0001
0000
0001
0000
,  // measure 5
0100
0010
0000
0100
0000
0100
0000
0100
,  // measure 6
0001
0010
0001
0000
1000
0000
1000
0000
,  // measure 7
0010
0100
0000
0010
0000
0010
0000
0010
,  // measure 8
1000
0100
0010
0000
0001
0000
0001
0000
,  // measure 9
1000
0010
0100
0000
0001
0000
0001
0000
,  // measure 10
1000
0100
0000
0010
0000
0010
0000
0001
,  // measure 11
0001
0000
0000
0000
,  // measure 12
1000
0010
0100
0001
0000
0001
0000
0001
,  // measure 13
1000
0100
0010
0001
0000
0001
0000
0001
,  // measure 14
0100
0010
1000
0100
0000
0100
0000
0100
,  // measure 15
0010
0001
1000
0100
0000
0010
0001
1000
,  // measure 16
0100
0000
1001
0000
0100
0010
1000
0100
,  // measure 17
0010
0000
1001
0000
0100
0010
1000
0001
,  // measure 18
0100
1001
0100
0010
,  // measure 19
0100
0100
0100
0100
,  // measure 20
0010
0000
0001
1000
0100
0000
0000
0000
,  // measure 21
0010
0001
0100
0010
0000
0010
0000
0010
,  // measure 22
1000
0100
0010
0001
0000
0001
0000
0001
,  // measure 23
1000
0010
0100
0001
0000
0001
0000
0001
,  // measure 24
0010
0100
1000
0001
0000
0100
0010
1000
,  // measure 25
0100
0000
1001
0000
0100
0010
1000
0001
,  // measure 26
0100
0000
1001
0000
0010
0100
0001
0010
,  // measure 27
0100
1001
0100
0010
,  // measure 28
1000
0000
0100
0010
0001
0000
0000
0000
,  // measure 29
1000
0000
1000
0000
1000
0000
0010
0100
,  // measure 30
0001
0000
0001
0000
0001
0000
1000
0100
,  // measure 31
0010
0000
0010
0000
0010
0000
0001
0100
,  // measure 32
0010
0010
0010
1001
,  // measure 33
0100
0010
0100
0000
0000
0000
1001
0000
,  // measure 34
0010
0100
0010
0000
0000
0000
1001
0000
,  // measure 35
0100
0010
1000
0100
,  // measure 36
0010
0001
0100
0000
0010
0000
1000
0001
,  // measure 37
0010
0000
0000
0000
,  // measure 38
0100
1000
0001
0000
0100
0000
0010
1000
,  // measure 39
0100
0000
0010
0000
0001
0000
1000
0100
,  // measure 40
0010
0000
0001
0000
1000
0000
0100
0010
,  // measure 41
1000
0000
0001
0010
0100
0000
1000
0000
,  // measure 42
1000
0000
0001
0000
0001
0000
0010
0100
,  // measure 43
1000
0000
0001
0000
0100
0000
0010
1000
,  // measure 44
0001
0010
0100
1000
,  // measure 45
1001
0000
0000
0000
,  // measure 46
1000
0100
0010
0000
0001
0100
0010
0000
,  // measure 47
1001
0000
0000
0000
,  // measure 48
0100
0010
0001
0000
0100
0010
1000
0000
,  // measure 49
0001
0100
1000
0100
,  // measure 50
0010
0000
0001
0100
0010
0000
0000
0000
,  // measure 51
1000
0000
1000
0000
0001
0100
0010
0000
,  // measure 52
0001
0100
0010
0000
1000
0000
1000
0000
,  // measure 53
0001
0000
0010
0000
0100
1000
0100
0000
,  // measure 54
0010
0001
0010
0000
0100
0000
0100
0000
,  // measure 55
0010
1000
0001
0000
0110
0000
0000
0000
,  // measure 56
1000
0010
0100
0000
1001
0000
0000
0000
,  // measure 57
0010
0000
0100
0000
1000
0100
0001
0000
,  // measure 58
1001
0000
0000
0000
;

//---------------dance-single - ----------------
#NOTES:
     dance-single:
     :
     Hard:
     9:
     0.621,0.621,0.120,0.000,0.414,388.000,11.000,0.000,0.000,0.000:  // measure 1
0000
0000
0000
0000
,  // measure 2
0000
0000
0000
0000
,  // measure 3
0000
0000
0000
0000
,  // measure 4
1000
0100
1000
0100
1000
0000
0000
0000
0001
0000
0010
0000
0100
0000
0000
0000
,  // measure 5
1000
0010
1000
0010
1000
0000
0000
0000
0100
0000
0010
0000
0001
0000
0000
0000
,  // measure 6
0100
0010
0100
0010
0100
0000
0000
0000
0001
0000
1000
0000
0100
0000
0000
0000
,  // measure 7
0010
0001
0010
0001
0010
0000
0000
0000
0100
1000
0100
1000
0100
0000
0000
0000
,  // measure 8
0001
0100
0001
0100
0001
0000
0000
0000
0010
0000
1000
0000
0100
0000
0000
0000
,  // measure 9
0010
0001
0010
0001
0010
0000
0000
0000
0100
0000
1000
0000
0001
0000
0000
0000
,  // measure 10
0010
0100
0000
1000
0001
0000
0010
0100
0000
1000
0001
0000
0010
0000
0100
0000
,  // measure 11
1001
0000
0000
0000
,  // measure 12
1000
0100
0000
0010
0100
0000
1000
0000
0001
0000
0100
0000
0010
0000
0000
0000
,  // measure 13
1000
0100
0000
0010
0001
0000
1000
0000
0010
0000
0100
0000
0001
0000
0000
0000
,  // measure 14
0010
0100
0000
1000
0010
0000
0100
0000
0001
0000
1000
0000
0100
0000
0000
0000
,  // measure 15
0010
0001
0000
1000
0100
0000
0010
0000
0001
0000
1000
0000
0010
0000
0000
0000
,  // measure 16
0100
0001
0000
1000
0100
0000
0000
0000
0010
0000
0001
0000
1000
0000
0000
0000
,  // measure 17
0010
0100
0000
0001
1000
0000
0000
0000
0100
0000
0010
0000
0001
0000
0000
0000
,  // measure 18
1000
0010
0000
0100
0001
0000
0010
0000
0100
0000
1000
0000
0001
0000
0000
0000
,  // measure 19
0010
0100
0000
0000
1000
0010
0000
0000
0100
0000
0001
0000
0010
0000
0000
0000
,  // measure 20
0100
1000
0000
0000
0001
0100
0000
0000
0010
0000
0000
0000
0000
0000
0000
0000
,  // measure 21
1000
0000
0100
0000
0010
0001
0010
0000
0100
0000
1000
0000
0001
0000
0000
0000
,  // measure 22
0100
0000
0010
0000
1000
0100
1000
0000
0001
0000
0010
0000
0100
0000
0000
0000
,  // measure 23
1000
0000
0001
0000
0100
0010
0100
0000
0001
0000
1000
0000
0100
0000
0000
0000
,  // measure 24
0010
0000
0001
0000
1000
0100
1000
0000
0010
0000
0100
0000
0001
0000
0000
0000
,  // measure 25
1000
0000
0100
0000
0010
0001
0010
0000
0100
0000
0000
0000
1001
0000
0000
0000
,  // measure 26
0100
0000
0010
0000
1000
0100
1000
0000
0001
0000
0000
0000
0110
0000
0000
0000
,  // measure 27
1000
0000
0001
0000
0010
0100
0010
0000
0001
0000
0000
0000
0101
0000
0000
0000
,  // measure 28
1100
0000
0000
1010
0000
0000
0101
0000
0000
0000
0000
0000
0000
0000
0000
0000
,  // measure 29
1000
0100
0010
0001
0000
0001
0100
0010
,  // measure 30
1000
0100
0010
0001
0000
0001
0100
1000
,  // measure 31
0100
0001
0010
0100
0000
0100
1000
0001
,  // measure 32
0100
0010
1000
0100
0010
0001
0001
0100
,  // measure 33
0010
1000
0100
0010
0001
0100
0010
0100
,  // measure 34
0001
0010
0001
0100
0010
1000
0100
0010
,  // measure 35
0001
1000
0010
0100
0001
1000
0100
0010
,  // measure 36
0001
0100
0000
0000
0000
0000
1000
0100
0000
0000
0000
0000
0001
0100
0000
0001
,  // measure 37
0010
0000
0000
0000
,  // measure 38
1000
0000
0100
0000
0010
0001
0000
0001
0100
0000
0010
0000
1000
0000
0001
0000
,  // measure 39
0010
0000
0100
0000
1000
0010
0000
0010
0100
0000
0001
0000
1000
0000
0000
0000
,  // measure 40
0100
0000
0100
0000
0010
0001
0000
0001
1000
0000
0010
0000
0100
0000
0001
0000
,  // measure 41
0010
0000
0100
0000
1000
0001
0000
0001
0100
0000
0010
0000
1000
0000
0000
0000
,  // measure 42
0001
0000
0001
0000
0001
0100
0000
0001
0100
0000
0000
0000
0010
0000
0000
0000
,  // measure 43
1000
0000
1000
0000
0100
1000
0000
0100
1000
0000
0000
0000
0001
0000
0000
0000
,  // measure 44
0100
0010
1000
0100
0010
0001
1000
0010
,  // measure 45
0100
0000
0100
0000
0100
0001
0010
0100
,  // measure 46
1000
0001
0000
0000
0100
0000
0000
0000
1000
0001
0000
0000
0100
0000
0000
0000
,  // measure 47
0010
0000
0010
0000
0010
1000
0100
0010
,  // measure 48
0001
1000
0000
0000
0100
0000
0000
0000
0001
1000
0000
0000
0100
0000
0000
0000
,  // measure 49
0010
0000
0001
0000
0100
0010
0000
0000
1000
0000
0100
0000
0010
0001
0000
0000
,  // measure 50
1000
0010
0100
0001
1100
0000
0000
0000
,  // measure 51
0001
0000
0001
0000
0100
0010
0000
0000
1000
0000
0100
0000
0010
0000
0000
0000
,  // measure 52
0001
0000
0001
0000
1000
0100
0000
0000
0010
0000
0001
0000
0100
0000
0010
0000
,  // measure 53
1000
0000
1000
0000
0100
0010
0000
0000
0001
0000
0100
0000
0010
0000
0000
0000
,  // measure 54
1000
0000
1000
0000
0001
0100
0000
0000
0010
0000
1000
0000
0100
0000
0010
0000
,  // measure 55
0001
0000
0001
0000
1000
0100
0000
0000
1001
0000
0000
0000
0000
0000
0000
0000
,  // measure 56
0100
0000
0100
0000
0001
0010
0000
0000
1100
0000
0000
0000
0000
0000
0000
0000
,  // measure 57
0001
0100
0000
0001
1000
0000
0001
0100
0000
0001
1000
0000
0100
0000
0010
0000
,  // measure 58
1001
0000
0000
0000
;
