#TITLE:War in the Dance;
#SUBTITLE:(DJ Sharpnel Remix);
#ARTIST:FFF;
#TITLETRANSLIT:;
#SUBTITLETRANSLIT:;
#ARTISTTRANSLIT:;
#CREDIT:;
#BANNER:war in the dance bn.png;
#BACKGROUND:war in the dance bg.png;
#LYRICSPATH:;
#CDTITLE:;
#MUSIC:War in the Dance (DJ SHARPNEL REMIX).ogg;
#OFFSET:-0.062;
#SAMPLESTART:143.939;
#SAMPLELENGTH:19.182;
#SELECTABLE:YES;
#BPMS:0.000=200.183;
#STOPS:;
#BGCHANGES:;
// cache tags:
#FIRSTBEAT:32.000;
#LASTBEAT:928.000;
#SONGFILENAME:Songs/SHARPNELSTREAMZ v2/War in the Dance (DJ Sharpnel Remix)/War in the Dance (DJ SHARPNEL REMIX).sm;
#HASMUSIC:1;
#HASBANNER:1;
#MUSICLENGTH:280.084;
// end cache tags

//---------------dance-single - 17- (CTalon)----------------
#NOTES:
     dance-single:
     17- (CTalon):
     Challenge:
     17:
     1.000,1.000,0.057,0.061,1.000,2814.000,16.000,17.000,0.000,0.000:
0000
0000
0000
0000
,
0000
0000
0000
0000
,
0000
0000
0000
0000
,
0000
0000
0000
0000
,
0000
0000
0000
0000
,
0000
0000
0000
0000
,
0000
0000
0000
0000
,
0000
0000
0000
0000
,
1001
1000
0001
1000
0001
1000
0001
1000
,
0001
0010
0001
0010
0001
0010
0001
0010
,
0100
1000
0100
1000
0100
1000
0100
1000
,
0010
1000
0010
1000
0010
1000
0010
1000
,
0001
1000
0001
1000
0001
1000
0001
1000
,
0010
0100
0010
0100
0010
0100
0010
0100
,
0001
0100
0001
0100
0001
0100
0001
0100
,
0001
1000
0001
1000
0001
0010
0100
1000
0004
0000
0103
0000
0100
0000
0010
0000
,
1000
0000
0001
0000
1000
0000
0010
0100
0001
0100
0010
1000
0100
0000
0010
0000
,
0001
0000
1000
0000
0010
0000
1000
0100
1000
0001
0100
0010
0100
0000
0001
0000
,
1000
0000
0100
0000
0010
0000
0001
1000
0010
0100
0001
0010
0100
0000
0010
0000
,
0001
0000
1000
0000
0001
0000
0100
0010
1000
0001
0010
0100
0010
0000
0010
0000
,
0001
0000
1000
0000
0010
0000
1000
0100
0010
0001
0100
0010
0100
0000
0001
0000
,
1000
0000
0010
0000
1000
0000
0001
0010
0001
1000
0001
0100
0010
0000
1000
0000
,
0001
0000
1000
0000
0100
0000
0010
0001
0010
0001
1000
0010
0100
0000
0010
0000
,
1000
0000
0001
0100
0001
0000
0010
0100
1000
0001
1000
0010
0400
0000
0340
0000
,
1030
0000
0100
0000
0010
0000
0001
0010
0100
1000
0001
1000
0010
0000
0100
0000
,
0001
0000
1000
0000
0010
0000
1000
0100
1000
0100
0010
0001
0100
0000
0010
0000
,
1000
0000
0001
0000
1000
0000
0010
0100
0010
0100
0001
1000
0100
0000
0010
0000
,
0001
0000
1000
0000
0010
0000
1000
0001
0010
0100
1000
0010
1000
0000
1000
0000
,
0100
0000
0010
0000
0001
0000
0010
0100
1000
0001
1000
0010
0100
0000
0001
0000
,
1000
0000
0100
0000
0010
0000
0100
1000
0001
1000
0010
1000
0010
0000
1000
0000
,
0001
0000
0100
0000
0010
0000
1000
0100
0010
0001
1000
0100
0010
0000
0100
0000
,
1000
0010
1000
0010
0100
0001
0010
0100
4000
0000
3001
0000
0001
0000
0100
0000
,
0010
0000
1000
0000
0001
0000
0010
0100
0010
0100
1000
0001
0100
0000
0001
0000
,
1000
0000
0100
0000
0010
0000
0001
0010
0100
0010
0001
1000
0001
0000
0100
0000
,
0010
0000
1000
0000
0100
0000
1000
0010
0100
0001
0100
0001
1000
0000
0100
0000
,
0010
0000
0001
0000
0100
0000
0010
0100
0001
1000
0100
0010
0100
0000
0100
0000
,
1000
0000
0001
0000
0100
0000
0010
0100
0001
1000
0001
0010
0100
0000
0010
0000
,
0001
0000
1000
0000
0010
0000
1000
0001
0100
0010
0100
0001
1000
0000
0100
0000
,
0010
0000
0001
0000
0010
0000
0001
1000
0001
0100
0010
0100
0001
0000
1000
0000
,
0100
0000
0010
0001
1000
0000
0001
0100
0010
0100
0001
1000
0400
0000
0340
0000
,
0032
0003
0000
0000
0000
0000
0000
0000
1000
0000
0000
0000
0000
0000
0000
0000
0020
0000
0000
0000
0030
0000
0000
0000
1000
0000
0000
0000
0000
0000
0000
0000
,
0002
0003
0000
0000
0000
0000
0000
0000
1000
0000
0000
0000
0000
0000
0000
0000
0200
0000
0000
0000
0300
0000
0000
0000
1000
0000
0000
0000
0000
0000
0000
0000
,
0002
0003
0000
0000
0000
0000
0000
0000
1000
0000
0000
0000
0000
0000
0000
0000
0020
0000
0000
0000
0030
0000
0000
0000
1000
0000
0000
0000
0000
0000
0000
0000
,
0002
0003
0000
0000
0000
0000
0000
0000
1000
0000
0000
0000
0000
0000
0000
0000
0200
0000
0000
0000
0300
0000
0000
0000
1000
0000
0000
0000
0000
0000
0000
0000
,
0002
0003
0000
0000
0000
0000
0000
0000
0010
0000
0000
0000
0000
0000
0000
0000
0200
0000
0000
0000
0300
0000
0000
0000
0010
0000
0000
0000
0000
0000
0000
0000
,
0002
0003
0000
0000
0000
0000
0000
0000
0010
0000
0000
0000
0000
0000
0000
0000
0200
0000
0000
0000
0300
0000
0000
0000
0010
0000
0000
0000
0000
0000
0000
0000
,
0002
0003
0000
0000
0000
0000
0000
0000
0100
0000
0000
0000
0000
0000
0000
0000
0020
0000
0000
0000
0030
0000
0000
0000
0100
0000
0000
0000
0000
0000
0000
0000
,
0001
1000
0100
1000
0100
0010
0001
0100
0040
0000
1030
0000
1000
0000
0001
0000
,
1000
0100
0010
0001
1000
0010
0100
0010
1000
0001
0010
0100
1000
0010
0100
0010
,
1000
0100
0010
0001
1000
0010
0100
0010
1000
0001
0010
0100
1000
0010
0100
0010
,
1000
0010
0100
0001
1000
0100
0010
0100
1000
0001
0100
0010
1000
0100
0010
0100
,
1000
0010
0100
0001
1000
0100
0010
0100
1000
0001
0100
0010
1000
0100
0010
0100
,
1000
0001
0010
0001
0100
0001
1000
0001
0010
0100
1000
0001
0100
0010
1000
0010
,
1000
0001
0010
0001
0100
0001
1000
0001
0010
0100
1000
0100
0010
0100
1000
0001
,
1000
0001
0100
0001
0010
0001
1000
0001
0010
0100
0010
0001
1000
0010
0100
0001
,
1000
0000
0100
0010
0100
0000
0010
0001
1000
0001
0100
0010
1000
0000
0400
0000
,
1300
0001
1000
0100
1000
0010
0100
0010
1000
0100
1000
0001
1000
0010
0100
0010
,
1000
0001
1000
0100
1000
0010
0100
0010
1000
0100
1000
0001
1000
0010
0100
0010
,
1000
0001
1000
0010
1000
0100
0010
0100
1000
0010
1000
0001
1000
0100
0010
0100
,
1000
0001
1000
0010
1000
0100
0010
0100
1000
0010
1000
0001
1000
0100
0010
0100
,
1000
0001
0010
0001
0100
0001
1000
0001
0010
0100
1000
0001
0100
0010
1000
0010
,
1000
0001
0010
0001
0100
0001
1000
0001
0010
0100
1000
0100
0010
0100
1000
0001
,
1000
0001
0100
0001
0010
0001
1000
0001
0010
0100
0010
0001
1000
0010
0100
0001
,
1000
0010
1000
0001
0010
0100
1000
0010
0400
0000
0301
0000
0001
0000
1000
0000
,
0001
0010
0100
1000
0001
0100
0010
0100
0001
1000
0100
0010
0001
0100
0010
0100
,
0001
0010
0100
1000
0001
0100
0010
0100
0001
1000
0100
0010
0001
0100
0010
0100
,
0001
0100
0010
1000
0001
0010
0100
0010
0001
1000
0010
0100
0001
0010
0100
0010
,
0001
0100
0010
1000
0001
0010
0100
0010
0001
1000
0010
0100
0001
0010
0100
0010
,
0001
1000
0100
1000
0010
1000
0001
1000
0100
0010
0001
1000
0010
0100
0001
0100
,
0001
1000
0100
1000
0010
1000
0001
1000
0100
0010
0001
0010
0100
0010
0001
1000
,
0001
1000
0010
1000
0100
1000
0001
1000
0100
0010
0100
1000
0001
0100
0010
1000
,
0001
0010
0100
0000
0010
0000
0100
0000
1000
0000
0010
0100
0001
0000
0040
0000
,
0031
1000
0001
0010
0001
0100
0010
0100
0001
0010
0001
1000
0001
0100
0010
0100
,
0001
1000
0001
0010
0001
0100
0010
0100
0001
0010
0001
1000
0001
0100
0010
0100
,
0001
1000
0001
0100
0001
0010
0100
0010
0001
0100
0001
1000
0001
0010
0100
0010
,
0001
1000
0001
0100
0001
0010
0100
0010
0001
0100
0001
1000
0001
0010
0100
0010
,
0001
1000
0100
1000
0010
1000
0001
1000
0100
0010
0001
1000
0010
0100
0001
0100
,
0001
1000
0100
1000
0010
1000
0001
1000
0100
0010
0001
0010
0100
0010
0001
1000
,
0001
1000
0010
1000
0100
1000
0001
1000
0100
0010
0100
1000
0001
0100
0010
1000
,
0001
0100
0010
1000
0100
0010
0001
0100
,
0001
0010
0100
1000
0001
0100
0010
1000
,
0100
1000
0001
0010
0100
0010
0001
0100
,
0010
1000
0001
1000
0100
0010
0001
0100
,
0001
1000
0100
1000
0010
0010
1000
1000
,
0001
0010
0100
1000
0010
0100
0001
0100
,
0010
1000
0100
1000
0001
0100
0010
0100
,
0001
1000
0100
0010
0001
0100
0001
0010
,
0004
1003
0040
1030
0004
0013
0100
0100
,
1000
0001
0100
0001
1000
0100
0010
0001
,
0100
0010
1000
0001
1000
0001
0010
0100
,
0010
0001
0100
0010
1000
0100
1000
0100
,
0010
0001
0100
0001
0010
0010
0001
0001
,
1000
0010
1000
0001
0100
0010
0100
0001
,
1000
0100
0010
0001
0100
0010
0100
0001
,
1000
0100
0010
0100
1000
0100
0010
0001
,
0100
0010
0100
0000
0001
0000
0010
0000
0100
0000
1000
0001
1000
0000
0040
0000
,
1030
0100
1000
0001
0100
0001
0100
0010
,
1000
0100
0010
0001
1000
0100
1000
0001
,
0100
0010
0100
0001
0010
0100
0010
0001
,
1000
0010
0100
0010
1000
1000
0001
0001
,
0100
0010
0100
0001
1000
0100
0010
0100
,
1000
0010
0100
0001
1000
0001
0010
0100
,
0010
0001
0010
0001
0100
0001
1000
0100
,
0010
0001
1000
0001
0100
0000
0010
0000
,
1000
0000
0100
0010
0000
0000
0010
0000
0001
0000
1000
0000
0010
0000
0100
0000
,
0001
0000
1000
0010
0000
0000
0010
0000
1000
0000
0100
0000
1000
0000
0001
0000
,
0100
0000
0001
1000
0000
0000
1000
0000
0100
0000
0010
0000
0001
0000
1000
0000
,
0010
0100
0001
1000
0001
0010
0100
1000
0010
0100
0001
1000
0001
0000
1000
0000
,
0010
0000
1000
0001
0000
0000
0001
0000
0010
0000
0100
0000
0010
0000
0001
0000
,
1000
0000
0001
0100
0000
0000
0100
0000
0010
0000
1000
0000
0100
0000
0010
0000
,
0001
0000
1000
0010
0000
0000
0010
0000
0100
0000
0001
0000
0100
0000
0010
0000
,
1000
0100
0010
0001
0100
0001
0100
0010
1000
0001
0010
0100
1000
0000
0001
0000
,
0100
0000
0010
1000
0000
0000
1000
0000
0100
0000
0010
0000
0001
0000
0100
0000
,
0001
0000
1000
0001
0000
0000
0001
0000
0100
0000
0010
0000
0100
0000
0001
0000
,
0010
0000
0100
0010
0000
0000
0010
0000
0001
0000
1000
0000
0010
0000
1000
0000
,
0001
1000
0001
0100
0010
1000
0100
0010
0001
0010
0100
1000
0001
0000
0100
0000
,
0010
1000
0010
1000
0001
0000
0100
0000
0010
1000
0010
1000
0100
0000
0010
0000
,
0001
1000
0001
1000
0100
0000
1000
0000
0010
0100
0010
0100
0001
0000
1000
0000
,
0100
0010
0100
0010
0001
0000
1000
0000
0010
1000
0010
1000
0001
0000
0100
0000
,
0010
1000
0100
0010
0001
0000
1000
0000
,
0001
0010
0001
0100
0010
1000
0001
0010
0100
0010
0001
1000
0001
0100
0010
1000
,
0001
0100
0001
0010
0001
0010
0100
1000
0100
0010
0001
1000
0010
0100
0010
1000
,
0001
0010
0001
0100
0001
1000
0100
0010
0001
1000
0001
0100
0010
1000
0001
1000
,
0001
0100
0001
0010
0100
1000
0001
0010
0001
0100
0010
1000
0100
1000
0010
0100
,
0001
0010
0001
0100
0001
1000
0100
0010
0001
0010
0001
1000
0010
0100
0001
1000
,
0001
0100
0001
0010
0001
1000
0100
0010
0001
1000
0010
0100
0001
1000
0100
1000
,
0001
0010
0001
0100
0001
1000
0001
0010
0100
1000
0100
1000
0001
0100
0010
0100
,
0001
0000
1000
0010
0000
0100
0001
1000
0001
0000
0010
0000
0100
0000
1000
0000
,
0001
0100
0001
0010
0100
1000
0001
0100
0010
0100
0001
1000
0001
0010
0100
1000
,
0001
0010
0001
0100
0001
0100
0010
1000
0010
0100
0001
1000
0100
0010
0100
1000
,
0001
0100
0001
0010
0001
1000
0010
0100
0001
1000
0001
0010
0100
1000
0001
1000
,
0001
0010
0001
0100
0010
1000
0001
0100
0001
0010
0100
1000
0010
1000
0100
0010
,
0001
0100
0001
0010
0001
1000
0010
0100
0001
0100
0001
1000
0100
0010
0001
1000
,
0001
0010
0001
0100
0001
1000
0010
0100
0001
1000
0100
0010
0001
1000
0010
1000
,
0001
0100
0001
0010
0001
1000
0001
0100
0010
1000
0010
1000
0001
0010
0100
0010
,
0001
0000
1000
0100
0000
0010
0001
1000
0001
0000
0000
0000
1000
0000
0000
0000
,
0001
0010
0001
0100
0010
1000
0001
0010
0100
0010
0001
1000
0001
0100
0010
1000
,
0001
0100
0001
0010
0001
0010
0100
1000
0100
0010
0001
1000
0010
0100
0010
1000
,
0001
0010
0001
0100
0001
1000
0100
0010
0001
1000
0001
0100
0010
1000
0001
1000
,
0001
0100
0001
0010
0100
1000
0001
0010
0001
0100
0010
1000
0100
1000
0010
0100
,
0001
0010
0001
0100
0001
1000
0100
0010
0001
0010
0001
1000
0010
0100
0001
1000
,
0001
0100
0001
0010
0001
1000
0100
0010
0001
1000
0010
0100
0001
1000
0100
1000
,
0001
0010
0001
0100
0001
1000
0001
0010
0100
1000
0100
1000
0001
0100
0010
0100
,
0001
0000
1000
0010
0000
0100
0001
1000
0001
0000
0010
0000
0100
0000
1000
0000
,
0001
0100
0001
0010
0100
1000
0001
0100
0010
0100
0001
1000
0001
0010
0100
1000
,
0001
0010
0001
0100
0001
0100
0010
1000
0010
0100
0001
1000
0100
0010
0100
1000
,
0001
0100
0001
0010
0001
1000
0010
0100
0001
1000
0001
0010
0100
1000
0001
1000
,
0001
0010
0001
0100
0010
1000
0001
0100
0001
0010
0100
1000
0010
1000
0100
0010
,
0001
0100
0001
0010
0001
1000
0010
0100
0001
0100
0001
1000
0100
0010
0001
1000
,
0001
0010
0001
0100
0001
1000
0010
0100
0001
1000
0100
0010
0001
1000
0010
1000
,
0001
0100
0001
0010
0001
1000
0001
0100
0010
1000
0010
1000
0001
0010
0100
0010
,
0001
0000
1000
0100
0000
0010
0001
1000
0001
0000
0000
0000
1000
0000
0000
0000
,
0001
0100
0010
1000
0100
0010
0001
0100
,
0010
0000
1000
0000
0001
0000
0100
0000
0010
0000
1000
0100
0010
0000
0001
0010
,
0100
0010
0001
1000
0010
0100
0001
0010
,
0100
0010
0100
0010
0001
0000
1000
0000
0010
0100
0010
0100
0001
0000
1000
0000
,
0100
0010
0001
1000
0010
0100
0001
0010
,
0100
0000
0010
0000
0001
0000
1000
0000
0010
0000
0100
0001
1000
0000
0100
0010
,
0001
1000
0010
0100
0010
1000
0100
0010
,
0001
0100
0001
0000
1000
0000
0001
0000
1000
0000
0100
1000
0010
0000
0400
0000
,
0301
0010
0001
0100
0010
1000
0001
1000
,
0001
0000
0010
0000
0100
0000
0010
0000
0001
0000
1000
0010
0100
0000
0010
1000
,
0001
0010
0100
1000
0010
0100
0001
0100
,
0010
1000
0010
1000
0100
0000
0010
0000
0001
1000
0001
1000
0010
0000
0100
0000
,
0001
1000
0100
0010
0001
0100
0010
0100
,
0001
0000
0010
0000
0100
0000
0010
0000
0001
0000
1000
0010
0100
0000
0001
1000
,
0100
0010
0100
1000
0001
0100
0010
0100
,
0001
0000
0000
1000
0000
0000
0100
0000
2000
0000
0000
0000
3002
0003
0000
0000
,
1000
0100
0010
0100
1000
0001
0100
0010
0100
0010
1000
0001
0010
0100
1000
0001
,
0100
0001
0100
0010
1000
0001
0010
0100
1000
0001
0100
0010
0100
0001
1000
0001
,
1000
0100
0010
0001
0010
0001
1000
0010
0100
0001
1000
0001
0010
0100
1000
0001
,
0010
0100
1000
0001
0100
0001
0100
0010
1000
0001
0010
0001
1000
0010
0100
0001
,
1000
0100
0010
0100
1000
0001
0100
0010
0100
0010
1000
0001
0010
0100
1000
0001
,
0100
0001
0100
0010
1000
0001
0010
0100
1000
0001
0100
0010
0100
0001
1000
0001
,
1000
0100
0010
0001
0010
0001
1000
0010
0100
0001
1000
0001
0010
0100
1000
0001
,
0010
0100
1000
0001
0100
0001
0100
0010
1000
0001
0010
0001
1000
0010
0100
0001
,
1000
0010
0100
0010
1000
0001
0010
0100
0010
0100
1000
0001
0100
0010
1000
0001
,
0010
0001
0010
0100
1000
0001
0100
0010
1000
0001
0010
0100
0010
0001
1000
0001
,
1000
0010
0100
0001
0100
0001
1000
0100
0010
0001
1000
0001
0100
0010
1000
0001
,
0100
0010
1000
0001
0010
0001
0010
0100
1000
0001
0100
0001
1000
0100
0010
0001
,
1000
0010
0100
0010
1000
0001
0010
0100
0010
0100
1000
0001
0100
0010
1000
0001
,
0010
0001
0010
0100
1000
0001
0100
0010
1000
0001
0010
0100
0010
0001
1000
0001
,
1000
0010
0100
0001
0100
0001
1000
0100
0010
0001
1000
0001
0100
0010
1000
0001
,
0100
0010
1000
0001
0010
0001
0010
0100
1000
0001
0100
0001
1000
0100
0010
0001
,
1000
0010
0100
0001
0010
0100
1000
0100
0010
0100
1000
0001
0100
0010
1000
0010
,
1000
0100
0010
0001
0010
0100
1000
0010
0100
0001
1000
0001
0100
0001
1000
0100
,
0010
0100
1000
0001
0100
0010
1000
0100
0010
0100
1000
0001
0010
0001
1000
0010
,
1000
0100
0010
0001
1000
0100
0010
0100
1000
0010
0100
0001
0100
0001
1000
0100
,
1000
0010
0100
0001
0010
0100
1000
0100
0010
0100
1000
0001
0100
0010
1000
0010
,
1000
0100
0010
0001
0010
0100
1000
0010
0100
0001
1000
0001
0100
0001
1000
0100
,
0010
0100
1000
0001
0100
0010
1000
0100
0010
0100
1000
0001
0010
0001
1000
0010
,
1000
0100
0010
0001
1000
0100
0010
0100
1000
0010
0100
0001
0100
0001
1000
0100
,
1000
0100
0010
0001
0100
0010
1000
0010
0100
0010
1000
0001
0010
0100
1000
0100
,
1000
0010
0100
0001
0100
0010
1000
0100
0010
0001
1000
0001
0010
0001
1000
0010
,
0100
0010
1000
0001
0010
0100
1000
0010
0100
0010
1000
0001
0100
0001
1000
0100
,
1000
0010
0100
0001
1000
0010
0100
0010
1000
0100
0010
0001
0010
0001
1000
0100
,
1000
0100
0010
0001
0100
0010
1000
0010
0100
0010
1000
0001
0010
0100
1000
0100
,
1000
0010
0100
0001
0100
0010
1000
0100
0010
0001
1000
0001
0010
0001
1000
0010
,
0100
0010
1000
0001
0010
0100
1000
0010
0100
0010
1000
0001
0100
0001
1000
0100
,
1000
0000
0100
0000
1000
0100
0010
0001
1000
0000
0010
0000
0100
0000
0001
0000
,
1000
0100
1000
0010
0100
0001
1000
0100
0010
0100
1000
0001
1000
0010
0100
0001
,
1000
0010
1000
0100
1000
0100
0010
0001
0010
0100
1000
0001
0100
0010
0100
0001
,
1000
0100
1000
0010
1000
0001
0010
0100
1000
0001
1000
0010
0100
0001
1000
0001
,
1000
0010
1000
0100
0010
0001
1000
0100
1000
0010
0100
0001
0010
0001
0100
0010
,
1000
0100
1000
0010
1000
0001
0010
0100
1000
0100
1000
0001
0100
0010
1000
0001
,
1000
0010
1000
0100
1000
0001
0010
0100
1000
0001
0100
0010
1000
0001
0010
0001
,
1000
0100
1000
0010
1000
0001
1000
0100
0010
0001
0010
0001
1000
0010
0100
0010
,
1000
0000
0001
0100
0010
0000
1000
0001
1000
0100
0010
0001
1000
0000
0004
0000
,
1003
0010
1000
0100
0010
0001
1000
0010
0100
0010
1000
0001
1000
0100
0010
0001
,
1000
0100
1000
0010
1000
0010
0100
0001
0100
0010
1000
0001
0010
0100
0010
0001
,
1000
0010
1000
0100
1000
0001
0100
0010
1000
0001
1000
0100
0010
0001
1000
0001
,
1000
0100
1000
0010
0100
0001
1000
0010
1000
0100
0010
0001
0100
0001
0010
0100
,
1000
0010
1000
0100
1000
0001
0100
0010
1000
0010
1000
0001
0010
0100
1000
0001
,
1000
0100
1000
0010
1000
0001
0100
0010
1000
0001
0010
0100
1000
0001
0100
0001
,
1000
0010
1000
0100
1000
0001
1000
0010
0100
0001
0100
0001
1000
0100
0010
0100
,
1000
0000
0001
0010
0000
0100
1000
0001
1000
0000
0000
0000
0001
0000
0000
0000
,
1000
0100
1000
0010
0100
0001
1000
0100
0010
0100
1000
0001
1000
0010
0100
0001
,
1000
0010
1000
0100
1000
0100
0010
0001
0010
0100
1000
0001
0100
0010
0100
0001
,
1000
0100
1000
0010
1000
0001
0010
0100
1000
0001
1000
0010
0100
0001
1000
0001
,
1000
0010
1000
0100
0010
0001
1000
0100
1000
0010
0100
0001
0010
0001
0100
0010
,
1000
0100
1000
0010
1000
0001
0010
0100
1000
0100
1000
0001
0100
0010
1000
0001
,
1000
0010
1000
0100
1000
0001
0010
0100
1000
0001
0100
0010
1000
0001
0010
0001
,
1000
0100
1000
0010
1000
0001
1000
0100
0010
0001
0010
0001
1000
0010
0100
0010
,
1000
0000
0001
0100
0010
0000
1000
0001
1000
0100
0010
0001
1000
0000
0004
0000
,
1003
0010
1000
0100
0010
0001
1000
0010
0100
0010
1000
0001
1000
0100
0010
0001
,
1000
0100
1000
0010
1000
0010
0100
0001
0100
0010
1000
0001
0010
0100
0010
0001
,
1000
0010
1000
0100
1000
0001
0100
0010
1000
0001
1000
0100
0010
0001
1000
0001
,
1000
0100
1000
0010
0100
0001
1000
0010
1000
0100
0010
0001
0100
0001
0010
0100
,
1000
0010
1000
0100
1000
0001
0100
0010
1000
0010
1000
0001
0010
0100
1000
0001
,
1000
0100
1000
0010
1000
0001
0100
0010
1000
0001
0010
0100
1000
0001
0100
0001
,
1000
0010
1000
0100
1000
0001
1000
0010
0100
0001
0100
0001
1000
0100
0010
0100
,
1000
0001
0000
0100
0001
0000
2000
0000
,
3000
0000
0000
0000
;
