#TITLE:Think About The Omen;
#SUBTITLE:;
#ARTIST:Loffciamcore feat.odaxelagnia;
#TITLETRANSLIT:;
#SUBTITLETRANSLIT:;
#ARTISTTRANSLIT:;
#CREDIT:Tyler;
#BANNER:think about the bn.png;
#BACKGROUND:think about the bg.png;
#LYRICSPATH:;
#CDTITLE:;
#MUSIC:Think About The Omen.ogg;
#OFFSET:-0.024;
#SAMPLESTART:33.345;
#SAMPLELENGTH:12.000;
#SELECTABLE:YES;
#DISPLAYBPM:180.000;
#BPMS:0.000=180.000;
#STOPS:;
#BGCHANGES:;
// cache tags:
#FIRSTBEAT:36.000;
#LASTBEAT:462.000;
#SONGFILENAME:Songs/SPEEEDCOOOORE 2/Think About The Omen - [Tyler]/Think About The Omen.sm;
#HASMUSIC:1;
#HASBANNER:1;
#MUSICLENGTH:155.376;
// end cache tags

//---------------dance-single - T. Moore----------------
#NOTES:
     dance-single:
     T. Moore:
     Challenge:
     13:
     1.000,1.000,0.187,0.547,1.000,944.000,29.000,85.000,146.000,2.000:

0000
0000
0000
0000
,
0000
0000
0000
0000
,
0000
0000
0000
0000
,
0000
0000
0000
0000
,
0000
0000
0000
0000
,
0000
0000
0000
0000
,
0000
0000
0000
0000
,
0000
0000
0000
0000
,
0000
0000
0000
0000
,
1000
0000
0001
0000
0011
0000
0010
0001
1000
0001
1000
0000
1010
0000
1000
0001
,
0010
0000
0000
0000
0110
0000
0100
1000
0001
1000
0100
0000
0011
0000
0010
0100
,
1000
0000
1000
0000
1001
0000
0001
1000
0100
0010
0001
0000
1001
0000
1000
0001
,
0100
0000
0000
0000
0000
0000
0010
0000
0000
0000
0000
0000
1010
0000
0000
0000
0000
0000
1000
0000
0000
0001
0000
0000
1000
0000
0100
0000
1000
0000
0100
0000
1000
0000
0100
0000
1000
0000
0100
0000
1000
0000
0100
0000
1000
0000
0100
0000
,
0010
0000
0010
0000
0011
0000
0001
0010
0100
1000
0001
0000
1001
0000
1000
0000
,
1100
0000
0000
0000
0010
0000
0100
1000
0001
1000
0100
0000
0010
0000
0001
0010
,
0100
0000
0100
0000
1000
0000
0001
1000
0100
1000
0100
0000
0020
0000
0000
0000
,
1131
0000
0000
0000
2000
3020
0230
0300
,
0001
0100
0010
0000
1000
0000
0010
0000
0100
0000
0001
0000
0010
0000
0100
0000
,
1000
0100
1000
0000
0001
0000
1000
0000
0100
0000
0010
0000
0001
0000
1000
0001
,
0100
0010
0100
0000
0001
0000
0100
0000
0010
0000
1000
0000
0001
0000
0010
0000
,
0100
1000
0100
0000
0010
0000
0001
0000
1000
0000
0001
0000
0202
0000
0303
0000
,
1M00
1M00
0001
0010
0100
1000
0010
0100
,
0001
0100
0010
0000
1000
0000
0001
0000
0010
0000
0100
0000
1000
0000
0001
1000
,
0100
0010
0001
0000
1000
0000
0001
0000
M2MM
0000
M0MM
0000
M0MM
0000
M0MM
0000
,
M32M
0000
MM0M
0000
MM0M
0000
MM0M
0030
2M02
0000
3003
0000
10M0
0000
10M0
0000
,
0001
0100
0001
0000
0010
0000
0100
0000
1000
0000
0100
0000
0010
0000
0001
0000
,
1000
0001
1000
0001
1000
0001
1000
0000
0000
0001
0000
0000
0100
0000
0000
0010
0000
0000
4000
0000
0000
0000
0000
0000
,
3100
0010
0100
0000
1000
0000
0001
0000
0100
0000
0010
0000
1000
0000
0010
0000
,
0100
0001
0100
0000
0010
0000
1000
0000
0100
0000
0010
0000
00M1
0000
0000
0000
,
2002
0000
3003
0000
001M
0000
001M
0000
1000
0001
1000
0100
0010
0001
1000
0001
,
0100
0000
0000
0000
0000
0000
0000
0000
0001
0000
0000
0000
0000
0000
0000
0000
0100
0000
0000
0000
0000
0000
0000
0000
0004
0000
0000
0000
0000
0000
0000
0000
0000
0000
0000
0000
0000
0000
0000
0000
0000
0000
0003
0000
0000
0000
0000
0000
1000
0000
0000
0000
0000
0000
0000
0000
0000
0000
0000
0000
0100
0000
0000
0000
0000
0000
0000
0000
0000
0000
0000
0000
0010
0000
0000
0000
0000
0000
0000
0000
0000
0000
0000
0000
0001
0000
0000
0000
0000
0000
0000
0000
0000
0000
0000
0000
1000
0000
0000
0000
0000
0000
0000
0000
0000
0000
0000
0000
0010
0000
0000
0000
0000
0000
0000
0000
0000
0000
0000
0000
0100
0000
0000
0000
0000
0000
0000
0000
0000
0000
0000
0000
0001
0000
0000
0000
0000
0000
0000
0000
0000
0000
0000
0000
1000
0000
0000
0000
0000
0000
0000
0000
0100
0000
0000
0000
0000
0000
0000
0000
1000
0000
0000
0000
0000
0000
0000
0000
0100
0000
0000
0000
0000
0000
0000
0000
1000
0000
0000
0000
0000
0000
0000
0000
0100
0000
0000
0000
0000
0000
0000
0000
,
0040
0000
0000
0030
0100
0000
1000
0000
0001
0000
1000
0000
0001
0000
1000
0000
0M2M
0000
0000
0000
MM0M
0000
0000
0000
MM0M
0000
0000
0000
MM3M
0000
0000
0000
,
M1M0
0000
0000
0000
0000
0000
0000
0000
0001
0000
0000
0000
0000
0000
0000
0000
0100
0000
0000
0000
0000
0000
0000
0000
M0M1
0000
0000
0000
0000
0000
0000
0000
0100
0000
0000
0000
0000
0000
0000
0000
0001
0000
0000
0000
0000
0000
0000
0000
M1M0
0000
0000
0000
0000
0000
0000
0000
0001
0000
0000
0000
0000
0000
0000
0000
0100
0000
0000
0000
0000
0000
0000
0000
M0M1
0000
0000
0000
0000
0000
0000
0000
0100
0000
0000
0000
0000
0000
0000
0000
0001
0000
0000
0000
0000
0000
0000
0000
04M0
0000
0000
0000
0000
0000
0000
0000
0000
0000
0000
0000
0000
0000
0000
0000
0000
0000
0000
0000
0000
0000
0000
0000
0000
0000
0000
0000
0000
0000
0000
0000
0000
0000
0000
0000
0000
0000
0000
0000
0000
0000
0000
0000
0000
0000
0000
0000
0000
0000
0000
0000
0000
0000
0000
0000
0000
0000
0000
0000
0000
0000
0000
0000
0000
0000
0000
0000
0000
0000
0000
0000
0000
0000
0000
0000
0000
0000
0000
0000
0000
0000
0000
0000
0000
0000
0000
0000
0000
0000
0000
0000
0000
0300
0000
0000
,
2020
3030
0001
0010
,
0001
0000
0000
0000
0001
0000
0100
0100
,
0010
1000
0100
1000
,
0001
1000
0001
1000
0100
0000
0100
0000
0010
0000
0010
0000
0001
0000
0010
0000
,
0100
0000
0100
1000
,
0001
0000
0000
0000
0001
0000
0100
0100
,
0010
1000
0100
1000
,
0001
0100
0001
0100
0010
0000
0010
0000
1000
0000
1000
0000
0010
0000
0010
0000
,
0100
0100
0001
1000
0100
0010
0100
1000
,
1000
1000
1000
1000
0001
0000
0100
0100
,
0010
1000
0100
1000
,
0001
1000
0001
1000
0001
1000
0010
0000
0000
1000
0010
1000
0001
0000
0000
1000
0000
0000
0100
1000
0100
1000
0100
1000
,
0100
1000
0100
1000
0000
0000
0001
0000
0000
0100
0000
0000
0010
0000
0000
1000
0000
0000
1000
0000
0000
1000
0000
0000
,
1000
1000
1000
1000
0100
0000
1000
1000
,
0010
0100
0001
0010
,
0100
0000
1000
0000
M002
0203
0320
0000
,
1030
0000
0000
0100
0000
0000
1000
0000
0000
0100
0000
0000
0010
0000
0000
0001
0000
0000
1000
0000
0000
0010
0000
0000
0100
0000
0000
0001
0000
0000
0100
0000
0000
0001
0000
0000
1000
0000
0001
0000
1000
0000
0001
0000
1000
0000
0001
0000
,
1000
0000
0000
0100
0000
0000
0010
0000
0000
0001
0000
0000
1000
0000
0000
0100
0000
0000
0010
0000
0000
0001
0000
0000
1000
0000
0000
0010
0000
0000
0100
0000
0000
0001
0000
0000
1000
0000
0010
0000
1000
0000
0001
0000
1000
0000
0001
0000
,
0010
0000
0001
0000
0010
0000
0001
0000
0100
0000
0010
0000
1000
0000
0001
0000
0040
0000
0000
0030
0100
0000
1000
0000
0040
0000
0000
0030
0100
0000
0001
0000
,
1000
0000
0000
0000
0000
0000
0000
0000
0001
0000
0000
0000
0000
0000
0000
0000
1000
0000
0000
0000
0000
0000
0000
0000
0001
0000
0000
0000
0000
0000
0000
0000
1000
0000
0000
0000
0000
0000
0000
0000
0001
0000
0000
0000
0000
0000
0000
0000
0040
0000
0000
0000
0000
0000
0000
0000
0000
0000
0000
0000
0000
0000
0000
0000
0000
0000
0000
0000
0000
0000
0000
0000
0000
0000
0000
0000
0000
0000
0000
0000
0000
0000
0000
0000
0000
0000
0000
0000
0000
0000
0030
0000
0000
0000
0000
0000
2200
0000
0000
0000
0000
0000
0000
0000
0000
0000
0000
0000
0000
0000
0000
0000
0000
0000
0000
0000
0000
0000
0000
0000
0000
0000
0000
0000
0000
0000
0000
0000
0000
0000
0000
0000
0000
0000
0000
0000
0000
0000
0000
0000
0000
0000
0000
0000
0000
0000
0000
0000
0000
0000
0000
0000
0000
0000
0000
0000
0000
0000
0000
0000
0000
0000
0000
0000
0000
0000
0000
0000
0000
0000
0000
0000
0000
0000
0000
0000
0000
0000
0000
0000
0000
0000
0000
0000
0000
0000
0300
0000
0000
0000
0000
0000
,
3001
0000
0001
0000
0001
0000
0001
0000
1000
0001
0010
0100
0010
0001
0100
0010
,
1000
0001
1000
0010
0400
0000
0000
0000
0310
1000
0010
1000
0100
0010
0001
1000
,
0040
0000
0000
0000
0000
0000
0030
0000
0000
0000
0000
0000
1000
0000
0000
0000
0000
0000
0000
0000
0000
0000
0000
0000
0040
0000
0000
0000
0000
0000
0030
0000
0000
0000
0000
0000
1000
0000
0000
0000
0000
0000
0000
0000
0000
0000
0000
0000
0001
0000
0000
0000
0000
0000
0000
0000
0000
0000
0000
0000
0100
0000
0000
0000
0000
0000
0000
0000
0000
0000
0000
0000
0010
0000
0000
0000
0000
0000
0000
0000
0000
0000
0000
0000
1000
0000
0000
0000
0000
0000
0000
0000
0000
0000
0000
0000
0001
0000
0000
0000
0000
0000
0000
0000
1000
0000
0000
0000
0000
0000
0000
0000
0001
0000
0000
0000
0000
0000
0000
0000
0010
0000
0000
0000
0000
0000
0000
0000
0100
0000
0000
0000
0000
0000
0000
0000
1000
0000
0000
0000
0000
0000
0000
0000
0004
0000
0000
0000
0000
0000
0000
0000
0000
0000
0000
0000
0000
0000
0000
0000
0000
0000
0000
0000
0000
0000
0000
0000
0000
0000
0000
0000
0000
0000
0000
0000
0000
0000
0000
0000
0000
0000
0000
0000
0000
0000
0003
0000
0000
0000
0000
0000
,
0004
1003
0004
0003
1000
0100
1000
0100
0020
0000
0000
0000
0000
0000
0000
0000
,
0031
0000
0000
0001
0000
0000
1000
0100
1000
0001
0010
0100
1000
0001
1000
0001
1000
0001
0040
0000
0000
0000
0000
0000
,
0031
1000
0010
0100
0001
0100
0010
1000
0001
0000
0001
0000
0001
0000
0001
0000
,
1000
0000
0000
0010
0000
0000
1000
0000
0000
0010
0000
0000
0100
0000
0000
0001
0000
0000
1000
0000
0000
0100
0000
0000
0010
0000
0000
0001
0000
0000
0010
0000
0000
0001
0000
0000
1000
0000
0001
0000
1000
0000
0040
0000
0000
0030
0000
0000
,
1000
0001
0010
0100
1000
0001
0100
0001
0010
0000
0010
0000
0210
0000
0000
0000
,
1300
0000
1000
0000
00M1
0000
00M1
0000
1000
0010
1000
0010
0100
0001
0010
0001
,
0010
0000
0000
0100
0000
0000
1000
0000
0000
0001
0000
0000
0100
0000
0000
0010
0000
0000
1000
0000
0000
0001
0000
0000
1000
0000
0100
0000
0010
0000
0004
0000
0000
0003
0000
0000
1000
0000
0100
0000
0010
0000
0004
0000
0000
0003
0000
0000
,
1000
0001
1000
0001
0100
0010
1000
0100
0010
0001
0010
0001
1000
0010
0100
0001
,
0010
0010
0010
0010
0220
0000
M03M
0000
,
1300
0100
0010
0000
0001
0000
1000
0000
0010
0000
0100
0000
0001
0000
0010
0000
,
0100
0000
0000
1000
0000
0000
0001
0000
0000
0000
0000
0000
0010
0000
0000
0000
0000
0000
0100
0000
0000
0000
0000
0000
1000
0000
0000
0000
0000
0000
0001
0000
0000
0000
0000
0000
1000
0000
0001
0000
1000
0000
0040
0000
0000
0000
0000
0000
,
0130
0001
0100
0000
0010
0000
1000
0000
0001
0000
0010
0000
0001
0000
0100
0000
,
0010
1000
0001
0000
1000
0000
0100
0000
0010
0000
0100
0000
2000
0000
0000
0000
,
3004
0000
0000
0003
1000
0000
0000
0000
0100
0000
0000
0000
0010
0000
0000
0000
0004
0000
0000
0003
1000
0000
0000
0000
0004
0000
0000
0003
1000
0000
0000
0000
,
0010
0000
0000
0000
0100
0000
0000
0000
0010
0000
0000
0000
1000
0000
0000
0000
0004
0000
0000
0003
1000
0000
0100
0000
0010
0000
0000
0000
0001
0000
0000
0000
,
0400
0000
0000
0300
0010
0000
0000
0000
1M00
0000
0000
0000
1M00
0000
0000
0000
0004
0000
0000
0003
0010
0000
0000
0000
0100
0000
0000
0000
1000
0000
0000
0000
,
0M2M
MM0M
MM0M
MM0M
M23M
M0MM
M0MM
M0MM
,
M3M1
0001
0001
0001
1000
0010
0100
0001
,
1000
0000
0000
0000
0000
0000
0000
0000
0001
0000
0000
0000
0000
0000
0000
0000
1000
0000
0000
0000
0000
0000
0000
0000
0400
0000
0000
0000
0000
0000
0000
0000
0000
0000
0000
0000
0000
0000
0000
0000
0000
0000
0300
0000
0000
0000
0000
0000
0010
0000
0000
0000
0000
0000
0000
0000
0000
0000
0000
0000
0000
0000
0000
0000
0000
0000
0000
0000
0000
0000
0000
0000
0100
0000
0000
0000
0000
0000
0000
0000
0000
0000
0000
0000
0000
0000
0000
0000
0000
0000
0000
0000
0000
0000
0000
0000
2100
0000
0000
0000
0000
0000
0000
0000
0000
0000
0000
0000
0000
0000
0000
0000
0000
0000
0000
0000
0000
0000
0000
0000
0000
0000
0000
0000
0000
0000
0000
0000
0000
0000
0000
0000
0000
0000
0000
0000
0000
0000
0000
0000
0000
0000
0000
0000
30M1
0000
0000
0000
0000
0000
0000
0000
0000
0000
0000
0000
0000
0000
0000
0000
0000
0000
0000
0000
0000
0000
0000
0000
00M1
0000
0000
0000
0000
0000
0000
0000
0000
0000
0000
0000
0000
0000
0000
0000
0000
0000
0000
0000
0000
0000
0000
0000
,
1000
0000
0000
0000
0000
0000
0000
0000
0000
0000
0000
0000
0001
0000
0000
0000
0000
0000
0000
0000
0000
0000
0000
0000
0100
0000
0000
0000
0000
0000
0000
0000
0000
0000
0000
0000
0000
0000
0000
0000
0000
0000
0000
0000
0000
0000
0000
0000
0010
0000
0000
0000
0000
0000
0000
0000
0000
0000
0000
0000
0000
0000
0000
0000
0000
0000
0000
0000
0000
0000
0000
0000
0100
0000
0000
0000
0000
0000
0000
0000
0000
0000
0000
0000
0000
0000
0000
0000
0000
0000
0000
0000
0000
0000
0000
0000
0001
0000
0000
0000
0000
0000
0000
0000
0000
0000
0000
0000
0000
0000
0000
0000
0000
0000
0000
0000
0000
0000
0000
0000
1000
0000
0000
0000
0000
0000
0000
0000
0000
0000
0000
0000
0000
0000
0000
0000
0000
0000
0000
0000
0000
0000
0000
0000
0001
0000
0000
0000
0000
0000
0000
0000
1000
0000
0000
0000
0000
0000
0000
0000
0001
0000
0000
0000
0000
0000
0000
0000
0040
0000
0000
0000
0000
0000
0000
0000
0000
0000
0000
0000
0000
0000
0000
0000
0000
0000
0030
0000
0000
0000
0000
0000
,
0100
1000
0100
0000
0010
0000
0001
0000
0100
0001
0100
0001
1000
0010
1000
0010
,
0100
0000
0000
0000
M100
0000
M100
0000
0001
0100
0010
1000
0001
1000
0400
0000
,
1300
0000
0000
0000
0000
0000
0000
0000
0000
0000
0000
0000
0001
0000
0000
0000
0000
0000
0000
0000
0000
0000
0000
0000
0010
0000
0000
0000
0000
0000
0000
0000
0000
0000
0000
0000
0001
0000
0000
0000
0000
0000
0000
0000
0000
0000
0000
0000
1000
0000
0000
0000
0000
0000
0000
0000
0000
0000
0000
0000
0001
0000
0000
0000
0000
0000
0000
0000
0000
0000
0000
0000
0100
0000
0000
0000
0000
0000
0000
0000
0000
0000
0000
0000
0010
0000
0000
0000
0000
0000
0000
0000
0000
0000
0000
0000
1000
0000
0000
0000
0000
0000
0000
0000
0010
0000
0000
0000
0000
0000
0000
0000
1000
0000
0000
0000
0000
0000
0000
0000
0004
0000
0000
0000
0000
0000
0000
0000
0000
0000
0000
0000
0000
0000
0000
0000
0000
0000
0003
0000
0000
0000
0000
0000
2MM0
0000
0000
0000
0000
0000
0000
0000
0000
0000
0000
0000
0000
0000
0000
0000
0000
0000
0000
0000
0000
0000
0000
0000
0000
0000
0000
0000
0000
0000
0000
0000
0000
0000
0000
0000
0000
0000
0000
0000
0000
0000
0000
0000
0000
0000
0000
0000
,
0000
0000
0000
0000
3M10
0000
0M10
0000
1000
0001
1000
0100
0010
0001
0100
0001
,
1000
0001
1000
0001
1000
0001
1000
0001
1000
0001
1000
0001
4000
0000
0000
0000
0000
0000
0000
0000
0000
0000
0000
3000
,
2222
0000
3333
0000
0001
0000
1000
0100
0010
0100
1000
0000
0001
0000
1000
0001
,
0100
0000
0100
0000
0010
0000
0100
0001
1000
0000
1000
0000
0100
0000
1000
0001
,
0100
0000
0100
0000
0010
0000
0100
0001
1000
0001
0100
0000
0010
0000
1000
0001
,
0100
0000
0000
0000
0000
0000
0100
0000
0000
0000
0000
0000
0010
0000
0000
0000
0000
0000
0100
0000
0000
0001
0000
0000
1000
0000
0001
0000
1000
0000
0001
0000
1000
0000
0001
0000
1000
0000
0001
0000
1000
0000
0001
0000
1000
0000
0001
0000
,
1000
0000
0001
0000
0100
0000
0001
1000
0100
0010
0001
0000
1000
0000
0001
0010
,
0100
0000
0100
0000
1000
0000
0100
0000
0010
0000
0010
0000
0001
0000
1000
0001
,
0400
0000
0000
0000
,
0000
0000
0000
0000
0000
0000
0000
0000
0000
0000
0000
0000
0000
0000
0000
0000
0000
0000
0000
0000
0000
0000
0000
0300
,
0001
0000
0020
0030
0100
0000
0020
0030
0001
0000
0020
0030
0100
0000
2000
3000
,
0001
0000
2000
3000
0100
0000
0020
0030
0001
0000
0020
0030
0100
1000
0100
1000
,
0001
0000
0200
0300
0010
0000
0200
0300
0001
0000
0200
0300
0010
0000
0200
0300
,
0002
0003
0200
0300
0020
0030
2000
3000
0002
0003
2000
3000
0002
0003
2000
3000
0200
0300
0020
0030
0002
0003
2000
3000
0004
0003
2000
3000
0004
0003
2000
3000
,
0100
0000
0020
0030
0001
0000
0020
0030
0100
0000
0020
0030
0001
0000
0200
0300
,
0010
0000
0200
0300
0001
0000
2000
3000
0100
0000
2000
3000
0001
1000
0001
1000
,
0010
0000
0200
0300
0002
0003
0200
0300
002M
0030
2M0M
3000
02MM
0300
20MM
3000
,
0M2M
0000
0000
0000
MM0M
0000
0000
0000
MM0M
0000
0000
0000
MM0M
0000
0000
0000
M43M
0000
0000
0300
0002
0000
0000
0000
2003
0000
0000
0000
3000
0000
0000
0000
,
0001
0100
0001
0000
0010
0000
0100
0000
1000
0000
0001
0000
0010
0000
0100
0000
,
0010
0001
1M00
0000
1M00
0000
0001
0000
0010
0000
0100
0000
1000
0000
0001
0100
,
0010
1000
0010
0000
0100
0000
0001
0000
1000
0000
0001
0000
0100
0000
0010
0000
,
1000
0010
1000
0000
0100
0000
0010
0000
0100
0000
1000
0000
1002
0000
0000
0000
,
M013
0000
0010
0100
1000
0100
0010
0001
,
0100
0000
0001
0000
0100
0000
0000
0000
0010
0000
0000
0000
0100
0000
0000
0000
0001
0000
0000
0000
0010
0000
0000
0000
0400
0000
0000
0300
1000
0000
0001
0000
,
0100
0001
0100
0000
0010
0000
1000
0000
0001
0000
1000
0000
0010
0000
0100
0000
,
0001
1000
0100
0000
0010
0000
0001
0000
2MMM
0000
0000
0000
0000
0000
0000
0000
,
3M10
0000
2MMM
0000
0000
0000
31M0
01M0
,
0010
0000
0001
0000
1000
0000
0001
0000
0100
0000
0010
0000
4000
0000
0000
3000
0010
0000
0100
0000
0001
0000
1000
0000
0001
0000
1000
0000
0400
0000
0000
0300
,
0010
0000
0000
0000
0000
0000
0000
0000
0000
0000
0000
0000
0001
0000
0000
0000
0000
0000
0000
0000
0000
0000
0000
0000
0010
0000
0000
0000
0000
0000
0000
0000
0000
0000
0000
0000
0001
0000
0000
0000
0000
0000
0000
0000
0000
0000
0000
0000
1000
0000
0000
0000
0000
0000
0000
0000
0001
0000
0000
0000
0000
0000
0000
0000
1000
0000
0000
0000
0000
0000
0000
0000
0040
0000
0000
0000
0000
0000
0000
0000
0000
0000
0000
0000
0000
0000
0000
0000
0000
0000
0030
0000
0000
0000
0000
0000
0100
0000
0000
0000
0000
0000
0000
0000
0000
0000
0000
0000
0001
0000
0000
0000
0000
0000
0000
0000
0000
0000
0000
0000
0100
0000
0000
0000
0000
0000
0000
0000
0000
0000
0000
0000
0001
0000
0000
0000
0000
0000
0000
0000
0000
0000
0000
0000
1000
0000
0000
0000
0000
0000
0000
0000
0000
0000
0000
0000
0100
0000
0000
0000
0000
0000
0000
0000
0000
0000
0000
0000
0040
0000
0000
0000
0000
0000
0000
0000
0000
0000
0000
0000
0000
0000
0000
0000
0000
0000
0030
0000
0000
0000
0000
0000
,
0100
1000
0001
1000
0001
0100
0010
1000
0200
0000
0000
0000
0000
0000
0000
0000
,
13M0
0000
0000
0000
10M0
0000
0000
0000
0001
0000
1000
0000
0100
0000
0010
0000
0001
0000
1000
0000
0040
0000
0000
0030
0100
0000
0001
0000
0040
0000
0000
0030
,
0100
0000
1000
0000
0001
0000
1000
0000
0100
0010
0001
1000
0001
0100
0010
1000
,
0002
0000
0000
0000
0000
0000
1003
0010
0100
0001
0100
0001
4000
0000
0000
0000
0000
0000
0000
0000
0000
0000
0000
0000
,
0MMM
0000
0000
0000
0MMM
0000
0000
0000
3M2M
0000
0000
0000
MM0M
0000
0000
0000
4030
0000
0000
3000
0200
0000
0000
0000
0320
0000
0000
0000
0030
0000
0000
0000
,
2M02
3M03
0M00
0M00
,
0M00
0M00
0M00
0M00
,
0M00
0M00
0M00
0000
;
